  0
SECTION
  2
HEADER
  9
$ACADVER
  1
AC1015
  9
$ACADMAINTVER
 70
    20
  9
$DWGCODEPAGE
  3
ANSI_1252
  9
$INSBASE
 10
0.0
 20
0.0
 30
0.0
  9
$EXTMIN
 10
19.87751773158606
 20
26.09731349234698
 30
-0.0000000349181948
  9
$EXTMAX
 10
492.9817969204134
 20
1012.580715274534
 30
0.0000000814935746
  9
$LIMMIN
 10
96.973237
 20
55.381977
  9
$LIMMAX
 10
217.489567
 20
289.136529
  9
$ORTHOMODE
 70
     1
  9
$REGENMODE
 70
     1
  9
$FILLMODE
 70
     1
  9
$QTEXTMODE
 70
     0
  9
$MIRRTEXT
 70
     1
  9
$LTSCALE
 40
1.0
  9
$ATTMODE
 70
     1
  9
$TEXTSIZE
 40
0.0
  9
$TRACEWID
 40
0.05
  9
$TEXTSTYLE
  7
Standard
  9
$CLAYER
  8
A-031_DimExt
  9
$CELTYPE
  6
ByLayer
  9
$CECOLOR
 62
   256
  9
$CELTSCALE
 40
1.0
  9
$DISPSILH
 70
     0
  9
$DIMSCALE
 40
1.0
  9
$DIMASZ
 40
0.2
  9
$DIMEXO
 40
0.5
  9
$DIMDLI
 40
0.5
  9
$DIMRND
 40
0.0
  9
$DIMDLE
 40
0.0
  9
$DIMEXE
 40
0.2
  9
$DIMTP
 40
0.0
  9
$DIMTM
 40
0.0
  9
$DIMTXT
 40
0.4
  9
$DIMCEN
 40
0.1
  9
$DIMTSZ
 40
0.0
  9
$DIMTOL
 70
     0
  9
$DIMLIM
 70
     0
  9
$DIMTIH
 70
     0
  9
$DIMTOH
 70
     0
  9
$DIMSE1
 70
     1
  9
$DIMSE2
 70
     1
  9
$DIMTAD
 70
     1
  9
$DIMZIN
 70
     1
  9
$DIMBLK
  1

  9
$DIMASO
 70
     1
  9
$DIMSHO
 70
     1
  9
$DIMPOST
  1

  9
$DIMAPOST
  1
m
  9
$DIMALT
 70
     0
  9
$DIMALTD
 70
     2
  9
$DIMALTF
 40
0.01
  9
$DIMLFAC
 40
1.0
  9
$DIMTOFL
 70
     1
  9
$DIMTVP
 40
0.0
  9
$DIMTIX
 70
     1
  9
$DIMSOXD
 70
     0
  9
$DIMSAH
 70
     1
  9
$DIMBLK1
  1
DIML
  9
$DIMBLK2
  1
DIMR
  9
$DIMSTYLE
  2
DIMEXT
  9
$DIMCLRD
 70
     0
  9
$DIMCLRE
 70
     0
  9
$DIMCLRT
 70
     0
  9
$DIMTFAC
 40
1.0
  9
$DIMGAP
 40
0.1
  9
$DIMJUST
 70
     0
  9
$DIMSD1
 70
     0
  9
$DIMSD2
 70
     0
  9
$DIMTOLJ
 70
     1
  9
$DIMTZIN
 70
     0
  9
$DIMALTZ
 70
     8
  9
$DIMALTTZ
 70
     0
  9
$DIMUPT
 70
     0
  9
$DIMDEC
 70
     0
  9
$DIMTDEC
 70
     0
  9
$DIMALTU
 70
     2
  9
$DIMALTTD
 70
     2
  9
$DIMTXSTY
  7
helvetica regular
  9
$DIMAUNIT
 70
     1
  9
$DIMADEC
 70
     0
  9
$DIMALTRND
 40
0.0
  9
$DIMAZIN
 70
     0
  9
$DIMDSEP
 70
    46
  9
$DIMATFIT
 70
     3
  9
$DIMFRAC
 70
     1
  9
$DIMLDRBLK
  1

  9
$DIMLUNIT
 70
     2
  9
$DIMLWD
 70
    -2
  9
$DIMLWE
 70
    -2
  9
$DIMTMOVE
 70
     0
  9
$LUNITS
 70
     2
  9
$LUPREC
 70
     3
  9
$SKETCHINC
 40
0.1
  9
$FILLETRAD
 40
0.0
  9
$AUNITS
 70
     0
  9
$AUPREC
 70
     2
  9
$MENU
  1
acad
  9
$ELEVATION
 40
0.0
  9
$PELEVATION
 40
0.0
  9
$THICKNESS
 40
0.0
  9
$LIMCHECK
 70
     0
  9
$CHAMFERA
 40
0.0
  9
$CHAMFERB
 40
0.0
  9
$CHAMFERC
 40
0.0
  9
$CHAMFERD
 40
0.0
  9
$SKPOLY
 70
     0
  9
$TDCREATE
 40
2454497.450636389
  9
$TDUCREATE
 40
2454497.408969722
  9
$TDUPDATE
 40
2454497.457337778
  9
$TDUUPDATE
 40
2454497.415671111
  9
$TDINDWG
 40
0.0067030093
  9
$TDUSRTIMER
 40
0.0067028356
  9
$USRTIMER
 70
     1
  9
$ANGBASE
 50
0.0
  9
$ANGDIR
 70
     0
  9
$PDMODE
 70
     0
  9
$PDSIZE
 40
0.0
  9
$PLINEWID
 40
0.0
  9
$SPLFRAME
 70
     0
  9
$SPLINETYPE
 70
     6
  9
$SPLINESEGS
 70
     8
  9
$HANDSEED
  5
42F
  9
$SURFTAB1
 70
     6
  9
$SURFTAB2
 70
     6
  9
$SURFTYPE
 70
     6
  9
$SURFU
 70
     6
  9
$SURFV
 70
     6
  9
$UCSBASE
  2

  9
$UCSNAME
  2

  9
$UCSORG
 10
0.0
 20
0.0
 30
0.0
  9
$UCSXDIR
 10
1.0
 20
0.0
 30
0.0
  9
$UCSYDIR
 10
0.0
 20
1.0
 30
0.0
  9
$UCSORTHOREF
  2

  9
$UCSORTHOVIEW
 70
     0
  9
$UCSORGTOP
 10
0.0
 20
0.0
 30
0.0
  9
$UCSORGBOTTOM
 10
0.0
 20
0.0
 30
0.0
  9
$UCSORGLEFT
 10
0.0
 20
0.0
 30
0.0
  9
$UCSORGRIGHT
 10
0.0
 20
0.0
 30
0.0
  9
$UCSORGFRONT
 10
0.0
 20
0.0
 30
0.0
  9
$UCSORGBACK
 10
0.0
 20
0.0
 30
0.0
  9
$PUCSBASE
  2

  9
$PUCSNAME
  2

  9
$PUCSORG
 10
0.0
 20
0.0
 30
0.0
  9
$PUCSXDIR
 10
1.0
 20
0.0
 30
0.0
  9
$PUCSYDIR
 10
0.0
 20
1.0
 30
0.0
  9
$PUCSORTHOREF
  2

  9
$PUCSORTHOVIEW
 70
     0
  9
$PUCSORGTOP
 10
0.0
 20
0.0
 30
0.0
  9
$PUCSORGBOTTOM
 10
0.0
 20
0.0
 30
0.0
  9
$PUCSORGLEFT
 10
0.0
 20
0.0
 30
0.0
  9
$PUCSORGRIGHT
 10
0.0
 20
0.0
 30
0.0
  9
$PUCSORGFRONT
 10
0.0
 20
0.0
 30
0.0
  9
$PUCSORGBACK
 10
0.0
 20
0.0
 30
0.0
  9
$USERI1
 70
     0
  9
$USERI2
 70
     0
  9
$USERI3
 70
     0
  9
$USERI4
 70
     0
  9
$USERI5
 70
     0
  9
$USERR1
 40
0.0
  9
$USERR2
 40
0.0
  9
$USERR3
 40
0.0
  9
$USERR4
 40
0.0
  9
$USERR5
 40
0.0
  9
$WORLDVIEW
 70
     1
  9
$SHADEDGE
 70
     3
  9
$SHADEDIF
 70
    70
  9
$TILEMODE
 70
     1
  9
$MAXACTVP
 70
    16
  9
$PINSBASE
 10
0.0
 20
0.0
 30
0.0
  9
$PLIMCHECK
 70
     0
  9
$PEXTMIN
 10
1.000000000000000E+20
 20
1.000000000000000E+20
 30
1.000000000000000E+20
  9
$PEXTMAX
 10
-1.000000000000000E+20
 20
-1.000000000000000E+20
 30
-1.000000000000000E+20
  9
$PLIMMIN
 10
0.0
 20
0.0
  9
$PLIMMAX
 10
12.0
 20
9.0
  9
$UNITMODE
 70
     0
  9
$VISRETAIN
 70
     0
  9
$PLINEGEN
 70
     1
  9
$PSLTSCALE
 70
     0
  9
$TREEDEPTH
 70
  3020
  9
$CMLSTYLE
  2
Standard
  9
$CMLJUST
 70
     0
  9
$CMLSCALE
 40
1.0
  9
$PROXYGRAPHICS
 70
     0
  9
$MEASUREMENT
 70
     1
  9
$CELWEIGHT
370
     0
  9
$ENDCAPS
280
     0
  9
$JOINSTYLE
280
     0
  9
$LWDISPLAY
290
     0
  9
$INSUNITS
 70
     4
  9
$HYPERLINKBASE
  1

  9
$STYLESHEET
  1

  9
$XEDIT
290
     1
  9
$CEPSNTYPE
380
     0
  9
$PSTYLEMODE
290
     1
  9
$FINGERPRINTGUID
  2

  9
$VERSIONGUID
  2
{3DA7A4EE-6133-4344-8B6D-2C9817C1EA65}
  9
$EXTNAMES
290
     1
  9
$PSVPSCALE
 40
0.0
  9
$OLESTARTUP
290
     0
  0
ENDSEC
  0
SECTION
  2
CLASSES
  0
CLASS
  1
IMAGE
  2
AcDbRasterImage
  3
ISM
 90
    34943
280
     0
281
     1
  0
CLASS
  1
DICTIONARYVAR
  2
AcDbDictionaryVar
  3
ObjectDBX Classes
 90
        0
280
     0
281
     0
  0
CLASS
  1
RASTERVARIABLES
  2
AcDbRasterVariables
  3
ISM
 90
    32768
280
     0
281
     0
  0
CLASS
  1
IMAGEDEF
  2
AcDbRasterImageDef
  3
ISM
 90
    32768
280
     0
281
     0
  0
CLASS
  1
IMAGEDEF_REACTOR
  2
AcDbRasterImageDefReactor
  3
ISM
 90
    32769
280
     0
281
     0
  0
CLASS
  1
IDBUFFER
  2
AcDbIdBuffer
  3
ObjectDBX Classes
 90
    32768
280
     0
281
     0
  0
CLASS
  1
SPATIAL_FILTER
  2
AcDbSpatialFilter
  3
ObjectDBX Classes
 90
    32768
280
     0
281
     0
  0
CLASS
  1
SORTENTSTABLE
  2
AcDbSortentsTable
  3
ObjectDBX Classes
 90
        0
280
     0
281
     0
  0
CLASS
  1
LAYER_INDEX
  2
AcDbLayerIndex
  3
ObjectDBX Classes
 90
    32768
280
     0
281
     0
  0
CLASS
  1
SPATIAL_INDEX
  2
AcDbSpatialIndex
  3
ObjectDBX Classes
 90
    32768
280
     0
281
     0
  0
CLASS
  1
OBJECT_PTR
  2
CAseDLPNTableRecord
  3
"ASE-LPNTableRecord"
 90
    32769
280
     0
281
     0
  0
CLASS
  1
LAYOUT
  2
AcDbLayout
  3
ObjectDBX Classes
 90
        0
280
     0
281
     0
  0
CLASS
  1
PLOTSETTINGS
  2
AcDbPlotSettings
  3
ObjectDBX Classes
 90
    32768
280
     0
281
     0
  0
CLASS
  1
ACDBDICTIONARYWDFLT
  2
AcDbDictionaryWithDefault
  3
ObjectDBX Classes
 90
        0
280
     0
281
     0
  0
CLASS
  1
ACDBPLACEHOLDER
  2
AcDbPlaceHolder
  3
ObjectDBX Classes
 90
        0
280
     0
281
     0
  0
CLASS
  1
VBA_PROJECT
  2
AcDbVbaProject
  3
acad
 90
    32768
280
     0
281
     0
  0
CLASS
  1
WIPEOUT
  2
AcDbWipeout
  3
"WipeOut|Product Desc: Object Enabler for WipeOut entity                        |Company: Autodesk, Inc.                        |WEB Address: www.autodesk.com"
 90
    34943
280
     0
281
     1
  0
CLASS
  1
WIPEOUTVARIABLES
  2
AcDbWipeoutVariables
  3
"WipeOut|Product Desc:     WipeOut Dbx Application|Company:          Autodesk, Inc.|WEB Address:      www.autodesk.com"
 90
        0
280
     0
281
     0
  0
CLASS
  1
RTEXT
  2
RText
  3
RText|AutoCAD Express Tool|expresstools@autodesk.com
 90
    32768
280
     0
281
     1
  0
CLASS
  1
ARCALIGNEDTEXT
  2
AcDbArcAlignedText
  3
ATEXT|AutoCAD Express Tool|expresstools@autodesk.com
 90
    32768
280
     0
281
     1
  0
CLASS
  1
MATERIAL
  2
AcDbMaterial
  3
ObjectDBX Classes
 90
     1153
280
     0
281
     0
  0
CLASS
  1
VISUALSTYLE
  2
AcDbVisualStyle
  3
ObjectDBX Classes
 90
     4095
280
     0
281
     0
  0
CLASS
  1
TABLESTYLE
  2
AcDbTableStyle
  3
ObjectDBX Classes
 90
     4095
280
     0
281
     0
  0
CLASS
  1
SCALE
  2
AcDbScale
  3
ObjectDBX Classes
 90
     1153
280
     0
281
     0
  0
CLASS
  1
MLEADERSTYLE
  2
AcDbMLeaderStyle
  3
ACDB_MLEADERSTYLE_CLASS
 90
     4095
280
     0
281
     0
  0
CLASS
  1
AEC_VARS_DWG_SETUP
  2
AecDbVarsDwgSetup
  3
AecBase50|Product Desc: Autodesk Architectural Desktop 2007 |Company: Autodesk,Inc. |WEB Address: www.autodesk.com
 90
      129
280
     0
281
     0
  0
CLASS
  1
CELLSTYLEMAP
  2
AcDbCellStyleMap
  3
ObjectDBX Classes
 90
     1152
280
     0
281
     0
  0
ENDSEC
  0
SECTION
  2
TABLES
  0
TABLE
  2
VPORT
  5
7
330
0
100
AcDbSymbolTable
 70
     1
  0
VPORT
  5
15
330
7
100
AcDbSymbolTableRecord
100
AcDbViewportTableRecord
  2
*ACTIVE
 70
     0
 10
0.0
 20
0.0
 11
1.0
 21
1.0
 12
256.4296573259998
 22
519.3390143834405
 13
0.0
 23
0.0
 14
1.0
 24
1.0
 15
0.0
 25
0.0
 16
0.0
 26
0.0
 36
1.0
 17
0.0
 27
0.0
 37
0.0
 40
994.1305599355375
 41
1.514877102199223
 42
50.0
 43
0.0
 44
0.0
 50
0.0
 51
0.0
 71
     0
 72
   100
 73
     1
 74
     1
 75
     0
 76
     0
 77
     0
 78
     0
281
     0
 65
     0
110
0.0
120
0.0
130
0.0
111
1.0
121
0.0
131
0.0
112
0.0
122
1.0
132
0.0
 79
     0
146
0.0
  0
ENDTAB
  0
TABLE
  2
LTYPE
  5
4
330
0
100
AcDbSymbolTable
 70
     3
  0
LTYPE
  5
11
330
4
100
AcDbSymbolTableRecord
100
AcDbLinetypeTableRecord
  2
ByBlock
 70
     0
  3

 72
    65
 73
     0
 40
0.0
  0
LTYPE
  5
12
330
4
100
AcDbSymbolTableRecord
100
AcDbLinetypeTableRecord
  2
ByLayer
 70
     0
  3

 72
    65
 73
     0
 40
0.0
  0
LTYPE
  5
13
330
4
100
AcDbSymbolTableRecord
100
AcDbLinetypeTableRecord
  2
Continuous
 70
     0
  3
Solid line
 72
    65
 73
     0
 40
0.0
  0
LTYPE
  5
379
330
4
100
AcDbSymbolTableRecord
100
AcDbLinetypeTableRecord
  2
HIDDEN
 70
     0
  3
Hidden __ __ __ __ __ __ __ __ __ __ __ __ __ __
 72
    65
 73
     2
 40
9.524999999999998
 49
6.349999999999999
 74
     0
 49
-3.174999999999999
 74
     0
  0
ENDTAB
  0
TABLE
  2
LAYER
  5
2
102
{ACAD_XDICTIONARY
360
364
102
}
330
0
100
AcDbSymbolTable
 70
     6
  0
LAYER
  5
14
102
{ACAD_XDICTIONARY
360
3FA
102
}
330
2
100
AcDbSymbolTableRecord
100
AcDbLayerTableRecord
  2
0
 70
     0
 62
     7
  6
Continuous
370
    -3
390
1D
  0
LAYER
  5
357
102
{ACAD_XDICTIONARY
360
358
102
}
330
2
100
AcDbSymbolTableRecord
100
AcDbLayerTableRecord
  2
A-001_Pan
 70
     0
 62
     7
  6
Continuous
370
     9
390
1D
  0
LAYER
  5
359
102
{ACAD_XDICTIONARY
360
35A
102
}
330
2
100
AcDbSymbolTableRecord
100
AcDbLayerTableRecord
  2
A-043_Txt025
 70
     0
 62
     7
  6
Continuous
370
     9
390
1D
1001
AcAecLayerStandard
1000

1000

  0
LAYER
  5
35B
102
{ACAD_XDICTIONARY
360
35C
102
}
330
2
100
AcDbSymbolTableRecord
100
AcDbLayerTableRecord
  2
A-031_DimExt
 70
     0
 62
     7
  6
Continuous
370
     9
390
1D
1001
AcAecLayerStandard
1000

1000

  0
LAYER
  5
35D
330
2
100
AcDbSymbolTableRecord
100
AcDbLayerTableRecord
  2
Defpoints
 70
     0
 62
     7
  6
Continuous
290
     0
370
     9
390
1D
  0
ENDTAB
  0
TABLE
  2
STYLE
  5
3
330
0
100
AcDbSymbolTable
 70
     7
  0
STYLE
  5
17
330
3
100
AcDbSymbolTableRecord
100
AcDbTextStyleTableRecord
  2
Standard
 70
     0
 40
0.0
 41
1.0
 50
0.0
 71
     0
 42
0.0
  3
txt
  4

  0
STYLE
  5
35E
330
3
100
AcDbSymbolTableRecord
100
AcDbTextStyleTableRecord
  2
helvetica regular
 70
     0
 40
0.0
 41
1.0
 50
0.0
 71
     0
 42
20.0
  3
LTe50259.ttf
  4

1001
ACAD
1000
HelveticaNeue LT 55 Roman
1071
        2
  0
ENDTAB
  0
TABLE
  2
VIEW
  5
5
330
0
100
AcDbSymbolTable
 70
     0
  0
ENDTAB
  0
TABLE
  2
UCS
  5
6
330
0
100
AcDbSymbolTable
 70
     0
  0
ENDTAB
  0
TABLE
  2
APPID
  5
8
330
0
100
AcDbSymbolTable
 70
     9
  0
APPID
  5
16
330
8
100
AcDbSymbolTableRecord
100
AcDbRegAppTableRecord
  2
ACAD
 70
     0
  0
APPID
  5
339
330
8
100
AcDbSymbolTableRecord
100
AcDbRegAppTableRecord
  2
ACAD_MLEADERVER
 70
     0
  0
APPID
  5
33E
330
8
100
AcDbSymbolTableRecord
100
AcDbRegAppTableRecord
  2
ACAD_EXEMPT_FROM_CAD_STANDARDS
 70
     0
  0
APPID
  5
360
330
8
100
AcDbSymbolTableRecord
100
AcDbRegAppTableRecord
  2
AcAecLayerStandard
 70
     0
  0
APPID
  5
361
330
8
100
AcDbSymbolTableRecord
100
AcDbRegAppTableRecord
  2
ACAD_DSTYLE_DIMJOGGED_JOGANGLE_SYMBOL
 70
     0
  0
APPID
  5
362
330
8
100
AcDbSymbolTableRecord
100
AcDbRegAppTableRecord
  2
ACAD_DSTYLE_DIMJAG
 70
     0
  0
APPID
  5
363
330
8
100
AcDbSymbolTableRecord
100
AcDbRegAppTableRecord
  2
ACAD_DSTYLE_DIMTALN
 70
     0
  0
APPID
  5
3FF
330
8
100
AcDbSymbolTableRecord
100
AcDbRegAppTableRecord
  2
ACAD_PSEXT
 70
     0
  0
APPID
  5
42E
330
8
100
AcDbSymbolTableRecord
100
AcDbRegAppTableRecord
  2
ACAD_DSTYLE_DIMEXT_LENGTH
 70
     0
  0
ENDTAB
  0
TABLE
  2
DIMSTYLE
  5
9
330
0
100
AcDbSymbolTable
 70
     4
100
AcDbDimStyleTable
 71
     2
340
35F
340
18
  0
DIMSTYLE
105
18
330
9
100
AcDbSymbolTableRecord
100
AcDbDimStyleTableRecord
  2
Standard
 70
     0
340
17
  0
DIMSTYLE
105
35F
102
{ACAD_REACTORS
330
369
330
398
330
3A3
330
3AE
330
3B9
330
3C9
330
3D4
330
3DF
330
3EA
102
}
330
9
100
AcDbSymbolTableRecord
100
AcDbDimStyleTableRecord
  2
DIMEXT
 70
     0
  4
m
 40
50.0
 41
0.2
 42
0.5
 43
0.5
 44
0.2
 73
     0
 74
     0
 75
     1
 76
     1
 77
     1
 78
     1
140
0.4
141
0.1
143
0.01
147
0.1
172
     1
173
     1
174
     1
271
     0
272
     0
275
     1
276
     1
285
     8
340
35E
343
33F
344
346
1001
ACAD_DSTYLE_DIMJAG
1070
   388
1040
1.5
1001
ACAD_DSTYLE_DIMTALN
1070
   392
1070
     0
1001
ACAD_DSTYLE_DIMEXT_LENGTH
1070
   378
1040
0.2
1001
ACAD_DSTYLE_DIMJOGGED_JOGANGLE_SYMBOL
1070
   384
1040
1.570796326794896
  0
ENDTAB
  0
TABLE
  2
BLOCK_RECORD
  5
1
330
0
100
AcDbSymbolTable
 70
    40
  0
BLOCK_RECORD
  5
A
102
{ACAD_XDICTIONARY
360
3C6
102
}
330
1
100
AcDbSymbolTableRecord
100
AcDbBlockTableRecord
  2
*MODEL_SPACE
340
20
  0
BLOCK_RECORD
  5
B
330
1
100
AcDbSymbolTableRecord
100
AcDbBlockTableRecord
  2
*PAPER_SPACE
340
21
  0
BLOCK_RECORD
  5
33F
102
{ACAD_XDICTIONARY
360
428
102
}
330
1
100
AcDbSymbolTableRecord
100
AcDbBlockTableRecord
  2
DIML
340
0
310
2800000020000000200000000100080000000000000400000000000000000000000000000000000000000000000080000080000000808000800000008000800080800000C0C0C000C0DCC000F0CAA6000020400000206000002080000020A0000020C0000020E00000400000004020000040400000406000004080000040A0
310
000040C0000040E00000600000006020000060400000606000006080000060A0000060C0000060E00000800000008020000080400000806000008080000080A0000080C0000080E00000A0000000A0200000A0400000A0600000A0800000A0A00000A0C00000A0E00000C0000000C0200000C0400000C0600000C0800000C0
310
A00000C0C00000C0E00000E0000000E0200000E0400000E0600000E0800000E0A00000E0C00000E0E00040000000400020004000400040006000400080004000A0004000C0004000E00040200000402020004020400040206000402080004020A0004020C0004020E000404000004040200040404000404060004040800040
310
40A0004040C0004040E00040600000406020004060400040606000406080004060A0004060C0004060E00040800000408020004080400040806000408080004080A0004080C0004080E00040A0000040A0200040A0400040A0600040A0800040A0A00040A0C00040A0E00040C0000040C0200040C0400040C0600040C08000
310
40C0A00040C0C00040C0E00040E0000040E0200040E0400040E0600040E0800040E0A00040E0C00040E0E00080000000800020008000400080006000800080008000A0008000C0008000E00080200000802020008020400080206000802080008020A0008020C0008020E00080400000804020008040400080406000804080
310
008040A0008040C0008040E00080600000806020008060400080606000806080008060A0008060C0008060E00080800000808020008080400080806000808080008080A0008080C0008080E00080A0000080A0200080A0400080A0600080A0800080A0A00080A0C00080A0E00080C0000080C0200080C0400080C0600080C0
310
800080C0A00080C0C00080C0E00080E0000080E0200080E0400080E0600080E0800080E0A00080E0C00080E0E000C0000000C0002000C0004000C0006000C0008000C000A000C000C000C000E000C0200000C0202000C0204000C0206000C0208000C020A000C020C000C020E000C0400000C0402000C0404000C0406000C0
310
408000C040A000C040C000C040E000C0600000C0602000C0604000C0606000C0608000C060A000C060C000C060E000C0800000C0802000C0804000C0806000C0808000C080A000C080C000C080E000C0A00000C0A02000C0A04000C0A06000C0A08000C0A0A000C0A0C000C0A0E000C0C00000C0C02000C0C04000C0C06000
310
C0C08000C0C0A000F0FBFF00A4A0A000808080000000FF0000FF000000FFFF00FF000000FF00FF00FFFF0000FFFFFF00000000000000000000000000000000000000000000000000000000000000000000000000000000000000000000000000FF000000000000000000000000000000000000000000000000000000000000
310
00FF00000000000000000000000000000000000000000000000000000000000000FF00000000000000000000000000000000000000000000000000000000000000FF00000000000000000000000000000000000000000000000000000000000000FF0000000000000000000000000000000000000000000000000000000000
310
0000FF00000000000000000000000000000000000000000000000000000000000000FF00000000000000000000000000000000000000000000000000000000000000FF0000000000000000000000000000000000000000000000000000000000FFFFFFFF000000000000000000000000000000000000000000000000000000
310
00FFFFFFFF0000000000000000000000000000000000000000FFFFFFFFFFFFFFFFFFFFFFFFFFFFFFFFFFFFFFFF0000000000000000000000000000000000000000FFFFFFFF0000000000000000000000000000000000000000000000000000000000FFFF000000000000000000000000000000000000000000000000000000
310
00000000FF00000000000000000000000000000000000000000000000000000000000000FF00000000000000000000000000000000000000000000000000000000000000FF00000000000000000000000000000000000000000000000000000000000000FF0000000000000000000000000000000000000000000000000000
310
0000000000FF00000000000000000000000000000000000000000000000000000000000000FF00000000000000000000000000000000000000000000000000000000000000FF00000000000000000000000000000000000000000000000000000000000000FF00000000000000000000000000000000000000000000000000
310
000000000000FF00000000000000000000000000000000000000000000000000000000000000FF00000000000000000000000000000000000000000000000000000000000000FF00000000000000000000000000000000000000000000000000000000000000FF000000000000000000000000000000000000000000000000
310
00000000000000FF00000000000000000000000000000000000000000000000000000000000000FF00000000000000000000000000000000000000000000000000000000000000FF00000000000000000000000000000000000000000000000000000000000000FF0000000000000000000000000000000000000000000000
310
0000000000000000FF0000000000000000000000000000000000000000000000000000000000000000000000000000000000000000000000
102
{BLKREFS
331
350
331
372
331
391
331
39D
331
3A8
331
3B3
331
3BE
331
3CE
331
3D9
331
3E4
331
3EF
102
}
1001
ACAD
1000
DesignCenter Data
1002
{
1070
     1
1070
     4
1002
}
  0
BLOCK_RECORD
  5
346
102
{ACAD_XDICTIONARY
360
42B
102
}
330
1
100
AcDbSymbolTableRecord
100
AcDbBlockTableRecord
  2
DIMR
340
0
310
2800000020000000200000000100080000000000000400000000000000000000000000000000000000000000000080000080000000808000800000008000800080800000C0C0C000C0DCC000F0CAA6000020400000206000002080000020A0000020C0000020E00000400000004020000040400000406000004080000040A0
310
000040C0000040E00000600000006020000060400000606000006080000060A0000060C0000060E00000800000008020000080400000806000008080000080A0000080C0000080E00000A0000000A0200000A0400000A0600000A0800000A0A00000A0C00000A0E00000C0000000C0200000C0400000C0600000C0800000C0
310
A00000C0C00000C0E00000E0000000E0200000E0400000E0600000E0800000E0A00000E0C00000E0E00040000000400020004000400040006000400080004000A0004000C0004000E00040200000402020004020400040206000402080004020A0004020C0004020E000404000004040200040404000404060004040800040
310
40A0004040C0004040E00040600000406020004060400040606000406080004060A0004060C0004060E00040800000408020004080400040806000408080004080A0004080C0004080E00040A0000040A0200040A0400040A0600040A0800040A0A00040A0C00040A0E00040C0000040C0200040C0400040C0600040C08000
310
40C0A00040C0C00040C0E00040E0000040E0200040E0400040E0600040E0800040E0A00040E0C00040E0E00080000000800020008000400080006000800080008000A0008000C0008000E00080200000802020008020400080206000802080008020A0008020C0008020E00080400000804020008040400080406000804080
310
008040A0008040C0008040E00080600000806020008060400080606000806080008060A0008060C0008060E00080800000808020008080400080806000808080008080A0008080C0008080E00080A0000080A0200080A0400080A0600080A0800080A0A00080A0C00080A0E00080C0000080C0200080C0400080C0600080C0
310
800080C0A00080C0C00080C0E00080E0000080E0200080E0400080E0600080E0800080E0A00080E0C00080E0E000C0000000C0002000C0004000C0006000C0008000C000A000C000C000C000E000C0200000C0202000C0204000C0206000C0208000C020A000C020C000C020E000C0400000C0402000C0404000C0406000C0
310
408000C040A000C040C000C040E000C0600000C0602000C0604000C0606000C0608000C060A000C060C000C060E000C0800000C0802000C0804000C0806000C0808000C080A000C080C000C080E000C0A00000C0A02000C0A04000C0A06000C0A08000C0A0A000C0A0C000C0A0E000C0C00000C0C02000C0C04000C0C06000
310
C0C08000C0C0A000F0FBFF00A4A0A000808080000000FF0000FF000000FFFF00FF000000FF00FF00FFFF0000FFFFFF000000000000000000000000000000000000000000000000000000000000000000000000000000000000000000000000FF00000000000000000000000000000000000000000000000000000000000000
310
FF00000000000000000000000000000000000000000000000000000000000000FF00000000000000000000000000000000000000000000000000000000000000FF00000000000000000000000000000000000000000000000000000000000000FF000000000000000000000000000000000000000000000000000000000000
310
00FF00000000000000000000000000000000000000000000000000000000000000FF00000000000000000000000000000000000000000000000000000000000000FF00000000000000000000000000000000000000000000000000000000000000FF0000000000000000000000000000000000000000000000000000000000
310
0000FF00000000000000000000000000000000000000000000000000000000000000FF00000000000000000000000000000000000000000000000000000000000000FF00000000000000000000000000000000000000000000000000000000000000FF00000000000000000000000000000000000000000000000000000000
310
000000FF00000000000000000000000000000000000000000000000000000000000000FF00000000000000000000000000000000000000000000000000000000000000FF00000000000000000000000000000000000000000000000000000000000000FF000000000000000000000000000000000000000000000000000000
310
00000000FF000000000000000000000000000000000000000000000000000000000000FFFFFFFF0000000000000000000000000000000000000000FFFFFFFFFFFFFFFFFFFFFFFFFFFFFFFFFFFFFFFF0000000000000000000000000000000000000000FFFFFFFF000000000000000000000000000000000000000000000000
310
0000000000FFFF000000000000000000000000000000000000000000000000000000000000FF00000000000000000000000000000000000000000000000000000000000000FF00000000000000000000000000000000000000000000000000000000000000FF00000000000000000000000000000000000000000000000000
310
000000000000FF00000000000000000000000000000000000000000000000000000000000000FF00000000000000000000000000000000000000000000000000000000000000FF00000000000000000000000000000000000000000000000000000000000000FF000000000000000000000000000000000000000000000000
310
00000000000000FF000000000000000000000000000000000000000000000000000000000000000000000000000000000000000000000000
102
{BLKREFS
331
351
331
373
331
392
331
39E
331
3A9
331
3B4
331
3BF
331
3CF
331
3DA
331
3E5
331
3F0
102
}
1001
ACAD
1000
DesignCenter Data
1002
{
1070
     1
1070
     4
1002
}
  0
BLOCK_RECORD
  5
399
330
1
100
AcDbSymbolTableRecord
100
AcDbBlockTableRecord
  2
*D31
340
0
  0
BLOCK_RECORD
  5
3A4
330
1
100
AcDbSymbolTableRecord
100
AcDbBlockTableRecord
  2
*D32
340
0
  0
BLOCK_RECORD
  5
3AF
330
1
100
AcDbSymbolTableRecord
100
AcDbBlockTableRecord
  2
*D33
340
0
  0
BLOCK_RECORD
  5
3BA
330
1
100
AcDbSymbolTableRecord
100
AcDbBlockTableRecord
  2
*D34
340
0
  0
BLOCK_RECORD
  5
3CA
330
1
100
AcDbSymbolTableRecord
100
AcDbBlockTableRecord
  2
*D35
340
0
  0
BLOCK_RECORD
  5
3D5
330
1
100
AcDbSymbolTableRecord
100
AcDbBlockTableRecord
  2
*D36
340
0
  0
BLOCK_RECORD
  5
3E0
330
1
100
AcDbSymbolTableRecord
100
AcDbBlockTableRecord
  2
*D37
340
0
  0
BLOCK_RECORD
  5
3EB
330
1
100
AcDbSymbolTableRecord
100
AcDbBlockTableRecord
  2
*D38
340
0
  0
ENDTAB
  0
ENDSEC
  0
SECTION
  2
BLOCKS
  0
BLOCK
  5
D
330
A
100
AcDbEntity
  8
0
100
AcDbBlockBegin
  2
*MODEL_SPACE
 70
     0
 10
0.0
 20
0.0
 30
0.0
  3
*MODEL_SPACE
  1

  0
ENDBLK
  5
E
330
A
100
AcDbEntity
  8
0
100
AcDbBlockEnd
  0
BLOCK
  5
F
330
B
100
AcDbEntity
 67
     1
  8
0
100
AcDbBlockBegin
  2
*PAPER_SPACE
 70
     0
 10
0.0
 20
0.0
 30
0.0
  3
*PAPER_SPACE
  1

  0
ENDBLK
  5
10
330
B
100
AcDbEntity
 67
     1
  8
0
100
AcDbBlockEnd
  0
BLOCK
  5
340
330
33F
100
AcDbEntity
  8
0
100
AcDbBlockBegin
  2
DIML
 70
     0
 10
0.0
 20
0.0
 30
0.0
  3
DIML
  1

  0
LINE
  5
341
330
33F
100
AcDbEntity
  8
0
 62
     0
100
AcDbLine
 10
0.0
 20
0.0000000000000071
 30
0.0
 11
0.0
 21
2.0
 31
0.0
  0
LINE
  5
342
330
33F
100
AcDbEntity
  8
0
 62
     0
100
AcDbLine
 10
0.0
 20
-1.0
 30
0.0
 11
0.0
 21
0.0000000000000071
 31
0.0
  0
LINE
  5
343
330
33F
100
AcDbEntity
  8
0
 62
     0
100
AcDbLine
 10
-1.0
 20
0.0
 30
0.0
 11
1.0
 21
0.0
 31
0.0
  0
LWPOLYLINE
  5
344
330
33F
100
AcDbEntity
  8
0
370
     0
100
AcDbPolyline
 90
        2
 70
   129
 43
0.2
 10
-0.1000000000000014
 20
0.0
 42
1.0
 10
0.1000000000000014
 20
0.0
 42
1.0
  0
ENDBLK
  5
345
330
33F
100
AcDbEntity
  8
0
100
AcDbBlockEnd
  0
BLOCK
  5
347
330
346
100
AcDbEntity
  8
0
100
AcDbBlockBegin
  2
DIMR
 70
     0
 10
0.0
 20
0.0
 30
0.0
  3
DIMR
  1

  0
LINE
  5
348
330
346
100
AcDbEntity
  8
0
 62
     0
100
AcDbLine
 10
1.000000000000007
 20
-0.0000000000000213
 30
0.0
 11
-0.9999999999999928
 21
0.0000000000000213
 31
0.0
  0
LINE
  5
349
330
346
100
AcDbEntity
  8
0
 62
     0
100
AcDbLine
 10
0.0000000000000071
 20
1.000000000000021
 30
0.0
 11
0.0
 21
0.0
 31
0.0
  0
LINE
  5
34A
330
346
100
AcDbEntity
  8
0
 62
     0
100
AcDbLine
 10
0.0
 20
0.0
 30
0.0
 11
0.0000000000000071
 21
-1.999999999999978
 31
0.0
  0
LWPOLYLINE
  5
34B
330
346
100
AcDbEntity
  8
0
370
     0
100
AcDbPolyline
 90
        2
 70
   129
 43
0.2
 10
-0.0999999999999943
 20
0.0
 42
1.0
 10
0.1000000000000085
 20
0.0
 42
1.0
  0
ENDBLK
  5
34C
330
346
100
AcDbEntity
  8
0
100
AcDbBlockEnd
  0
BLOCK
  5
39A
330
399
100
AcDbEntity
  8
0
370
     0
100
AcDbBlockBegin
  2
*D31
 70
     1
 10
0.0
 20
0.0
 30
0.0
  3
*D31
  1

  0
LINE
  5
39C
330
399
100
AcDbEntity
  8
A-031_DimExt
 62
     0
370
    -2
100
AcDbLine
 10
443.8889391684859
 20
112.1653329244313
 30
0.0
 11
172.9255627208836
 21
112.1653329244313
 31
0.0
  0
INSERT
  5
39D
330
399
100
AcDbEntity
  8
A-031_DimExt
 62
     0
370
    -2
100
AcDbBlockReference
  2
DIML
 10
453.8889391684858
 20
112.1653329244313
 30
0.0
 41
10.0
 42
10.0
 43
10.0
  0
INSERT
  5
39E
330
399
100
AcDbEntity
  8
A-031_DimExt
 62
     0
370
    -2
100
AcDbBlockReference
  2
DIMR
 10
162.9255627208836
 20
112.1653329244313
 30
0.0
 41
10.0
 42
10.0
 43
10.0
 50
180.0
  0
MTEXT
  5
39F
330
399
100
AcDbEntity
  8
A-031_DimExt
 62
     0
370
     0
100
AcDbMText
 10
308.4072509446847
 20
127.3334001513221
 30
0.0
 40
20.0
 41
0.0
 71
     5
 72
     1
  1
\A1;291
  7
helvetica regular
 73
     1
 44
1.0
1001
ACAD
1000
MTEXTBEGIN
1070
    73
1070
     1
1070
    44
1040
1.0
1070
    74
1070
     0
1000
MTEXTEND
  0
POINT
  5
3A0
330
399
100
AcDbEntity
  8
Defpoints
 62
     0
370
     0
100
AcDbPoint
 10
453.8889391684858
 20
213.7230383801313
 30
0.0
  0
POINT
  5
3A1
330
399
100
AcDbEntity
  8
Defpoints
 62
     0
370
     0
100
AcDbPoint
 10
162.9255627208836
 20
173.5500485498773
 30
0.0
  0
POINT
  5
3A2
330
399
100
AcDbEntity
  8
Defpoints
 62
     0
370
     0
100
AcDbPoint
 10
162.9255627208836
 20
112.1653329244313
 30
0.0
  0
ENDBLK
  5
39B
330
399
100
AcDbEntity
  8
0
370
     0
100
AcDbBlockEnd
  0
BLOCK
  5
3A5
330
3A4
100
AcDbEntity
  8
0
370
     0
100
AcDbBlockBegin
  2
*D32
 70
     1
 10
0.0
 20
0.0
 30
0.0
  3
*D32
  1

  0
LINE
  5
3A7
330
3A4
100
AcDbEntity
  8
A-031_DimExt
 62
     0
370
    -2
100
AcDbLine
 10
443.8889391684859
 20
72.16533292443137
 30
0.0
 11
141.888935
 21
72.16533292443137
 31
0.0
  0
INSERT
  5
3A8
330
3A4
100
AcDbEntity
  8
A-031_DimExt
 62
     0
370
    -2
100
AcDbBlockReference
  2
DIML
 10
453.8889391684858
 20
72.16533292443137
 30
0.0
 41
10.0
 42
10.0
 43
10.0
  0
INSERT
  5
3A9
330
3A4
100
AcDbEntity
  8
A-031_DimExt
 62
     0
370
    -2
100
AcDbBlockReference
  2
DIMR
 10
131.888935
 20
72.16533292443137
 30
0.0
 41
10.0
 42
10.0
 43
10.0
 50
180.0
  0
MTEXT
  5
3AA
330
3A4
100
AcDbEntity
  8
A-031_DimExt
 62
     0
370
     0
100
AcDbMText
 10
292.888937084243
 20
87.33340015132212
 30
0.0
 40
20.0
 41
0.0
 71
     5
 72
     1
  1
\A1;322
  7
helvetica regular
 73
     1
 44
1.0
1001
ACAD
1000
MTEXTBEGIN
1070
    73
1070
     1
1070
    44
1040
1.0
1070
    74
1070
     0
1000
MTEXTEND
  0
POINT
  5
3AB
330
3A4
100
AcDbEntity
  8
Defpoints
 62
     0
370
     0
100
AcDbPoint
 10
453.8889391684858
 20
417.2813629206998
 30
0.0
  0
POINT
  5
3AC
330
3A4
100
AcDbEntity
  8
Defpoints
 62
     0
370
     0
100
AcDbPoint
 10
131.888935
 20
417.2813629206998
 30
0.0
  0
POINT
  5
3AD
330
3A4
100
AcDbEntity
  8
Defpoints
 62
     0
370
     0
100
AcDbPoint
 10
131.888935
 20
72.16533292443137
 30
0.0
  0
ENDBLK
  5
3A6
330
3A4
100
AcDbEntity
  8
0
370
     0
100
AcDbBlockEnd
  0
BLOCK
  5
3B0
330
3AF
100
AcDbEntity
  8
0
370
     0
100
AcDbBlockBegin
  2
*D33
 70
     1
 10
0.0
 20
0.0
 30
0.0
  3
*D33
  1

  0
LINE
  5
3B2
330
3AF
100
AcDbEntity
  8
A-031_DimExt
 62
     0
370
    -2
100
AcDbLine
 10
91.88893500000002
 20
162.1653329244314
 30
0.0
 11
91.88893500000011
 21
636.2705688338653
 31
0.0
  0
INSERT
  5
3B3
330
3AF
100
AcDbEntity
  8
A-031_DimExt
 62
     0
370
    -2
100
AcDbBlockReference
  2
DIML
 10
91.888935
 20
152.1653329244314
 30
0.0
 41
10.0
 42
10.0
 43
10.0
 50
270.0
  0
INSERT
  5
3B4
330
3AF
100
AcDbEntity
  8
A-031_DimExt
 62
     0
370
    -2
100
AcDbBlockReference
  2
DIMR
 10
91.88893500000011
 20
646.2705688338653
 30
0.0
 41
10.0
 42
10.0
 43
10.0
 50
90.0
  0
MTEXT
  5
3B5
330
3AF
100
AcDbEntity
  8
A-031_DimExt
 62
     0
370
     0
100
AcDbMText
 10
76.72086777310925
 20
399.2179508791484
 30
0.0
 40
20.0
 41
0.0
 71
     5
 72
     1
  1
\A1;494
  7
helvetica regular
 11
0.0000000000000001
 21
1.0
 31
0.0
 73
     1
 44
1.0
1001
ACAD
1000
MTEXTBEGIN
1070
    73
1070
     1
1070
    44
1040
1.0
1070
    74
1070
     0
1000
MTEXTEND
  0
POINT
  5
3B6
330
3AF
100
AcDbEntity
  8
Defpoints
 62
     0
370
     0
100
AcDbPoint
 10
182.8555268259489
 20
152.1653329244314
 30
0.0
  0
POINT
  5
3B7
330
3AF
100
AcDbEntity
  8
Defpoints
 62
     0
370
     0
100
AcDbPoint
 10
191.8870515175925
 20
646.2705688338653
 30
0.0
  0
POINT
  5
3B8
330
3AF
100
AcDbEntity
  8
Defpoints
 62
     0
370
     0
100
AcDbPoint
 10
91.88893500000011
 20
646.2705688338653
 30
0.0
  0
ENDBLK
  5
3B1
330
3AF
100
AcDbEntity
  8
0
370
     0
100
AcDbBlockEnd
  0
BLOCK
  5
3BB
330
3BA
100
AcDbEntity
  8
0
370
     0
100
AcDbBlockBegin
  2
*D34
 70
     1
 10
0.0
 20
0.0
 30
0.0
  3
*D34
  1

  0
LINE
  5
3BD
330
3BA
100
AcDbEntity
  8
A-031_DimExt
 62
     0
370
    -2
100
AcDbLine
 10
51.88893500000022
 20
162.1653329244315
 30
0.0
 11
51.88893500000033
 21
667.3093516619046
 31
0.0
  0
INSERT
  5
3BE
330
3BA
100
AcDbEntity
  8
A-031_DimExt
 62
     0
370
    -2
100
AcDbBlockReference
  2
DIML
 10
51.88893500000022
 20
152.1653329244315
 30
0.0
 41
10.0
 42
10.0
 43
10.0
 50
270.0
  0
INSERT
  5
3BF
330
3BA
100
AcDbEntity
  8
A-031_DimExt
 62
     0
370
    -2
100
AcDbBlockReference
  2
DIMR
 10
51.88893500000033
 20
677.3093516619046
 30
0.0
 41
10.0
 42
10.0
 43
10.0
 50
90.0
  0
MTEXT
  5
3C0
330
3BA
100
AcDbEntity
  8
A-031_DimExt
 62
     0
370
     0
100
AcDbMText
 10
36.72086777310946
 20
414.737342293168
 30
0.0
 40
20.0
 41
0.0
 71
     5
 72
     1
  1
\A1;525
  7
helvetica regular
 11
0.0000000000000001
 21
1.0
 31
0.0
 73
     1
 44
1.0
1001
ACAD
1000
MTEXTBEGIN
1070
    73
1070
     1
1070
    44
1040
1.0
1070
    74
1070
     0
1000
MTEXTEND
  0
POINT
  5
3C1
330
3BA
100
AcDbEntity
  8
Defpoints
 62
     0
370
     0
100
AcDbPoint
 10
322.8865572154402
 20
152.1653329244314
 30
0.0
  0
POINT
  5
3C2
330
3BA
100
AcDbEntity
  8
Defpoints
 62
     0
370
     0
100
AcDbPoint
 10
322.8865572154402
 20
677.3093516619045
 30
0.0
  0
POINT
  5
3C3
330
3BA
100
AcDbEntity
  8
Defpoints
 62
     0
370
     0
100
AcDbPoint
 10
51.88893500000033
 20
677.3093516619046
 30
0.0
  0
ENDBLK
  5
3BC
330
3BA
100
AcDbEntity
  8
0
370
     0
100
AcDbBlockEnd
  0
BLOCK
  5
3CB
330
3CA
100
AcDbEntity
  8
0
370
     0
100
AcDbBlockBegin
  2
*D35
 70
     1
 10
0.0
 20
0.0
 30
0.0
  3
*D35
  1

  0
LINE
  5
3CD
330
3CA
100
AcDbEntity
  8
A-031_DimExt
 62
     0
370
    -2
100
AcDbLine
 10
427.9024585000005
 20
842.4243888853824
 30
0.0
 11
217.8735310643498
 21
842.4243888853824
 31
0.0
  0
INSERT
  5
3CE
330
3CA
100
AcDbEntity
  8
A-031_DimExt
 62
     0
370
    -2
100
AcDbBlockReference
  2
DIML
 10
437.9024585000005
 20
842.4243888853824
 30
0.0
 41
10.0
 42
10.0
 43
10.0
  0
INSERT
  5
3CF
330
3CA
100
AcDbEntity
  8
A-031_DimExt
 62
     0
370
    -2
100
AcDbBlockReference
  2
DIMR
 10
207.8735310643498
 20
842.4243888853824
 30
0.0
 41
10.0
 42
10.0
 43
10.0
 50
180.0
  0
MTEXT
  5
3D0
330
3CA
100
AcDbEntity
  8
A-031_DimExt
 62
     0
370
     0
100
AcDbMText
 10
322.8879947821752
 20
857.5924561122732
 30
0.0
 40
20.0
 41
0.0
 71
     5
 72
     1
  1
\A1;230
  7
helvetica regular
 73
     1
 44
1.0
1001
ACAD
1000
MTEXTBEGIN
1070
    73
1070
     1
1070
    44
1040
1.0
1070
    74
1070
     0
1000
MTEXTEND
  0
POINT
  5
3D1
330
3CA
100
AcDbEntity
  8
Defpoints
 62
     0
370
     0
100
AcDbPoint
 10
437.9024585000005
 20
882.4243888853825
 30
0.0
  0
POINT
  5
3D2
330
3CA
100
AcDbEntity
  8
Defpoints
 62
     0
370
     0
100
AcDbPoint
 10
207.8735310643498
 20
882.4243899618792
 30
0.0
  0
POINT
  5
3D3
330
3CA
100
AcDbEntity
  8
Defpoints
 62
     0
370
     0
100
AcDbPoint
 10
207.8735310643498
 20
842.4243888853824
 30
0.0
  0
ENDBLK
  5
3CC
330
3CA
100
AcDbEntity
  8
0
370
     0
100
AcDbBlockEnd
  0
BLOCK
  5
3D6
330
3D5
100
AcDbEntity
  8
0
370
     0
100
AcDbBlockBegin
  2
*D36
 70
     1
 10
0.0
 20
0.0
 30
0.0
  3
*D36
  1

  0
LINE
  5
3D8
330
3D5
100
AcDbEntity
  8
A-031_DimExt
 62
     0
370
    -2
100
AcDbLine
 10
447.9358194418657
 20
802.4243888853824
 30
0.0
 11
197.9435689783949
 21
802.4243888853824
 31
0.0
  0
INSERT
  5
3D9
330
3D5
100
AcDbEntity
  8
A-031_DimExt
 62
     0
370
    -2
100
AcDbBlockReference
  2
DIML
 10
457.9358194418658
 20
802.4243888853824
 30
0.0
 41
10.0
 42
10.0
 43
10.0
  0
INSERT
  5
3DA
330
3D5
100
AcDbEntity
  8
A-031_DimExt
 62
     0
370
    -2
100
AcDbBlockReference
  2
DIMR
 10
187.943568978395
 20
802.4243888853824
 30
0.0
 41
10.0
 42
10.0
 43
10.0
 50
180.0
  0
MTEXT
  5
3DB
330
3D5
100
AcDbEntity
  8
A-031_DimExt
 62
     0
370
     0
100
AcDbMText
 10
322.9396942101304
 20
817.5924561122732
 30
0.0
 40
20.0
 41
0.0
 71
     5
 72
     1
  1
\A1;270
  7
helvetica regular
 73
     1
 44
1.0
1001
ACAD
1000
MTEXTBEGIN
1070
    73
1070
     1
1070
    44
1040
1.0
1070
    74
1070
     0
1000
MTEXTEND
  0
POINT
  5
3DC
330
3D5
100
AcDbEntity
  8
Defpoints
 62
     0
370
     0
100
AcDbPoint
 10
457.9358194418658
 20
887.614394499899
 30
0.0
  0
POINT
  5
3DD
330
3D5
100
AcDbEntity
  8
Defpoints
 62
     0
370
     0
100
AcDbPoint
 10
187.943568978395
 20
887.614394499899
 30
0.0
  0
POINT
  5
3DE
330
3D5
100
AcDbEntity
  8
Defpoints
 62
     0
370
     0
100
AcDbPoint
 10
187.943568978395
 20
802.4243888853824
 30
0.0
  0
ENDBLK
  5
3D7
330
3D5
100
AcDbEntity
  8
0
370
     0
100
AcDbBlockEnd
  0
BLOCK
  5
3E1
330
3E0
100
AcDbEntity
  8
0
370
     0
100
AcDbBlockBegin
  2
*D37
 70
     1
 10
0.0
 20
0.0
 30
0.0
  3
*D37
  1

  0
LINE
  5
3E3
330
3E0
100
AcDbEntity
  8
A-031_DimExt
 62
     0
370
    -2
100
AcDbLine
 10
472.9523880783648
 20
762.4243888853824
 30
0.0
 11
172.9255642587363
 21
762.4243888853824
 31
0.0
  0
INSERT
  5
3E4
330
3E0
100
AcDbEntity
  8
A-031_DimExt
 62
     0
370
    -2
100
AcDbBlockReference
  2
DIML
 10
482.9523880783648
 20
762.4243888853824
 30
0.0
 41
10.0
 42
10.0
 43
10.0
  0
INSERT
  5
3E5
330
3E0
100
AcDbEntity
  8
A-031_DimExt
 62
     0
370
    -2
100
AcDbBlockReference
  2
DIMR
 10
162.9255642587363
 20
762.4243888853824
 30
0.0
 41
10.0
 42
10.0
 43
10.0
 50
180.0
  0
MTEXT
  5
3E6
330
3E0
100
AcDbEntity
  8
A-031_DimExt
 62
     0
370
     0
100
AcDbMText
 10
322.9389761685506
 20
777.5924561122732
 30
0.0
 40
20.0
 41
0.0
 71
     5
 72
     1
  1
\A1;320
  7
helvetica regular
 73
     1
 44
1.0
1001
ACAD
1000
MTEXTBEGIN
1070
    73
1070
     1
1070
    44
1040
1.0
1070
    74
1070
     0
1000
MTEXTEND
  0
POINT
  5
3E7
330
3E0
100
AcDbEntity
  8
Defpoints
 62
     0
370
     0
100
AcDbPoint
 10
482.9523880783648
 20
894.0494831371065
 30
0.0
  0
POINT
  5
3E8
330
3E0
100
AcDbEntity
  8
Defpoints
 62
     0
370
     0
100
AcDbPoint
 10
162.9255642587363
 20
894.0494831371067
 30
0.0
  0
POINT
  5
3E9
330
3E0
100
AcDbEntity
  8
Defpoints
 62
     0
370
     0
100
AcDbPoint
 10
162.9255642587363
 20
762.4243888853824
 30
0.0
  0
ENDBLK
  5
3E2
330
3E0
100
AcDbEntity
  8
0
370
     0
100
AcDbBlockEnd
  0
BLOCK
  5
3EC
330
3EB
100
AcDbEntity
  8
0
370
     0
100
AcDbBlockBegin
  2
*D38
 70
     1
 10
0.0
 20
0.0
 30
0.0
  3
*D38
  1

  0
LINE
  5
3EE
330
3EB
100
AcDbEntity
  8
A-031_DimExt
 62
     0
370
    -2
100
AcDbLine
 10
91.88893500000004
 20
892.4243888853824
 30
0.0
 11
91.88893500000007
 21
992.5056654941277
 31
0.0
  0
INSERT
  5
3EF
330
3EB
100
AcDbEntity
  8
A-031_DimExt
 62
     0
370
    -2
100
AcDbBlockReference
  2
DIML
 10
91.88893500000004
 20
882.4243888853825
 30
0.0
 41
10.0
 42
10.0
 43
10.0
 50
270.0
  0
INSERT
  5
3F0
330
3EB
100
AcDbEntity
  8
A-031_DimExt
 62
     0
370
    -2
100
AcDbBlockReference
  2
DIMR
 10
91.88893500000007
 20
1002.505665494128
 30
0.0
 41
10.0
 42
10.0
 43
10.0
 50
90.0
  0
MTEXT
  5
3F1
330
3EB
100
AcDbEntity
  8
A-031_DimExt
 62
     0
370
     0
100
AcDbMText
 10
76.72086777310915
 20
942.4650271897551
 30
0.0
 40
20.0
 41
0.0
 71
     5
 72
     1
  1
\A1;120
  7
helvetica regular
 11
0.0000000000000001
 21
1.0
 31
0.0
 73
     1
 44
1.0
1001
ACAD
1000
MTEXTBEGIN
1070
    73
1070
     1
1070
    44
1040
1.0
1070
    74
1070
     0
1000
MTEXTEND
  0
POINT
  5
3F2
330
3EB
100
AcDbEntity
  8
Defpoints
 62
     0
370
     0
100
AcDbPoint
 10
131.888935
 20
882.4243888853825
 30
0.0
  0
POINT
  5
3F3
330
3EB
100
AcDbEntity
  8
Defpoints
 62
     0
370
     0
100
AcDbPoint
 10
324.5552421085253
 20
1002.505665494127
 30
0.0
  0
POINT
  5
3F4
330
3EB
100
AcDbEntity
  8
Defpoints
 62
     0
370
     0
100
AcDbPoint
 10
91.88893500000007
 20
1002.505665494128
 30
0.0
  0
ENDBLK
  5
3ED
330
3EB
100
AcDbEntity
  8
0
370
     0
100
AcDbBlockEnd
  0
ENDSEC
  0
SECTION
  2
ENTITIES
  0
POLYLINE
  5
107
330
A
100
AcDbEntity
  8
A-001_Pan
100
AcDb2dPolyline
 66
     1
 10
0.0
 20
0.0
 30
0.0
  0
VERTEX
  5
108
330
107
100
AcDbEntity
  8
A-001_Pan
100
AcDbVertex
100
AcDb2dVertex
 10
162.9255627208836
 20
172.2001302787374
 30
0.0
  0
VERTEX
  5
109
330
107
100
AcDbEntity
  8
A-001_Pan
100
AcDbVertex
100
AcDb2dVertex
 10
162.9255627208836
 20
174.8999668210173
 30
0.0
  0
VERTEX
  5
10A
330
107
100
AcDbEntity
  8
A-001_Pan
100
AcDbVertex
100
AcDb2dVertex
 10
162.9255627208836
 20
175.7300207232928
 30
0.0
  0
VERTEX
  5
10B
330
107
100
AcDbEntity
  8
A-001_Pan
100
AcDbVertex
100
AcDb2dVertex
 10
162.9255627208836
 20
176.6649120432949
 30
0.0
  0
VERTEX
  5
10C
330
107
100
AcDbEntity
  8
A-001_Pan
100
AcDbVertex
100
AcDb2dVertex
 10
163.0304001386102
 20
177.4949659455706
 30
0.0
  0
VERTEX
  5
10D
330
107
100
AcDbEntity
  8
A-001_Pan
100
AcDbVertex
100
AcDb2dVertex
 10
163.135233387851
 20
178.4298572655727
 30
0.0
  0
VERTEX
  5
10E
330
107
100
AcDbEntity
  8
A-001_Pan
100
AcDbVertex
100
AcDb2dVertex
 10
163.3434659272195
 20
179.258477208735
 30
0.0
  0
VERTEX
  5
10F
330
107
100
AcDbEntity
  8
A-001_Pan
100
AcDbVertex
100
AcDb2dVertex
 10
163.4439889621489
 20
180.1933685287371
 30
0.0
  0
VERTEX
  5
110
330
107
100
AcDbEntity
  8
A-001_Pan
100
AcDbVertex
100
AcDb2dVertex
 10
163.6536596291164
 20
181.0234224310127
 30
0.0
  0
VERTEX
  5
111
330
107
100
AcDbEntity
  8
A-001_Pan
100
AcDbVertex
100
AcDb2dVertex
 10
163.8618921684848
 20
181.8549144608873
 30
0.0
  0
VERTEX
  5
112
330
107
100
AcDbEntity
  8
A-001_Pan
100
AcDbVertex
100
AcDb2dVertex
 10
164.1720858703818
 20
182.6835344040495
 30
0.0
  0
VERTEX
  5
113
330
107
100
AcDbEntity
  8
A-001_Pan
100
AcDbVertex
100
AcDb2dVertex
 10
164.483713531392
 20
183.5150264339241
 30
0.0
  0
VERTEX
  5
114
330
107
100
AcDbEntity
  8
A-001_Pan
100
AcDbVertex
100
AcDb2dVertex
 10
164.7953453608879
 20
184.3465184637987
 30
0.0
  0
VERTEX
  5
115
330
107
100
AcDbEntity
  8
A-001_Pan
100
AcDbVertex
100
AcDb2dVertex
 10
165.1084111494972
 20
185.17657653456
 30
0.0
  0
VERTEX
  5
116
330
107
100
AcDbEntity
  8
A-001_Pan
100
AcDbVertex
100
AcDb2dVertex
 10
165.5220041415217
 20
186.0066304368356
 30
0.0
  0
VERTEX
  5
117
330
107
100
AcDbEntity
  8
A-001_Pan
100
AcDbVertex
100
AcDb2dVertex
 10
165.9355929650604
 20
186.7347273450684
 30
0.0
  0
VERTEX
  5
118
330
107
100
AcDbEntity
  8
A-001_Pan
100
AcDbVertex
100
AcDb2dVertex
 10
166.3534961713962
 20
187.5633472882307
 30
0.0
  0
VERTEX
  5
119
330
107
100
AcDbEntity
  8
A-001_Pan
100
AcDbVertex
100
AcDb2dVertex
 10
166.8719224126616
 20
188.2914400279777
 30
0.0
  0
VERTEX
  5
11A
330
107
100
AcDbEntity
  8
A-001_Pan
100
AcDbVertex
100
AcDb2dVertex
 10
167.2869493637994
 20
189.0166606810124
 30
0.0
  0
VERTEX
  5
11B
330
107
100
AcDbEntity
  8
A-001_Pan
100
AcDbVertex
100
AcDb2dVertex
 10
167.8053756050648
 20
189.7433194616462
 30
0.0
  0
VERTEX
  5
11C
330
107
100
AcDbEntity
  8
A-001_Pan
100
AcDbVertex
100
AcDb2dVertex
 10
168.428635095571
 20
190.4685442831667
 30
0.0
  0
VERTEX
  5
11D
330
107
100
AcDbEntity
  8
A-001_Pan
100
AcDbVertex
100
AcDb2dVertex
 10
168.9470613368364
 20
191.0918037736729
 30
0.0
  0
VERTEX
  5
11E
330
107
100
AcDbEntity
  8
A-001_Pan
100
AcDbVertex
100
AcDb2dVertex
 10
169.5703208273424
 20
191.81989651342
 30
0.0
  0
VERTEX
  5
11F
330
107
100
AcDbEntity
  8
A-001_Pan
100
AcDbVertex
100
AcDb2dVertex
 10
170.1935803178486
 20
192.4431560039261
 30
0.0
  0
VERTEX
  5
120
330
107
100
AcDbEntity
  8
A-001_Pan
100
AcDbVertex
100
AcDb2dVertex
 10
170.8168398083548
 20
193.064981535319
 30
0.0
  0
VERTEX
  5
121
330
107
100
AcDbEntity
  8
A-001_Pan
100
AcDbVertex
100
AcDb2dVertex
 10
171.4386653397479
 20
193.6896791534242
 30
0.0
  0
VERTEX
  5
122
330
107
100
AcDbEntity
  8
A-001_Pan
100
AcDbVertex
100
AcDb2dVertex
 10
172.1667580794948
 20
194.2066672670906
 30
0.0
  0
VERTEX
  5
123
330
107
100
AcDbEntity
  8
A-001_Pan
100
AcDbVertex
100
AcDb2dVertex
 10
172.8905447734163
 20
194.7250935083559
 30
0.0
  0
VERTEX
  5
124
330
107
100
AcDbEntity
  8
A-001_Pan
100
AcDbVertex
100
AcDb2dVertex
 10
173.5138042639224
 20
195.2449537087345
 30
0.0
  0
VERTEX
  5
125
330
107
100
AcDbEntity
  8
A-001_Pan
100
AcDbVertex
100
AcDb2dVertex
 10
174.3452962937971
 20
195.7633799499999
 30
0.0
  0
VERTEX
  5
126
330
107
100
AcDbEntity
  8
A-001_Pan
100
AcDbVertex
100
AcDb2dVertex
 10
175.0719550744309
 20
196.2818061912653
 30
0.0
  0
VERTEX
  5
127
330
107
100
AcDbEntity
  8
A-001_Pan
100
AcDbVertex
100
AcDb2dVertex
 10
175.7971757274655
 20
196.6982712700021
 30
0.0
  0
VERTEX
  5
128
330
107
100
AcDbEntity
  8
A-001_Pan
100
AcDbVertex
100
AcDb2dVertex
 10
176.6286677573401
 20
197.1147363487388
 30
0.0
  0
VERTEX
  5
129
330
107
100
AcDbEntity
  8
A-001_Pan
100
AcDbVertex
100
AcDb2dVertex
 10
177.3567646655729
 20
197.5283293407634
 30
0.0
  0
VERTEX
  5
12A
330
107
100
AcDbEntity
  8
A-001_Pan
100
AcDbVertex
100
AcDb2dVertex
 10
183.1685926145581
 20
200.1233284653167
 30
0.0
  0
VERTEX
  5
12B
330
107
100
AcDbEntity
  8
A-001_Pan
100
AcDbVertex
100
AcDb2dVertex
 10
184.1020458069613
 20
200.5397935440534
 30
0.0
  0
VERTEX
  5
12C
330
107
100
AcDbEntity
  8
A-001_Pan
100
AcDbVertex
100
AcDb2dVertex
 10
185.0369371269634
 20
201.1616190754464
 30
0.0
  0
VERTEX
  5
12D
330
107
100
AcDbEntity
  8
A-001_Pan
100
AcDbVertex
100
AcDb2dVertex
 10
185.8669910292388
 20
201.7848785659526
 30
0.0
  0
VERTEX
  5
12E
330
107
100
AcDbEntity
  8
A-001_Pan
100
AcDbVertex
100
AcDb2dVertex
 10
186.6970491000003
 20
202.4067040973455
 30
0.0
  0
VERTEX
  5
12F
330
107
100
AcDbEntity
  8
A-001_Pan
100
AcDbVertex
100
AcDb2dVertex
 10
187.5285411298748
 20
203.1347968370925
 30
0.0
  0
VERTEX
  5
130
330
107
100
AcDbEntity
  8
A-001_Pan
100
AcDbVertex
100
AcDb2dVertex
 10
188.2537617829095
 20
203.964850739368
 30
0.0
  0
VERTEX
  5
131
330
107
100
AcDbEntity
  8
A-001_Pan
100
AcDbVertex
100
AcDb2dVertex
 10
188.8770212734158
 20
204.7963427692427
 30
0.0
  0
VERTEX
  5
132
330
107
100
AcDbEntity
  8
A-001_Pan
100
AcDbVertex
100
AcDb2dVertex
 10
189.5002849324077
 20
205.6235287532917
 30
0.0
  0
VERTEX
  5
133
330
107
100
AcDbEntity
  8
A-001_Pan
100
AcDbVertex
100
AcDb2dVertex
 10
190.1235444229139
 20
206.5598540324071
 30
0.0
  0
VERTEX
  5
134
330
107
100
AcDbEntity
  8
A-001_Pan
100
AcDbVertex
100
AcDb2dVertex
 10
190.5371332464526
 20
207.4933072248102
 30
0.0
  0
VERTEX
  5
135
330
107
100
AcDbEntity
  8
A-001_Pan
100
AcDbVertex
100
AcDb2dVertex
 10
190.9535983251895
 20
208.530159707341
 30
0.0
  0
VERTEX
  5
136
330
107
100
AcDbEntity
  8
A-001_Pan
100
AcDbVertex
100
AcDb2dVertex
 10
191.2652301546854
 20
209.571322404183
 30
0.0
  0
VERTEX
  5
137
330
107
100
AcDbEntity
  8
A-001_Pan
100
AcDbVertex
100
AcDb2dVertex
 10
191.5782959432947
 20
210.6081748867137
 30
0.0
  0
VERTEX
  5
138
330
107
100
AcDbEntity
  8
A-001_Pan
100
AcDbVertex
100
AcDb2dVertex
 10
191.7836563959508
 20
211.6464613283576
 30
0.0
  0
VERTEX
  5
139
330
107
100
AcDbEntity
  8
A-001_Pan
100
AcDbVertex
100
AcDb2dVertex
 10
191.8870515175925
 20
212.6833138108883
 30
0.0
  0
VERTEX
  5
13A
330
107
100
AcDbEntity
  8
A-001_Pan
100
AcDbVertex
100
AcDb2dVertex
 10
191.8870515175925
 20
213.7230383801313
 30
0.0
  0
VERTEX
  5
13B
330
107
100
AcDbEntity
  8
A-001_Pan
100
AcDbVertex
100
AcDb2dVertex
 10
191.8870515175925
 20
240.7113494151941
 30
0.0
  0
VERTEX
  5
13C
330
107
100
AcDbEntity
  8
A-001_Pan
100
AcDbVertex
100
AcDb2dVertex
 10
191.8870515175925
 20
272.2664033773432
 30
0.0
  0
VERTEX
  5
13D
330
107
100
AcDbEntity
  8
A-001_Pan
100
AcDbVertex
100
AcDb2dVertex
 10
191.7836563959508
 20
273.2027286564586
 30
0.0
  0
VERTEX
  5
13E
330
107
100
AcDbEntity
  8
A-001_Pan
100
AcDbVertex
100
AcDb2dVertex
 10
191.5782959432947
 20
274.1347478897484
 30
0.0
  0
VERTEX
  5
13F
330
107
100
AcDbEntity
  8
A-001_Pan
100
AcDbVertex
100
AcDb2dVertex
 10
191.0584315744303
 20
275.0682010821516
 30
0.0
  0
VERTEX
  5
140
330
107
100
AcDbEntity
  8
A-001_Pan
100
AcDbVertex
100
AcDb2dVertex
 10
190.4366102115232
 20
275.7962938218985
 30
0.0
  0
VERTEX
  5
141
330
107
100
AcDbEntity
  8
A-001_Pan
100
AcDbVertex
100
AcDb2dVertex
 10
189.7085133032904
 20
276.4195574808905
 30
0.0
  0
VERTEX
  5
142
330
107
100
AcDbEntity
  8
A-001_Pan
100
AcDbVertex
100
AcDb2dVertex
 10
188.772188024175
 20
276.8331463044293
 30
0.0
  0
VERTEX
  5
143
330
107
100
AcDbEntity
  8
A-001_Pan
100
AcDbVertex
100
AcDb2dVertex
 10
187.8401729593709
 20
277.1462120930385
 30
0.0
  0
VERTEX
  5
144
330
107
100
AcDbEntity
  8
A-001_Pan
100
AcDbVertex
100
AcDb2dVertex
 10
186.9067155984819
 20
277.2496113831661
 30
0.0
  0
VERTEX
  5
145
330
107
100
AcDbEntity
  8
A-001_Pan
100
AcDbVertex
100
AcDb2dVertex
 10
185.2437315387328
 20
277.2496113831661
 30
0.0
  0
VERTEX
  5
146
330
107
100
AcDbEntity
  8
A-001_Pan
100
AcDbVertex
100
AcDb2dVertex
 10
184.5185108856981
 20
277.2496113831661
 30
0.0
  0
VERTEX
  5
147
330
107
100
AcDbEntity
  8
A-001_Pan
100
AcDbVertex
100
AcDb2dVertex
 10
183.6870188558235
 20
277.1462120930385
 30
0.0
  0
VERTEX
  5
148
330
107
100
AcDbEntity
  8
A-001_Pan
100
AcDbVertex
100
AcDb2dVertex
 10
182.8555268259489
 20
277.0413788437977
 30
0.0
  0
VERTEX
  5
149
330
107
100
AcDbEntity
  8
A-001_Pan
100
AcDbVertex
100
AcDb2dVertex
 10
182.1303061729141
 20
276.9379837221559
 30
0.0
  0
VERTEX
  5
14A
330
107
100
AcDbEntity
  8
A-001_Pan
100
AcDbVertex
100
AcDb2dVertex
 10
181.4036473922804
 20
276.7326232694998
 30
0.0
  0
VERTEX
  5
14B
330
107
100
AcDbEntity
  8
A-001_Pan
100
AcDbVertex
100
AcDb2dVertex
 10
180.5721553624058
 20
276.5243907301313
 30
0.0
  0
VERTEX
  5
14C
330
107
100
AcDbEntity
  8
A-001_Pan
100
AcDbVertex
100
AcDb2dVertex
 10
179.8469305408854
 20
276.314720063164
 30
0.0
  0
VERTEX
  5
14D
330
107
100
AcDbEntity
  8
A-001_Pan
100
AcDbVertex
100
AcDb2dVertex
 10
179.1202759287374
 20
276.004526361267
 30
0.0
  0
VERTEX
  5
14E
330
107
100
AcDbEntity
  8
A-001_Pan
100
AcDbVertex
100
AcDb2dVertex
 10
178.3936171481035
 20
275.6914605726577
 30
0.0
  0
VERTEX
  5
14F
330
107
100
AcDbEntity
  8
A-001_Pan
100
AcDbVertex
100
AcDb2dVertex
 10
177.6669583674697
 20
275.3827049983598
 30
0.0
  0
VERTEX
  5
150
330
107
100
AcDbEntity
  8
A-001_Pan
100
AcDbVertex
100
AcDb2dVertex
 10
177.0436988769637
 20
274.9676738787363
 30
0.0
  0
VERTEX
  5
151
330
107
100
AcDbEntity
  8
A-001_Pan
100
AcDbVertex
100
AcDb2dVertex
 10
176.3184740554432
 20
274.5512129684853
 30
0.0
  0
VERTEX
  5
152
330
107
100
AcDbEntity
  8
A-001_Pan
100
AcDbVertex
100
AcDb2dVertex
 10
175.6952145649369
 20
274.1347478897484
 30
0.0
  0
VERTEX
  5
153
330
107
100
AcDbEntity
  8
A-001_Pan
100
AcDbVertex
100
AcDb2dVertex
 10
175.0719550744309
 20
273.6163216484831
 30
0.0
  0
VERTEX
  5
154
330
107
100
AcDbEntity
  8
A-001_Pan
100
AcDbVertex
100
AcDb2dVertex
 10
174.4501295430378
 20
273.0993335348168
 30
0.0
  0
VERTEX
  5
155
330
107
100
AcDbEntity
  8
A-001_Pan
100
AcDbVertex
100
AcDb2dVertex
 10
173.9317074702583
 20
272.5794691659524
 30
0.0
  0
VERTEX
  5
156
330
107
100
AcDbEntity
  8
A-001_Pan
100
AcDbVertex
100
AcDb2dVertex
 10
171.2304328003794
 20
269.9830319138001
 30
0.0
  0
VERTEX
  5
157
330
107
100
AcDbEntity
  8
A-001_Pan
100
AcDbVertex
100
AcDb2dVertex
 10
171.02363838861
 20
269.7747993744317
 30
0.0
  0
VERTEX
  5
158
330
107
100
AcDbEntity
  8
A-001_Pan
100
AcDbVertex
100
AcDb2dVertex
 10
170.712006559114
 20
269.3612063824071
 30
0.0
  0
VERTEX
  5
159
330
107
100
AcDbEntity
  8
A-001_Pan
100
AcDbVertex
100
AcDb2dVertex
 10
170.2969796079762
 20
269.1529738430388
 30
0.0
  0
VERTEX
  5
15A
330
107
100
AcDbEntity
  8
A-001_Pan
100
AcDbVertex
100
AcDb2dVertex
 10
169.8819526568386
 20
268.8413461820286
 30
0.0
  0
VERTEX
  5
15B
330
107
100
AcDbEntity
  8
A-001_Pan
100
AcDbVertex
100
AcDb2dVertex
 10
169.4654875781016
 20
268.6331136426602
 30
0.0
  0
VERTEX
  5
15C
330
107
100
AcDbEntity
  8
A-001_Pan
100
AcDbVertex
100
AcDb2dVertex
 10
168.9470613368364
 20
268.4263150624049
 30
0.0
  0
VERTEX
  5
15D
330
107
100
AcDbEntity
  8
A-001_Pan
100
AcDbVertex
100
AcDb2dVertex
 10
168.5334683448118
 20
268.3229199407632
 30
0.0
  0
VERTEX
  5
15E
330
107
100
AcDbEntity
  8
A-001_Pan
100
AcDbVertex
100
AcDb2dVertex
 10
168.0136081444332
 20
268.3229199407632
 30
0.0
  0
VERTEX
  5
15F
330
107
100
AcDbEntity
  8
A-001_Pan
100
AcDbVertex
100
AcDb2dVertex
 10
167.4951819031679
 20
268.2180866915224
 30
0.0
  0
VERTEX
  5
160
330
107
100
AcDbEntity
  8
A-001_Pan
100
AcDbVertex
100
AcDb2dVertex
 10
166.7685231225341
 20
268.2180866915224
 30
0.0
  0
VERTEX
  5
161
330
107
100
AcDbEntity
  8
A-001_Pan
100
AcDbVertex
100
AcDb2dVertex
 10
166.1452636320279
 20
268.3229199407632
 30
0.0
  0
VERTEX
  5
162
330
107
100
AcDbEntity
  8
A-001_Pan
100
AcDbVertex
100
AcDb2dVertex
 10
165.6268373907625
 20
268.4263150624049
 30
0.0
  0
VERTEX
  5
163
330
107
100
AcDbEntity
  8
A-001_Pan
100
AcDbVertex
100
AcDb2dVertex
 10
165.2089383529126
 20
268.7365129327878
 30
0.0
  0
VERTEX
  5
164
330
107
100
AcDbEntity
  8
A-001_Pan
100
AcDbVertex
100
AcDb2dVertex
 10
164.6905121116472
 20
269.049578721397
 30
0.0
  0
VERTEX
  5
165
330
107
100
AcDbEntity
  8
A-001_Pan
100
AcDbVertex
100
AcDb2dVertex
 10
164.3803184097501
 20
269.5694389217755
 30
0.0
  0
VERTEX
  5
166
330
107
100
AcDbEntity
  8
A-001_Pan
100
AcDbVertex
100
AcDb2dVertex
 10
164.0672484526552
 20
269.9830319138001
 30
0.0
  0
VERTEX
  5
167
330
107
100
AcDbEntity
  8
A-001_Pan
100
AcDbVertex
100
AcDb2dVertex
 10
163.9667254177255
 20
270.6062914043063
 30
0.0
  0
VERTEX
  5
168
330
107
100
AcDbEntity
  8
A-001_Pan
100
AcDbVertex
100
AcDb2dVertex
 10
163.8618921684848
 20
271.1261516046849
 30
0.0
  0
VERTEX
  5
169
330
107
100
AcDbEntity
  8
A-001_Pan
100
AcDbVertex
100
AcDb2dVertex
 10
163.8618921684848
 20
272.7862635777217
 30
0.0
  0
VERTEX
  5
16A
330
107
100
AcDbEntity
  8
A-001_Pan
100
AcDbVertex
100
AcDb2dVertex
 10
163.8618921684848
 20
276.2098868139231
 30
0.0
  0
VERTEX
  5
16B
330
107
100
AcDbEntity
  8
A-001_Pan
100
AcDbVertex
100
AcDb2dVertex
 10
163.8618921684848
 20
276.4195574808905
 30
0.0
  0
VERTEX
  5
16C
330
107
100
AcDbEntity
  8
A-001_Pan
100
AcDbVertex
100
AcDb2dVertex
 10
163.8618921684848
 20
276.627790020259
 30
0.0
  0
VERTEX
  5
16D
330
107
100
AcDbEntity
  8
A-001_Pan
100
AcDbVertex
100
AcDb2dVertex
 10
163.7570547507581
 20
276.8331463044293
 30
0.0
  0
VERTEX
  5
16E
330
107
100
AcDbEntity
  8
A-001_Pan
100
AcDbVertex
100
AcDb2dVertex
 10
163.6536596291164
 20
276.9379837221559
 30
0.0
  0
VERTEX
  5
16F
330
107
100
AcDbEntity
  8
A-001_Pan
100
AcDbVertex
100
AcDb2dVertex
 10
163.4439889621489
 20
277.1462120930385
 30
0.0
  0
VERTEX
  5
170
330
107
100
AcDbEntity
  8
A-001_Pan
100
AcDbVertex
100
AcDb2dVertex
 10
163.238628509493
 20
277.1462120930385
 30
0.0
  0
VERTEX
  5
171
330
107
100
AcDbEntity
  8
A-001_Pan
100
AcDbVertex
100
AcDb2dVertex
 10
163.135233387851
 20
277.2496113831661
 30
0.0
  0
VERTEX
  5
172
330
107
100
AcDbEntity
  8
A-001_Pan
100
AcDbVertex
100
AcDb2dVertex
 10
162.9255627208836
 20
277.2496113831661
 30
0.0
  0
VERTEX
  5
173
330
107
100
AcDbEntity
  8
A-001_Pan
100
AcDbVertex
100
AcDb2dVertex
 10
154.4153363572176
 20
277.2496113831661
 30
0.0
  0
VERTEX
  5
174
330
107
100
AcDbEntity
  8
A-001_Pan
100
AcDbVertex
100
AcDb2dVertex
 10
147.9802447492402
 20
277.2496113831661
 30
0.0
  0
VERTEX
  5
175
330
107
100
AcDbEntity
  8
A-001_Pan
100
AcDbVertex
100
AcDb2dVertex
 10
147.3569852587342
 20
277.2496113831661
 30
0.0
  0
VERTEX
  5
176
330
107
100
AcDbEntity
  8
A-001_Pan
100
AcDbVertex
100
AcDb2dVertex
 10
146.733725768228
 20
277.0413788437977
 30
0.0
  0
VERTEX
  5
177
330
107
100
AcDbEntity
  8
A-001_Pan
100
AcDbVertex
100
AcDb2dVertex
 10
146.1104662777218
 20
276.8331463044293
 30
0.0
  0
VERTEX
  5
178
330
107
100
AcDbEntity
  8
A-001_Pan
100
AcDbVertex
100
AcDb2dVertex
 10
145.4886407463287
 20
276.4195574808905
 30
0.0
  0
VERTEX
  5
179
330
107
100
AcDbEntity
  8
A-001_Pan
100
AcDbVertex
100
AcDb2dVertex
 10
145.073613795191
 20
276.004526361267
 30
0.0
  0
VERTEX
  5
17A
330
107
100
AcDbEntity
  8
A-001_Pan
100
AcDbVertex
100
AcDb2dVertex
 10
144.6557147573411
 20
275.4861001200016
 30
0.0
  0
VERTEX
  5
17B
330
107
100
AcDbEntity
  8
A-001_Pan
100
AcDbVertex
100
AcDb2dVertex
 10
144.3469550145573
 20
274.8628406294955
 30
0.0
  0
VERTEX
  5
17C
330
107
100
AcDbEntity
  8
A-001_Pan
100
AcDbVertex
100
AcDb2dVertex
 10
144.1372885160757
 20
274.2395811389893
 30
0.0
  0
VERTEX
  5
17D
330
107
100
AcDbEntity
  8
A-001_Pan
100
AcDbVertex
100
AcDb2dVertex
 10
143.8270948141787
 20
273.3032558598739
 30
0.0
  0
VERTEX
  5
17E
330
107
100
AcDbEntity
  8
A-001_Pan
100
AcDbVertex
100
AcDb2dVertex
 10
143.7236955240512
 20
272.993062157977
 30
0.0
  0
VERTEX
  5
17F
330
107
100
AcDbEntity
  8
A-001_Pan
100
AcDbVertex
100
AcDb2dVertex
 10
143.5154629846828
 20
272.2664033773432
 30
0.0
  0
VERTEX
  5
180
330
107
100
AcDbEntity
  8
A-001_Pan
100
AcDbVertex
100
AcDb2dVertex
 10
143.1004360335449
 20
271.5397445967095
 30
0.0
  0
VERTEX
  5
181
330
107
100
AcDbEntity
  8
A-001_Pan
100
AcDbVertex
100
AcDb2dVertex
 10
142.5805758331664
 20
270.8145239436747
 30
0.0
  0
VERTEX
  5
182
330
107
100
AcDbEntity
  8
A-001_Pan
100
AcDbVertex
100
AcDb2dVertex
 10
141.9587503017735
 20
270.293225615697
 30
0.0
  0
VERTEX
  5
183
330
107
100
AcDbEntity
  8
A-001_Pan
100
AcDbVertex
100
AcDb2dVertex
 10
141.3354908112673
 20
269.8781986645593
 30
0.0
  0
VERTEX
  5
184
330
107
100
AcDbEntity
  8
A-001_Pan
100
AcDbVertex
100
AcDb2dVertex
 10
140.5039987813927
 20
269.5694389217755
 30
0.0
  0
VERTEX
  5
185
330
107
100
AcDbEntity
  8
A-001_Pan
100
AcDbVertex
100
AcDb2dVertex
 10
139.7787739598722
 20
269.3612063824071
 30
0.0
  0
VERTEX
  5
186
330
107
100
AcDbEntity
  8
A-001_Pan
100
AcDbVertex
100
AcDb2dVertex
 10
138.9472819299976
 20
269.2563731331663
 30
0.0
  0
VERTEX
  5
187
330
107
100
AcDbEntity
  8
A-001_Pan
100
AcDbVertex
100
AcDb2dVertex
 10
137.3920073746873
 20
269.2563731331663
 30
0.0
  0
VERTEX
  5
188
330
107
100
AcDbEntity
  8
A-001_Pan
100
AcDbVertex
100
AcDb2dVertex
 10
136.2503216429159
 20
269.3612063824071
 30
0.0
  0
VERTEX
  5
189
330
107
100
AcDbEntity
  8
A-001_Pan
100
AcDbVertex
100
AcDb2dVertex
 10
135.2105970736728
 20
269.6742721710164
 30
0.0
  0
VERTEX
  5
18A
330
107
100
AcDbEntity
  8
A-001_Pan
100
AcDbVertex
100
AcDb2dVertex
 10
134.277139712784
 20
270.1926984122817
 30
0.0
  0
VERTEX
  5
18B
330
107
100
AcDbEntity
  8
A-001_Pan
100
AcDbVertex
100
AcDb2dVertex
 10
133.4456476829093
 20
270.8145239436747
 30
0.0
  0
VERTEX
  5
18C
330
107
100
AcDbEntity
  8
A-001_Pan
100
AcDbVertex
100
AcDb2dVertex
 10
132.8252602791153
 20
271.6431438868369
 30
0.0
  0
VERTEX
  5
18D
330
107
100
AcDbEntity
  8
A-001_Pan
100
AcDbVertex
100
AcDb2dVertex
 10
132.3039619511378
 20
272.5794691659524
 30
0.0
  0
VERTEX
  5
18E
330
107
100
AcDbEntity
  8
A-001_Pan
100
AcDbVertex
100
AcDb2dVertex
 10
131.9937682492408
 20
273.6163216484831
 30
0.0
  0
VERTEX
  5
18F
330
107
100
AcDbEntity
  8
A-001_Pan
100
AcDbVertex
100
AcDb2dVertex
 10
131.888935
 20
274.7594455078537
 30
0.0
  0
VERTEX
  5
190
330
107
100
AcDbEntity
  8
A-001_Pan
100
AcDbVertex
100
AcDb2dVertex
 10
131.888935
 20
408.2498340605702
 30
0.0
  0
VERTEX
  5
191
330
107
100
AcDbEntity
  8
A-001_Pan
100
AcDbVertex
100
AcDb2dVertex
 10
131.888935
 20
541.8450600310135
 30
0.0
  0
VERTEX
  5
192
330
107
100
AcDbEntity
  8
A-001_Pan
100
AcDbVertex
100
AcDb2dVertex
 10
131.9937682492408
 20
542.8826336615867
 30
0.0
  0
VERTEX
  5
193
330
107
100
AcDbEntity
  8
A-001_Pan
100
AcDbVertex
100
AcDb2dVertex
 10
132.3039619511378
 20
543.920203123674
 30
0.0
  0
VERTEX
  5
194
330
107
100
AcDbEntity
  8
A-001_Pan
100
AcDbVertex
100
AcDb2dVertex
 10
132.8252602791153
 20
544.8558114232327
 30
0.0
  0
VERTEX
  5
195
330
107
100
AcDbEntity
  8
A-001_Pan
100
AcDbVertex
100
AcDb2dVertex
 10
133.4456476829093
 20
545.6844313663951
 30
0.0
  0
VERTEX
  5
196
330
107
100
AcDbEntity
  8
A-001_Pan
100
AcDbVertex
100
AcDb2dVertex
 10
134.277139712784
 20
546.3076908569012
 30
0.0
  0
VERTEX
  5
197
330
107
100
AcDbEntity
  8
A-001_Pan
100
AcDbVertex
100
AcDb2dVertex
 10
135.2105970736728
 20
546.8261170981667
 30
0.0
  0
VERTEX
  5
198
330
107
100
AcDbEntity
  8
A-001_Pan
100
AcDbVertex
100
AcDb2dVertex
 10
136.2503216429159
 20
547.1391828867758
 30
0.0
  0
VERTEX
  5
199
330
107
100
AcDbEntity
  8
A-001_Pan
100
AcDbVertex
100
AcDb2dVertex
 10
137.3920073746873
 20
547.24329915646
 30
0.0
  0
VERTEX
  5
19A
330
107
100
AcDbEntity
  8
A-001_Pan
100
AcDbVertex
100
AcDb2dVertex
 10
138.9472819299976
 20
547.24329915646
 30
0.0
  0
VERTEX
  5
19B
330
107
100
AcDbEntity
  8
A-001_Pan
100
AcDbVertex
100
AcDb2dVertex
 10
139.7787739598722
 20
547.24329915646
 30
0.0
  0
VERTEX
  5
19C
330
107
100
AcDbEntity
  8
A-001_Pan
100
AcDbVertex
100
AcDb2dVertex
 10
140.5039987813927
 20
547.0350666170917
 30
0.0
  0
VERTEX
  5
19D
330
107
100
AcDbEntity
  8
A-001_Pan
100
AcDbVertex
100
AcDb2dVertex
 10
141.3354908112673
 20
546.7248729151947
 30
0.0
  0
VERTEX
  5
19E
330
107
100
AcDbEntity
  8
A-001_Pan
100
AcDbVertex
100
AcDb2dVertex
 10
141.9587503017735
 20
546.203574587217
 30
0.0
  0
VERTEX
  5
19F
330
107
100
AcDbEntity
  8
A-001_Pan
100
AcDbVertex
100
AcDb2dVertex
 10
142.5805758331664
 20
545.6844313663951
 30
0.0
  0
VERTEX
  5
1A0
330
107
100
AcDbEntity
  8
A-001_Pan
100
AcDbVertex
100
AcDb2dVertex
 10
143.1004360335449
 20
545.0618888554455
 30
0.0
  0
VERTEX
  5
1A1
330
107
100
AcDbEntity
  8
A-001_Pan
100
AcDbVertex
100
AcDb2dVertex
 10
143.5154629846828
 20
544.3373851819675
 30
0.0
  0
VERTEX
  5
1A2
330
107
100
AcDbEntity
  8
A-001_Pan
100
AcDbVertex
100
AcDb2dVertex
 10
143.7236955240512
 20
543.5058931520928
 30
0.0
  0
VERTEX
  5
1A3
330
107
100
AcDbEntity
  8
A-001_Pan
100
AcDbVertex
100
AcDb2dVertex
 10
143.8270948141787
 20
543.2969436331679
 30
0.0
  0
VERTEX
  5
1A4
330
107
100
AcDbEntity
  8
A-001_Pan
100
AcDbVertex
100
AcDb2dVertex
 10
144.1372885160757
 20
542.2593700025946
 30
0.0
  0
VERTEX
  5
1A5
330
107
100
AcDbEntity
  8
A-001_Pan
100
AcDbVertex
100
AcDb2dVertex
 10
144.3469550145573
 20
541.6368316601309
 30
0.0
  0
VERTEX
  5
1A6
330
107
100
AcDbEntity
  8
A-001_Pan
100
AcDbVertex
100
AcDb2dVertex
 10
144.6557147573411
 20
541.1176842708232
 30
0.0
  0
VERTEX
  5
1A7
330
107
100
AcDbEntity
  8
A-001_Pan
100
AcDbVertex
100
AcDb2dVertex
 10
145.073613795191
 20
540.5992580295577
 30
0.0
  0
VERTEX
  5
1A8
330
107
100
AcDbEntity
  8
A-001_Pan
100
AcDbVertex
100
AcDb2dVertex
 10
145.4886407463287
 20
540.0808317882924
 30
0.0
  0
VERTEX
  5
1A9
330
107
100
AcDbEntity
  8
A-001_Pan
100
AcDbVertex
100
AcDb2dVertex
 10
146.1104662777218
 20
539.7677659996832
 30
0.0
  0
VERTEX
  5
1AA
330
107
100
AcDbEntity
  8
A-001_Pan
100
AcDbVertex
100
AcDb2dVertex
 10
146.733725768228
 20
539.4575722977863
 30
0.0
  0
VERTEX
  5
1AB
330
107
100
AcDbEntity
  8
A-001_Pan
100
AcDbVertex
100
AcDb2dVertex
 10
147.3569852587342
 20
539.353456028102
 30
0.0
  0
VERTEX
  5
1AC
330
107
100
AcDbEntity
  8
A-001_Pan
100
AcDbVertex
100
AcDb2dVertex
 10
147.9802447492402
 20
539.2493397584179
 30
0.0
  0
VERTEX
  5
1AD
330
107
100
AcDbEntity
  8
A-001_Pan
100
AcDbVertex
100
AcDb2dVertex
 10
154.4153363572176
 20
539.2493397584179
 30
0.0
  0
VERTEX
  5
1AE
330
107
100
AcDbEntity
  8
A-001_Pan
100
AcDbVertex
100
AcDb2dVertex
 10
162.9255627208836
 20
539.2493397584179
 30
0.0
  0
VERTEX
  5
1AF
330
107
100
AcDbEntity
  8
A-001_Pan
100
AcDbVertex
100
AcDb2dVertex
 10
163.135233387851
 20
539.2493397584179
 30
0.0
  0
VERTEX
  5
1B0
330
107
100
AcDbEntity
  8
A-001_Pan
100
AcDbVertex
100
AcDb2dVertex
 10
163.238628509493
 20
539.353456028102
 30
0.0
  0
VERTEX
  5
1B1
330
107
100
AcDbEntity
  8
A-001_Pan
100
AcDbVertex
100
AcDb2dVertex
 10
163.4439889621489
 20
539.4575722977863
 30
0.0
  0
VERTEX
  5
1B2
330
107
100
AcDbEntity
  8
A-001_Pan
100
AcDbVertex
100
AcDb2dVertex
 10
163.6536596291164
 20
539.5616885674705
 30
0.0
  0
VERTEX
  5
1B3
330
107
100
AcDbEntity
  8
A-001_Pan
100
AcDbVertex
100
AcDb2dVertex
 10
163.7570547507581
 20
539.7677659996832
 30
0.0
  0
VERTEX
  5
1B4
330
107
100
AcDbEntity
  8
A-001_Pan
100
AcDbVertex
100
AcDb2dVertex
 10
163.8618921684848
 20
539.8718822693674
 30
0.0
  0
VERTEX
  5
1B5
330
107
100
AcDbEntity
  8
A-001_Pan
100
AcDbVertex
100
AcDb2dVertex
 10
163.8618921684848
 20
540.0808317882924
 30
0.0
  0
VERTEX
  5
1B6
330
107
100
AcDbEntity
  8
A-001_Pan
100
AcDbVertex
100
AcDb2dVertex
 10
163.8618921684848
 20
540.2861922409487
 30
0.0
  0
VERTEX
  5
1B7
330
107
100
AcDbEntity
  8
A-001_Pan
100
AcDbVertex
100
AcDb2dVertex
 10
163.8618921684848
 20
543.8160868539897
 30
0.0
  0
VERTEX
  5
1B8
330
107
100
AcDbEntity
  8
A-001_Pan
100
AcDbVertex
100
AcDb2dVertex
 10
163.8618921684848
 20
545.479070913739
 30
0.0
  0
VERTEX
  5
1B9
330
107
100
AcDbEntity
  8
A-001_Pan
100
AcDbVertex
100
AcDb2dVertex
 10
163.9667254177255
 20
545.9974971550043
 30
0.0
  0
VERTEX
  5
1BA
330
107
100
AcDbEntity
  8
A-001_Pan
100
AcDbVertex
100
AcDb2dVertex
 10
164.0672484526552
 20
546.5159233962697
 30
0.0
  0
VERTEX
  5
1BB
330
107
100
AcDbEntity
  8
A-001_Pan
100
AcDbVertex
100
AcDb2dVertex
 10
164.3803184097501
 20
547.0350666170917
 30
0.0
  0
VERTEX
  5
1BC
330
107
100
AcDbEntity
  8
A-001_Pan
100
AcDbVertex
100
AcDb2dVertex
 10
164.6905121116472
 20
547.4493765886727
 30
0.0
  0
VERTEX
  5
1BD
330
107
100
AcDbEntity
  8
A-001_Pan
100
AcDbVertex
100
AcDb2dVertex
 10
165.2089383529126
 20
547.7624423772821
 30
0.0
  0
VERTEX
  5
1BE
330
107
100
AcDbEntity
  8
A-001_Pan
100
AcDbVertex
100
AcDb2dVertex
 10
165.6268373907625
 20
548.0726360791789
 30
0.0
  0
VERTEX
  5
1BF
330
107
100
AcDbEntity
  8
A-001_Pan
100
AcDbVertex
100
AcDb2dVertex
 10
166.1452636320279
 20
548.1767523488632
 30
0.0
  0
VERTEX
  5
1C0
330
107
100
AcDbEntity
  8
A-001_Pan
100
AcDbVertex
100
AcDb2dVertex
 10
166.7685231225341
 20
548.2808686185474
 30
0.0
  0
VERTEX
  5
1C1
330
107
100
AcDbEntity
  8
A-001_Pan
100
AcDbVertex
100
AcDb2dVertex
 10
167.4951819031679
 20
548.2808686185474
 30
0.0
  0
VERTEX
  5
1C2
330
107
100
AcDbEntity
  8
A-001_Pan
100
AcDbVertex
100
AcDb2dVertex
 10
168.0136081444332
 20
548.2808686185474
 30
0.0
  0
VERTEX
  5
1C3
330
107
100
AcDbEntity
  8
A-001_Pan
100
AcDbVertex
100
AcDb2dVertex
 10
168.5334683448118
 20
548.1767523488632
 30
0.0
  0
VERTEX
  5
1C4
330
107
100
AcDbEntity
  8
A-001_Pan
100
AcDbVertex
100
AcDb2dVertex
 10
168.9470613368364
 20
548.0726360791789
 30
0.0
  0
VERTEX
  5
1C5
330
107
100
AcDbEntity
  8
A-001_Pan
100
AcDbVertex
100
AcDb2dVertex
 10
169.4654875781016
 20
547.8665586469662
 30
0.0
  0
VERTEX
  5
1C6
330
107
100
AcDbEntity
  8
A-001_Pan
100
AcDbVertex
100
AcDb2dVertex
 10
169.8819526568386
 20
547.6576091280413
 30
0.0
  0
VERTEX
  5
1C7
330
107
100
AcDbEntity
  8
A-001_Pan
100
AcDbVertex
100
AcDb2dVertex
 10
170.2969796079762
 20
547.4493765886727
 30
0.0
  0
VERTEX
  5
1C8
330
107
100
AcDbEntity
  8
A-001_Pan
100
AcDbVertex
100
AcDb2dVertex
 10
170.712006559114
 20
547.1391828867758
 30
0.0
  0
VERTEX
  5
1C9
330
107
100
AcDbEntity
  8
A-001_Pan
100
AcDbVertex
100
AcDb2dVertex
 10
171.02363838861
 20
546.8261170981667
 30
0.0
  0
VERTEX
  5
1CA
330
107
100
AcDbEntity
  8
A-001_Pan
100
AcDbVertex
100
AcDb2dVertex
 10
171.2304328003794
 20
546.6207566455104
 30
0.0
  0
VERTEX
  5
1CB
330
107
100
AcDbEntity
  8
A-001_Pan
100
AcDbVertex
100
AcDb2dVertex
 10
173.9317074702583
 20
544.0243193933582
 30
0.0
  0
VERTEX
  5
1CC
330
107
100
AcDbEntity
  8
A-001_Pan
100
AcDbVertex
100
AcDb2dVertex
 10
174.4501295430378
 20
543.4010599028519
 30
0.0
  0
VERTEX
  5
1CD
330
107
100
AcDbEntity
  8
A-001_Pan
100
AcDbVertex
100
AcDb2dVertex
 10
175.0719550744309
 20
542.8826336615867
 30
0.0
  0
VERTEX
  5
1CE
330
107
100
AcDbEntity
  8
A-001_Pan
100
AcDbVertex
100
AcDb2dVertex
 10
175.6952145649369
 20
542.4683236900055
 30
0.0
  0
VERTEX
  5
1CF
330
107
100
AcDbEntity
  8
A-001_Pan
100
AcDbVertex
100
AcDb2dVertex
 10
176.3184740554432
 20
541.9491763006978
 30
0.0
  0
VERTEX
  5
1D0
330
107
100
AcDbEntity
  8
A-001_Pan
100
AcDbVertex
100
AcDb2dVertex
 10
177.0436988769637
 20
541.5327153904468
 30
0.0
  0
VERTEX
  5
1D1
330
107
100
AcDbEntity
  8
A-001_Pan
100
AcDbVertex
100
AcDb2dVertex
 10
177.6669583674697
 20
541.2225216885498
 30
0.0
  0
VERTEX
  5
1D2
330
107
100
AcDbEntity
  8
A-001_Pan
100
AcDbVertex
100
AcDb2dVertex
 10
178.3936171481035
 20
540.8074905689262
 30
0.0
  0
VERTEX
  5
1D3
330
107
100
AcDbEntity
  8
A-001_Pan
100
AcDbVertex
100
AcDb2dVertex
 10
179.1202759287374
 20
540.4951417598736
 30
0.0
  0
VERTEX
  5
1D4
330
107
100
AcDbEntity
  8
A-001_Pan
100
AcDbVertex
100
AcDb2dVertex
 10
179.8469305408854
 20
540.1849480579767
 30
0.0
  0
VERTEX
  5
1D5
330
107
100
AcDbEntity
  8
A-001_Pan
100
AcDbVertex
100
AcDb2dVertex
 10
180.5721553624058
 20
539.9759985390517
 30
0.0
  0
VERTEX
  5
1D6
330
107
100
AcDbEntity
  8
A-001_Pan
100
AcDbVertex
100
AcDb2dVertex
 10
181.4036473922804
 20
539.7677659996832
 30
0.0
  0
VERTEX
  5
1D7
330
107
100
AcDbEntity
  8
A-001_Pan
100
AcDbVertex
100
AcDb2dVertex
 10
182.1303061729141
 20
539.5616885674705
 30
0.0
  0
VERTEX
  5
1D8
330
107
100
AcDbEntity
  8
A-001_Pan
100
AcDbVertex
100
AcDb2dVertex
 10
182.8555268259489
 20
539.4575722977863
 30
0.0
  0
VERTEX
  5
1D9
330
107
100
AcDbEntity
  8
A-001_Pan
100
AcDbVertex
100
AcDb2dVertex
 10
183.6870188558235
 20
539.353456028102
 30
0.0
  0
VERTEX
  5
1DA
330
107
100
AcDbEntity
  8
A-001_Pan
100
AcDbVertex
100
AcDb2dVertex
 10
184.5185108856981
 20
539.2493397584179
 30
0.0
  0
VERTEX
  5
1DB
330
107
100
AcDbEntity
  8
A-001_Pan
100
AcDbVertex
100
AcDb2dVertex
 10
185.2437315387328
 20
539.2493397584179
 30
0.0
  0
VERTEX
  5
1DC
330
107
100
AcDbEntity
  8
A-001_Pan
100
AcDbVertex
100
AcDb2dVertex
 10
186.9067155984819
 20
539.2493397584179
 30
0.0
  0
VERTEX
  5
1DD
330
107
100
AcDbEntity
  8
A-001_Pan
100
AcDbVertex
100
AcDb2dVertex
 10
187.8401729593709
 20
539.353456028102
 30
0.0
  0
VERTEX
  5
1DE
330
107
100
AcDbEntity
  8
A-001_Pan
100
AcDbVertex
100
AcDb2dVertex
 10
188.772188024175
 20
539.6658048371547
 30
0.0
  0
VERTEX
  5
1DF
330
107
100
AcDbEntity
  8
A-001_Pan
100
AcDbVertex
100
AcDb2dVertex
 10
189.7085133032904
 20
540.0808317882924
 30
0.0
  0
VERTEX
  5
1E0
330
107
100
AcDbEntity
  8
A-001_Pan
100
AcDbVertex
100
AcDb2dVertex
 10
190.4366102115232
 20
540.7033742992419
 30
0.0
  0
VERTEX
  5
1E1
330
107
100
AcDbEntity
  8
A-001_Pan
100
AcDbVertex
100
AcDb2dVertex
 10
191.0584315744303
 20
541.5327153904468
 30
0.0
  0
VERTEX
  5
1E2
330
107
100
AcDbEntity
  8
A-001_Pan
100
AcDbVertex
100
AcDb2dVertex
 10
191.5782959432947
 20
542.3642074203213
 30
0.0
  0
VERTEX
  5
1E3
330
107
100
AcDbEntity
  8
A-001_Pan
100
AcDbVertex
100
AcDb2dVertex
 10
191.7836563959508
 20
543.2969436331679
 30
0.0
  0
VERTEX
  5
1E4
330
107
100
AcDbEntity
  8
A-001_Pan
100
AcDbVertex
100
AcDb2dVertex
 10
191.8870515175925
 20
544.2325519327266
 30
0.0
  0
VERTEX
  5
1E5
330
107
100
AcDbEntity
  8
A-001_Pan
100
AcDbVertex
100
AcDb2dVertex
 10
191.8870515175925
 20
584.9239680042459
 30
0.0
  0
VERTEX
  5
1E6
330
107
100
AcDbEntity
  8
A-001_Pan
100
AcDbVertex
100
AcDb2dVertex
 10
191.8870515175925
 20
620.2171449503188
 30
0.0
  0
VERTEX
  5
1E7
330
107
100
AcDbEntity
  8
A-001_Pan
100
AcDbVertex
100
AcDb2dVertex
 10
191.8870515175925
 20
620.8404044408249
 30
0.0
  0
VERTEX
  5
1E8
330
107
100
AcDbEntity
  8
A-001_Pan
100
AcDbVertex
100
AcDb2dVertex
 10
191.8870515175925
 20
621.4607960131046
 30
0.0
  0
VERTEX
  5
1E9
330
107
100
AcDbEntity
  8
A-001_Pan
100
AcDbVertex
100
AcDb2dVertex
 10
191.8870515175925
 20
622.0840555036109
 30
0.0
  0
VERTEX
  5
1EA
330
107
100
AcDbEntity
  8
A-001_Pan
100
AcDbVertex
100
AcDb2dVertex
 10
191.7836563959508
 20
622.7065980145604
 30
0.0
  0
VERTEX
  5
1EB
330
107
100
AcDbEntity
  8
A-001_Pan
100
AcDbVertex
100
AcDb2dVertex
 10
191.67882314671
 20
623.3298575050666
 30
0.0
  0
VERTEX
  5
1EC
330
107
100
AcDbEntity
  8
A-001_Pan
100
AcDbVertex
100
AcDb2dVertex
 10
191.67882314671
 20
623.9524000160161
 30
0.0
  0
VERTEX
  5
1ED
330
107
100
AcDbEntity
  8
A-001_Pan
100
AcDbVertex
100
AcDb2dVertex
 10
191.5782959432947
 20
624.4715432368381
 30
0.0
  0
VERTEX
  5
1EE
330
107
100
AcDbEntity
  8
A-001_Pan
100
AcDbVertex
100
AcDb2dVertex
 10
191.4734626940539
 20
625.0940857477876
 30
0.0
  0
VERTEX
  5
1EF
330
107
100
AcDbEntity
  8
A-001_Pan
100
AcDbVertex
100
AcDb2dVertex
 10
191.2652301546854
 20
625.7173452382938
 30
0.0
  0
VERTEX
  5
1F0
330
107
100
AcDbEntity
  8
A-001_Pan
100
AcDbVertex
100
AcDb2dVertex
 10
191.1603969054447
 20
626.3406047288
 30
0.0
  0
VERTEX
  5
1F1
330
107
100
AcDbEntity
  8
A-001_Pan
100
AcDbVertex
100
AcDb2dVertex
 10
191.0584315744303
 20
626.9631472397495
 30
0.0
  0
VERTEX
  5
1F2
330
107
100
AcDbEntity
  8
A-001_Pan
100
AcDbVertex
100
AcDb2dVertex
 10
190.8502032035476
 20
627.4822904605716
 30
0.0
  0
VERTEX
  5
1F3
330
107
100
AcDbEntity
  8
A-001_Pan
100
AcDbVertex
100
AcDb2dVertex
 10
190.6419706641793
 20
628.104832971521
 30
0.0
  0
VERTEX
  5
1F4
330
107
100
AcDbEntity
  8
A-001_Pan
100
AcDbVertex
100
AcDb2dVertex
 10
190.4366102115232
 20
628.6239761923431
 30
0.0
  0
VERTEX
  5
1F5
330
107
100
AcDbEntity
  8
A-001_Pan
100
AcDbVertex
100
AcDb2dVertex
 10
190.2269395445557
 20
629.2465187032926
 30
0.0
  0
VERTEX
  5
1F6
330
107
100
AcDbEntity
  8
A-001_Pan
100
AcDbVertex
100
AcDb2dVertex
 10
190.0187111736731
 20
629.8697781937987
 30
0.0
  0
VERTEX
  5
1F7
330
107
100
AcDbEntity
  8
A-001_Pan
100
AcDbVertex
100
AcDb2dVertex
 10
189.8133507210169
 20
630.3882044350642
 30
0.0
  0
VERTEX
  5
1F8
330
107
100
AcDbEntity
  8
A-001_Pan
100
AcDbVertex
100
AcDb2dVertex
 10
189.5002849324077
 20
630.9073476558861
 30
0.0
  0
VERTEX
  5
1F9
330
107
100
AcDbEntity
  8
A-001_Pan
100
AcDbVertex
100
AcDb2dVertex
 10
189.2934863521525
 20
631.5298901668357
 30
0.0
  0
VERTEX
  5
1FA
330
107
100
AcDbEntity
  8
A-001_Pan
100
AcDbVertex
100
AcDb2dVertex
 10
188.9804205635433
 20
632.0490333876577
 30
0.0
  0
VERTEX
  5
1FB
330
107
100
AcDbEntity
  8
A-001_Pan
100
AcDbVertex
100
AcDb2dVertex
 10
188.6702268616464
 20
632.5703317156353
 30
0.0
  0
VERTEX
  5
1FC
330
107
100
AcDbEntity
  8
A-001_Pan
100
AcDbVertex
100
AcDb2dVertex
 10
188.3585950321503
 20
633.0887579569006
 30
0.0
  0
VERTEX
  5
1FD
330
107
100
AcDbEntity
  8
A-001_Pan
100
AcDbVertex
100
AcDb2dVertex
 10
188.0484013302534
 20
633.6071841981659
 30
0.0
  0
VERTEX
  5
1FE
330
107
100
AcDbEntity
  8
A-001_Pan
100
AcDbVertex
100
AcDb2dVertex
 10
187.7353355416443
 20
634.1263315874738
 30
0.0
  0
VERTEX
  5
1FF
330
107
100
AcDbEntity
  8
A-001_Pan
100
AcDbVertex
100
AcDb2dVertex
 10
187.3203085905065
 20
634.6447578287392
 30
0.0
  0
VERTEX
  5
200
330
107
100
AcDbEntity
  8
A-001_Pan
100
AcDbVertex
100
AcDb2dVertex
 10
187.0072428018973
 20
635.1639010495611
 30
0.0
  0
VERTEX
  5
201
330
107
100
AcDbEntity
  8
A-001_Pan
100
AcDbVertex
100
AcDb2dVertex
 10
186.5936498098728
 20
635.6823272908265
 30
0.0
  0
VERTEX
  5
202
330
107
100
AcDbEntity
  8
A-001_Pan
100
AcDbVertex
100
AcDb2dVertex
 10
186.2834561079758
 20
636.0995093491198
 30
0.0
  0
VERTEX
  5
203
330
107
100
AcDbEntity
  8
A-001_Pan
100
AcDbVertex
100
AcDb2dVertex
 10
185.8669910292388
 20
636.6179355903852
 30
0.0
  0
VERTEX
  5
204
330
107
100
AcDbEntity
  8
A-001_Pan
100
AcDbVertex
100
AcDb2dVertex
 10
185.4519640781012
 20
637.0322455619664
 30
0.0
  0
VERTEX
  5
205
330
107
100
AcDbEntity
  8
A-001_Pan
100
AcDbVertex
100
AcDb2dVertex
 10
185.0369371269634
 20
637.4472725131042
 30
0.0
  0
VERTEX
  5
206
330
107
100
AcDbEntity
  8
A-001_Pan
100
AcDbVertex
100
AcDb2dVertex
 10
184.6204720482267
 20
637.9656987543694
 30
0.0
  0
VERTEX
  5
207
330
107
100
AcDbEntity
  8
A-001_Pan
100
AcDbVertex
100
AcDb2dVertex
 10
184.4151115955704
 20
638.1739312937379
 30
0.0
  0
VERTEX
  5
208
330
107
100
AcDbEntity
  8
A-001_Pan
100
AcDbVertex
100
AcDb2dVertex
 10
184.0000846444327
 20
638.4869970823471
 30
0.0
  0
VERTEX
  5
209
330
107
100
AcDbEntity
  8
A-001_Pan
100
AcDbVertex
100
AcDb2dVertex
 10
183.7918521050643
 20
638.9013070539284
 30
0.0
  0
VERTEX
  5
20A
330
107
100
AcDbEntity
  8
A-001_Pan
100
AcDbVertex
100
AcDb2dVertex
 10
183.478786316455
 20
639.3156170255094
 30
0.0
  0
VERTEX
  5
20B
330
107
100
AcDbEntity
  8
A-001_Pan
100
AcDbVertex
100
AcDb2dVertex
 10
183.273425863799
 20
639.7306439766472
 30
0.0
  0
VERTEX
  5
20C
330
107
100
AcDbEntity
  8
A-001_Pan
100
AcDbVertex
100
AcDb2dVertex
 10
183.1685926145581
 20
640.2519423046249
 30
0.0
  0
VERTEX
  5
20D
330
107
100
AcDbEntity
  8
A-001_Pan
100
AcDbVertex
100
AcDb2dVertex
 10
182.9603600751896
 20
640.666252276206
 30
0.0
  0
VERTEX
  5
20E
330
107
100
AcDbEntity
  8
A-001_Pan
100
AcDbVertex
100
AcDb2dVertex
 10
182.9603600751896
 20
641.1846785174714
 30
0.0
  0
VERTEX
  5
20F
330
107
100
AcDbEntity
  8
A-001_Pan
100
AcDbVertex
100
AcDb2dVertex
 10
182.8555268259489
 20
641.7038217382932
 30
0.0
  0
VERTEX
  5
210
330
107
100
AcDbEntity
  8
A-001_Pan
100
AcDbVertex
100
AcDb2dVertex
 10
182.8555268259489
 20
642.4304805189271
 30
0.0
  0
VERTEX
  5
211
330
107
100
AcDbEntity
  8
A-001_Pan
100
AcDbVertex
100
AcDb2dVertex
 10
182.9603600751896
 20
643.0537400094333
 30
0.0
  0
VERTEX
  5
212
330
107
100
AcDbEntity
  8
A-001_Pan
100
AcDbVertex
100
AcDb2dVertex
 10
183.1685926145581
 20
643.5721662506986
 30
0.0
  0
VERTEX
  5
213
330
107
100
AcDbEntity
  8
A-001_Pan
100
AcDbVertex
100
AcDb2dVertex
 10
183.3768251539266
 20
644.0913094715206
 30
0.0
  0
VERTEX
  5
214
330
107
100
AcDbEntity
  8
A-001_Pan
100
AcDbVertex
100
AcDb2dVertex
 10
183.7918521050643
 20
644.5056194431018
 30
0.0
  0
VERTEX
  5
215
330
107
100
AcDbEntity
  8
A-001_Pan
100
AcDbVertex
100
AcDb2dVertex
 10
184.206879056202
 20
644.8186852317109
 30
0.0
  0
VERTEX
  5
216
330
107
100
AcDbEntity
  8
A-001_Pan
100
AcDbVertex
100
AcDb2dVertex
 10
184.6204720482267
 20
645.1288789336079
 30
0.0
  0
VERTEX
  5
217
330
107
100
AcDbEntity
  8
A-001_Pan
100
AcDbVertex
100
AcDb2dVertex
 10
185.2437315387328
 20
645.2329952032921
 30
0.0
  0
VERTEX
  5
218
330
107
100
AcDbEntity
  8
A-001_Pan
100
AcDbVertex
100
AcDb2dVertex
 10
185.7650298667105
 20
645.3371114729764
 30
0.0
  0
VERTEX
  5
219
330
107
100
AcDbEntity
  8
A-001_Pan
100
AcDbVertex
100
AcDb2dVertex
 10
187.4251418397474
 20
645.3371114729764
 30
0.0
  0
VERTEX
  5
21A
330
107
100
AcDbEntity
  8
A-001_Pan
100
AcDbVertex
100
AcDb2dVertex
 10
190.9535983251895
 20
645.3371114729764
 30
0.0
  0
VERTEX
  5
21B
330
107
100
AcDbEntity
  8
A-001_Pan
100
AcDbVertex
100
AcDb2dVertex
 10
191.0584315744303
 20
645.3371114729764
 30
0.0
  0
VERTEX
  5
21C
330
107
100
AcDbEntity
  8
A-001_Pan
100
AcDbVertex
100
AcDb2dVertex
 10
191.2652301546854
 20
645.4412277426605
 30
0.0
  0
VERTEX
  5
21D
330
107
100
AcDbEntity
  8
A-001_Pan
100
AcDbVertex
100
AcDb2dVertex
 10
191.4734626940539
 20
645.4412277426605
 30
0.0
  0
VERTEX
  5
21E
330
107
100
AcDbEntity
  8
A-001_Pan
100
AcDbVertex
100
AcDb2dVertex
 10
191.5782959432947
 20
645.6473051748733
 30
0.0
  0
VERTEX
  5
21F
330
107
100
AcDbEntity
  8
A-001_Pan
100
AcDbVertex
100
AcDb2dVertex
 10
191.7836563959508
 20
645.7514214445575
 30
0.0
  0
VERTEX
  5
220
330
107
100
AcDbEntity
  8
A-001_Pan
100
AcDbVertex
100
AcDb2dVertex
 10
191.7836563959508
 20
645.9603709634825
 30
0.0
  0
VERTEX
  5
221
330
107
100
AcDbEntity
  8
A-001_Pan
100
AcDbVertex
100
AcDb2dVertex
 10
191.8870515175925
 20
646.1657314161386
 30
0.0
  0
VERTEX
  5
222
330
107
100
AcDbEntity
  8
A-001_Pan
100
AcDbVertex
100
AcDb2dVertex
 10
191.8870515175925
 20
646.2705688338653
 30
0.0
  0
VERTEX
  5
223
330
107
100
AcDbEntity
  8
A-001_Pan
100
AcDbVertex
100
AcDb2dVertex
 10
191.8870515175925
 20
654.7836672842436
 30
0.0
  0
VERTEX
  5
224
330
107
100
AcDbEntity
  8
A-001_Pan
100
AcDbVertex
100
AcDb2dVertex
 10
191.8870515175925
 20
661.2187547237351
 30
0.0
  0
VERTEX
  5
225
330
107
100
AcDbEntity
  8
A-001_Pan
100
AcDbVertex
100
AcDb2dVertex
 10
191.8870515175925
 20
661.9461346524112
 30
0.0
  0
VERTEX
  5
226
330
107
100
AcDbEntity
  8
A-001_Pan
100
AcDbVertex
100
AcDb2dVertex
 10
191.67882314671
 20
662.5693941429174
 30
0.0
  0
VERTEX
  5
227
330
107
100
AcDbEntity
  8
A-001_Pan
100
AcDbVertex
100
AcDb2dVertex
 10
191.4734626940539
 20
663.0878203841827
 30
0.0
  0
VERTEX
  5
228
330
107
100
AcDbEntity
  8
A-001_Pan
100
AcDbVertex
100
AcDb2dVertex
 10
191.0584315744303
 20
663.7110798746889
 30
0.0
  0
VERTEX
  5
229
330
107
100
AcDbEntity
  8
A-001_Pan
100
AcDbVertex
100
AcDb2dVertex
 10
190.6419706641793
 20
664.12538984627
 30
0.0
  0
VERTEX
  5
22A
330
107
100
AcDbEntity
  8
A-001_Pan
100
AcDbVertex
100
AcDb2dVertex
 10
190.1235444229139
 20
664.5396998178512
 30
0.0
  0
VERTEX
  5
22B
330
107
100
AcDbEntity
  8
A-001_Pan
100
AcDbVertex
100
AcDb2dVertex
 10
189.5002849324077
 20
664.8527656064604
 30
0.0
  0
VERTEX
  5
22C
330
107
100
AcDbEntity
  8
A-001_Pan
100
AcDbVertex
100
AcDb2dVertex
 10
188.8770212734158
 20
665.1629593083574
 30
0.0
  0
VERTEX
  5
22D
330
107
100
AcDbEntity
  8
A-001_Pan
100
AcDbVertex
100
AcDb2dVertex
 10
187.9435680810127
 20
665.3711918477259
 30
0.0
  0
VERTEX
  5
22E
330
107
100
AcDbEntity
  8
A-001_Pan
100
AcDbVertex
100
AcDb2dVertex
 10
187.6319404200025
 20
665.4753081174099
 30
0.0
  0
VERTEX
  5
22F
330
107
100
AcDbEntity
  8
A-001_Pan
100
AcDbVertex
100
AcDb2dVertex
 10
186.9067155984819
 20
665.6813855496227
 30
0.0
  0
VERTEX
  5
230
330
107
100
AcDbEntity
  8
A-001_Pan
100
AcDbVertex
100
AcDb2dVertex
 10
186.1800568178481
 20
666.0985676079161
 30
0.0
  0
VERTEX
  5
231
330
107
100
AcDbEntity
  8
A-001_Pan
100
AcDbVertex
100
AcDb2dVertex
 10
185.4519640781012
 20
666.6169938491815
 30
0.0
  0
VERTEX
  5
232
330
107
100
AcDbEntity
  8
A-001_Pan
100
AcDbVertex
100
AcDb2dVertex
 10
184.9335378368359
 20
667.2402533396876
 30
0.0
  0
VERTEX
  5
233
330
107
100
AcDbEntity
  8
A-001_Pan
100
AcDbVertex
100
AcDb2dVertex
 10
184.5185108856981
 20
667.9647570131658
 30
0.0
  0
VERTEX
  5
234
330
107
100
AcDbEntity
  8
A-001_Pan
100
AcDbVertex
100
AcDb2dVertex
 10
184.206879056202
 20
668.6921327733561
 30
0.0
  0
VERTEX
  5
235
330
107
100
AcDbEntity
  8
A-001_Pan
100
AcDbVertex
100
AcDb2dVertex
 10
184.0000846444327
 20
669.4195085335466
 30
0.0
  0
VERTEX
  5
236
330
107
100
AcDbEntity
  8
A-001_Pan
100
AcDbVertex
100
AcDb2dVertex
 10
183.8952513951918
 20
670.2510005634211
 30
0.0
  0
VERTEX
  5
237
330
107
100
AcDbEntity
  8
A-001_Pan
100
AcDbVertex
100
AcDb2dVertex
 10
183.8952513951918
 20
671.911112536458
 30
0.0
  0
VERTEX
  5
238
330
107
100
AcDbEntity
  8
A-001_Pan
100
AcDbVertex
100
AcDb2dVertex
 10
184.0000846444327
 20
672.9486819985453
 30
0.0
  0
VERTEX
  5
239
330
107
100
AcDbEntity
  8
A-001_Pan
100
AcDbVertex
100
AcDb2dVertex
 10
184.3102783463296
 20
673.9862556291186
 30
0.0
  0
VERTEX
  5
23A
330
107
100
AcDbEntity
  8
A-001_Pan
100
AcDbVertex
100
AcDb2dVertex
 10
184.8287045875951
 20
674.9218639286773
 30
0.0
  0
VERTEX
  5
23B
330
107
100
AcDbEntity
  8
A-001_Pan
100
AcDbVertex
100
AcDb2dVertex
 10
185.556797327342
 20
675.7504838718396
 30
0.0
  0
VERTEX
  5
23C
330
107
100
AcDbEntity
  8
A-001_Pan
100
AcDbVertex
100
AcDb2dVertex
 10
186.2834561079758
 20
676.3737433623457
 30
0.0
  0
VERTEX
  5
23D
330
107
100
AcDbEntity
  8
A-001_Pan
100
AcDbVertex
100
AcDb2dVertex
 10
187.3203085905065
 20
676.8921696036111
 30
0.0
  0
VERTEX
  5
23E
330
107
100
AcDbEntity
  8
A-001_Pan
100
AcDbVertex
100
AcDb2dVertex
 10
188.2537617829095
 20
677.2052353922203
 30
0.0
  0
VERTEX
  5
23F
330
107
100
AcDbEntity
  8
A-001_Pan
100
AcDbVertex
100
AcDb2dVertex
 10
189.3954475146811
 20
677.3093516619045
 30
0.0
  0
VERTEX
  5
240
330
107
100
AcDbEntity
  8
A-001_Pan
100
AcDbVertex
100
AcDb2dVertex
 10
322.8865572154402
 20
677.3093516619045
 30
0.0
  0
VERTEX
  5
241
330
107
100
AcDbEntity
  8
A-001_Pan
100
AcDbVertex
100
AcDb2dVertex
 10
456.482504333926
 20
677.3093516619045
 30
0.0
  0
VERTEX
  5
242
330
107
100
AcDbEntity
  8
A-001_Pan
100
AcDbVertex
100
AcDb2dVertex
 10
457.5222289031688
 20
677.2052353922203
 30
0.0
  0
VERTEX
  5
243
330
107
100
AcDbEntity
  8
A-001_Pan
100
AcDbVertex
100
AcDb2dVertex
 10
458.5590813856996
 20
676.8921696036111
 30
0.0
  0
VERTEX
  5
244
330
107
100
AcDbEntity
  8
A-001_Pan
100
AcDbVertex
100
AcDb2dVertex
 10
459.4925345781027
 20
676.3737433623457
 30
0.0
  0
VERTEX
  5
245
330
107
100
AcDbEntity
  8
A-001_Pan
100
AcDbVertex
100
AcDb2dVertex
 10
460.3240266079772
 20
675.7504838718396
 30
0.0
  0
VERTEX
  5
246
330
107
100
AcDbEntity
  8
A-001_Pan
100
AcDbVertex
100
AcDb2dVertex
 10
461.050685388611
 20
674.9218639286773
 30
0.0
  0
VERTEX
  5
247
330
107
100
AcDbEntity
  8
A-001_Pan
100
AcDbVertex
100
AcDb2dVertex
 10
461.4657123397489
 20
673.9862556291186
 30
0.0
  0
VERTEX
  5
248
330
107
100
AcDbEntity
  8
A-001_Pan
100
AcDbVertex
100
AcDb2dVertex
 10
461.7759060416457
 20
672.9486819985453
 30
0.0
  0
VERTEX
  5
249
330
107
100
AcDbEntity
  8
A-001_Pan
100
AcDbVertex
100
AcDb2dVertex
 10
461.8807392908867
 20
671.911112536458
 30
0.0
  0
VERTEX
  5
24A
330
107
100
AcDbEntity
  8
A-001_Pan
100
AcDbVertex
100
AcDb2dVertex
 10
461.8807392908867
 20
670.2510005634211
 30
0.0
  0
VERTEX
  5
24B
330
107
100
AcDbEntity
  8
A-001_Pan
100
AcDbVertex
100
AcDb2dVertex
 10
461.8807392908867
 20
669.4195085335466
 30
0.0
  0
VERTEX
  5
24C
330
107
100
AcDbEntity
  8
A-001_Pan
100
AcDbVertex
100
AcDb2dVertex
 10
461.6725067515182
 20
668.6921327733561
 30
0.0
  0
VERTEX
  5
24D
330
107
100
AcDbEntity
  8
A-001_Pan
100
AcDbVertex
100
AcDb2dVertex
 10
461.3623130496212
 20
667.9647570131658
 30
0.0
  0
VERTEX
  5
24E
330
107
100
AcDbEntity
  8
A-001_Pan
100
AcDbVertex
100
AcDb2dVertex
 10
460.8424528492426
 20
667.2402533396876
 30
0.0
  0
VERTEX
  5
24F
330
107
100
AcDbEntity
  8
A-001_Pan
100
AcDbVertex
100
AcDb2dVertex
 10
460.3240266079772
 20
666.6169938491815
 30
0.0
  0
VERTEX
  5
250
330
107
100
AcDbEntity
  8
A-001_Pan
100
AcDbVertex
100
AcDb2dVertex
 10
459.7022010765844
 20
666.0985676079161
 30
0.0
  0
VERTEX
  5
251
330
107
100
AcDbEntity
  8
A-001_Pan
100
AcDbVertex
100
AcDb2dVertex
 10
458.9741083368373
 20
665.6813855496227
 30
0.0
  0
VERTEX
  5
252
330
107
100
AcDbEntity
  8
A-001_Pan
100
AcDbVertex
100
AcDb2dVertex
 10
458.1426163069627
 20
665.4753081174099
 30
0.0
  0
VERTEX
  5
253
330
107
100
AcDbEntity
  8
A-001_Pan
100
AcDbVertex
100
AcDb2dVertex
 10
457.9358177267075
 20
665.3711918477259
 30
0.0
  0
VERTEX
  5
254
330
107
100
AcDbEntity
  8
A-001_Pan
100
AcDbVertex
100
AcDb2dVertex
 10
456.8989694126626
 20
665.1629593083574
 30
0.0
  0
VERTEX
  5
255
330
107
100
AcDbEntity
  8
A-001_Pan
100
AcDbVertex
100
AcDb2dVertex
 10
456.2771438812697
 20
664.8527656064604
 30
0.0
  0
VERTEX
  5
256
330
107
100
AcDbEntity
  8
A-001_Pan
100
AcDbVertex
100
AcDb2dVertex
 10
455.7572795124054
 20
664.5396998178512
 30
0.0
  0
VERTEX
  5
257
330
107
100
AcDbEntity
  8
A-001_Pan
100
AcDbVertex
100
AcDb2dVertex
 10
455.2359811844277
 20
664.12538984627
 30
0.0
  0
VERTEX
  5
258
330
107
100
AcDbEntity
  8
A-001_Pan
100
AcDbVertex
100
AcDb2dVertex
 10
454.7175591116481
 20
663.7110798746889
 30
0.0
  0
VERTEX
  5
259
330
107
100
AcDbEntity
  8
A-001_Pan
100
AcDbVertex
100
AcDb2dVertex
 10
454.4073612412654
 20
663.0878203841827
 30
0.0
  0
VERTEX
  5
25A
330
107
100
AcDbEntity
  8
A-001_Pan
100
AcDbVertex
100
AcDb2dVertex
 10
454.0942954526562
 20
662.5693941429174
 30
0.0
  0
VERTEX
  5
25B
330
107
100
AcDbEntity
  8
A-001_Pan
100
AcDbVertex
100
AcDb2dVertex
 10
453.9923342901276
 20
661.9461346524112
 30
0.0
  0
VERTEX
  5
25C
330
107
100
AcDbEntity
  8
A-001_Pan
100
AcDbVertex
100
AcDb2dVertex
 10
453.8889391684858
 20
661.2187547237351
 30
0.0
  0
VERTEX
  5
25D
330
107
100
AcDbEntity
  8
A-001_Pan
100
AcDbVertex
100
AcDb2dVertex
 10
453.8889391684858
 20
654.7836672842436
 30
0.0
  0
VERTEX
  5
25E
330
107
100
AcDbEntity
  8
A-001_Pan
100
AcDbVertex
100
AcDb2dVertex
 10
453.8889391684858
 20
646.2705688338653
 30
0.0
  0
VERTEX
  5
25F
330
107
100
AcDbEntity
  8
A-001_Pan
100
AcDbVertex
100
AcDb2dVertex
 10
453.9923342901276
 20
646.1657314161386
 30
0.0
  0
VERTEX
  5
260
330
107
100
AcDbEntity
  8
A-001_Pan
100
AcDbVertex
100
AcDb2dVertex
 10
453.9923342901276
 20
645.9603709634825
 30
0.0
  0
VERTEX
  5
261
330
107
100
AcDbEntity
  8
A-001_Pan
100
AcDbVertex
100
AcDb2dVertex
 10
454.0942954526562
 20
645.7514214445575
 30
0.0
  0
VERTEX
  5
262
330
107
100
AcDbEntity
  8
A-001_Pan
100
AcDbVertex
100
AcDb2dVertex
 10
454.1991328703828
 20
645.6473051748733
 30
0.0
  0
VERTEX
  5
263
330
107
100
AcDbEntity
  8
A-001_Pan
100
AcDbVertex
100
AcDb2dVertex
 10
454.4073612412654
 20
645.4412277426605
 30
0.0
  0
VERTEX
  5
264
330
107
100
AcDbEntity
  8
A-001_Pan
100
AcDbVertex
100
AcDb2dVertex
 10
454.5121986589919
 20
645.4412277426605
 30
0.0
  0
VERTEX
  5
265
330
107
100
AcDbEntity
  8
A-001_Pan
100
AcDbVertex
100
AcDb2dVertex
 10
454.7175591116481
 20
645.3371114729764
 30
0.0
  0
VERTEX
  5
266
330
107
100
AcDbEntity
  8
A-001_Pan
100
AcDbVertex
100
AcDb2dVertex
 10
454.9257874825308
 20
645.3371114729764
 30
0.0
  0
VERTEX
  5
267
330
107
100
AcDbEntity
  8
A-001_Pan
100
AcDbVertex
100
AcDb2dVertex
 10
458.4556820955718
 20
645.3371114729764
 30
0.0
  0
VERTEX
  5
268
330
107
100
AcDbEntity
  8
A-001_Pan
100
AcDbVertex
100
AcDb2dVertex
 10
460.1157940686089
 20
645.3371114729764
 30
0.0
  0
VERTEX
  5
269
330
107
100
AcDbEntity
  8
A-001_Pan
100
AcDbVertex
100
AcDb2dVertex
 10
460.6342203098742
 20
645.2329952032921
 30
0.0
  0
VERTEX
  5
26A
330
107
100
AcDbEntity
  8
A-001_Pan
100
AcDbVertex
100
AcDb2dVertex
 10
461.1526465511396
 20
645.1288789336079
 30
0.0
  0
VERTEX
  5
26B
330
107
100
AcDbEntity
  8
A-001_Pan
100
AcDbVertex
100
AcDb2dVertex
 10
461.6725067515182
 20
644.8186852317109
 30
0.0
  0
VERTEX
  5
26C
330
107
100
AcDbEntity
  8
A-001_Pan
100
AcDbVertex
100
AcDb2dVertex
 10
462.0889718302549
 20
644.5056194431018
 30
0.0
  0
VERTEX
  5
26D
330
107
100
AcDbEntity
  8
A-001_Pan
100
AcDbVertex
100
AcDb2dVertex
 10
462.399165532152
 20
644.0913094715206
 30
0.0
  0
VERTEX
  5
26E
330
107
100
AcDbEntity
  8
A-001_Pan
100
AcDbVertex
100
AcDb2dVertex
 10
462.7122313207612
 20
643.5721662506986
 30
0.0
  0
VERTEX
  5
26F
330
107
100
AcDbEntity
  8
A-001_Pan
100
AcDbVertex
100
AcDb2dVertex
 10
462.9175917734174
 20
643.0537400094333
 30
0.0
  0
VERTEX
  5
270
330
107
100
AcDbEntity
  8
A-001_Pan
100
AcDbVertex
100
AcDb2dVertex
 10
462.9175917734174
 20
642.4304805189271
 30
0.0
  0
VERTEX
  5
271
330
107
100
AcDbEntity
  8
A-001_Pan
100
AcDbVertex
100
AcDb2dVertex
 10
462.9175917734174
 20
641.7038217382932
 30
0.0
  0
VERTEX
  5
272
330
107
100
AcDbEntity
  8
A-001_Pan
100
AcDbVertex
100
AcDb2dVertex
 10
462.9175917734174
 20
641.1846785174714
 30
0.0
  0
VERTEX
  5
273
330
107
100
AcDbEntity
  8
A-001_Pan
100
AcDbVertex
100
AcDb2dVertex
 10
462.8156306108888
 20
640.666252276206
 30
0.0
  0
VERTEX
  5
274
330
107
100
AcDbEntity
  8
A-001_Pan
100
AcDbVertex
100
AcDb2dVertex
 10
462.7122313207612
 20
640.2519423046249
 30
0.0
  0
VERTEX
  5
275
330
107
100
AcDbEntity
  8
A-001_Pan
100
AcDbVertex
100
AcDb2dVertex
 10
462.5025648222796
 20
639.7306439766472
 30
0.0
  0
VERTEX
  5
276
330
107
100
AcDbEntity
  8
A-001_Pan
100
AcDbVertex
100
AcDb2dVertex
 10
462.2943322829111
 20
639.3156170255094
 30
0.0
  0
VERTEX
  5
277
330
107
100
AcDbEntity
  8
A-001_Pan
100
AcDbVertex
100
AcDb2dVertex
 10
462.0889718302549
 20
638.9013070539284
 30
0.0
  0
VERTEX
  5
278
330
107
100
AcDbEntity
  8
A-001_Pan
100
AcDbVertex
100
AcDb2dVertex
 10
461.7759060416457
 20
638.4869970823471
 30
0.0
  0
VERTEX
  5
279
330
107
100
AcDbEntity
  8
A-001_Pan
100
AcDbVertex
100
AcDb2dVertex
 10
461.4657123397489
 20
638.1739312937379
 30
0.0
  0
VERTEX
  5
27A
330
107
100
AcDbEntity
  8
A-001_Pan
100
AcDbVertex
100
AcDb2dVertex
 10
461.2574798003805
 20
637.9656987543694
 30
0.0
  0
VERTEX
  5
27B
330
107
100
AcDbEntity
  8
A-001_Pan
100
AcDbVertex
100
AcDb2dVertex
 10
460.8424528492426
 20
637.4472725131042
 30
0.0
  0
VERTEX
  5
27C
330
107
100
AcDbEntity
  8
A-001_Pan
100
AcDbVertex
100
AcDb2dVertex
 10
460.428859857218
 20
637.0322455619664
 30
0.0
  0
VERTEX
  5
27D
330
107
100
AcDbEntity
  8
A-001_Pan
100
AcDbVertex
100
AcDb2dVertex
 10
460.0123947784814
 20
636.6179355903852
 30
0.0
  0
VERTEX
  5
27E
330
107
100
AcDbEntity
  8
A-001_Pan
100
AcDbVertex
100
AcDb2dVertex
 10
459.5973678273434
 20
636.0995093491198
 30
0.0
  0
VERTEX
  5
27F
330
107
100
AcDbEntity
  8
A-001_Pan
100
AcDbVertex
100
AcDb2dVertex
 10
459.1823408762057
 20
635.6823272908265
 30
0.0
  0
VERTEX
  5
280
330
107
100
AcDbEntity
  8
A-001_Pan
100
AcDbVertex
100
AcDb2dVertex
 10
458.8692750875966
 20
635.1639010495611
 30
0.0
  0
VERTEX
  5
281
330
107
100
AcDbEntity
  8
A-001_Pan
100
AcDbVertex
100
AcDb2dVertex
 10
458.4556820955718
 20
634.6447578287392
 30
0.0
  0
VERTEX
  5
282
330
107
100
AcDbEntity
  8
A-001_Pan
100
AcDbVertex
100
AcDb2dVertex
 10
458.1426163069627
 20
634.1263315874738
 30
0.0
  0
VERTEX
  5
283
330
107
100
AcDbEntity
  8
A-001_Pan
100
AcDbVertex
100
AcDb2dVertex
 10
457.8324226050658
 20
633.6071841981659
 30
0.0
  0
VERTEX
  5
284
330
107
100
AcDbEntity
  8
A-001_Pan
100
AcDbVertex
100
AcDb2dVertex
 10
457.5222289031688
 20
633.0887579569006
 30
0.0
  0
VERTEX
  5
285
330
107
100
AcDbEntity
  8
A-001_Pan
100
AcDbVertex
100
AcDb2dVertex
 10
457.2091631145595
 20
632.5703317156353
 30
0.0
  0
VERTEX
  5
286
330
107
100
AcDbEntity
  8
A-001_Pan
100
AcDbVertex
100
AcDb2dVertex
 10
456.8989694126626
 20
632.0490333876577
 30
0.0
  0
VERTEX
  5
287
330
107
100
AcDbEntity
  8
A-001_Pan
100
AcDbVertex
100
AcDb2dVertex
 10
456.5858994555677
 20
631.5298901668357
 30
0.0
  0
VERTEX
  5
288
330
107
100
AcDbEntity
  8
A-001_Pan
100
AcDbVertex
100
AcDb2dVertex
 10
456.2771438812697
 20
630.9073476558861
 30
0.0
  0
VERTEX
  5
289
330
107
100
AcDbEntity
  8
A-001_Pan
100
AcDbVertex
100
AcDb2dVertex
 10
456.0674732143024
 20
630.3882044350642
 30
0.0
  0
VERTEX
  5
28A
330
107
100
AcDbEntity
  8
A-001_Pan
100
AcDbVertex
100
AcDb2dVertex
 10
455.8592448434198
 20
629.8697781937987
 30
0.0
  0
VERTEX
  5
28B
330
107
100
AcDbEntity
  8
A-001_Pan
100
AcDbVertex
100
AcDb2dVertex
 10
455.5490511415227
 20
629.2465187032926
 30
0.0
  0
VERTEX
  5
28C
330
107
100
AcDbEntity
  8
A-001_Pan
100
AcDbVertex
100
AcDb2dVertex
 10
455.3408186021544
 20
628.6239761923431
 30
0.0
  0
VERTEX
  5
28D
330
107
100
AcDbEntity
  8
A-001_Pan
100
AcDbVertex
100
AcDb2dVertex
 10
455.1354581494982
 20
628.104832971521
 30
0.0
  0
VERTEX
  5
28E
330
107
100
AcDbEntity
  8
A-001_Pan
100
AcDbVertex
100
AcDb2dVertex
 10
455.0306249002574
 20
627.4822904605716
 30
0.0
  0
VERTEX
  5
28F
330
107
100
AcDbEntity
  8
A-001_Pan
100
AcDbVertex
100
AcDb2dVertex
 10
454.8223923608889
 20
626.9631472397495
 30
0.0
  0
VERTEX
  5
290
330
107
100
AcDbEntity
  8
A-001_Pan
100
AcDbVertex
100
AcDb2dVertex
 10
454.7175591116481
 20
626.3406047288
 30
0.0
  0
VERTEX
  5
291
330
107
100
AcDbEntity
  8
A-001_Pan
100
AcDbVertex
100
AcDb2dVertex
 10
454.5121986589919
 20
625.7173452382938
 30
0.0
  0
VERTEX
  5
292
330
107
100
AcDbEntity
  8
A-001_Pan
100
AcDbVertex
100
AcDb2dVertex
 10
454.4073612412654
 20
625.0940857477876
 30
0.0
  0
VERTEX
  5
293
330
107
100
AcDbEntity
  8
A-001_Pan
100
AcDbVertex
100
AcDb2dVertex
 10
454.3039661196236
 20
624.4715432368381
 30
0.0
  0
VERTEX
  5
294
330
107
100
AcDbEntity
  8
A-001_Pan
100
AcDbVertex
100
AcDb2dVertex
 10
454.1991328703828
 20
623.9524000160161
 30
0.0
  0
VERTEX
  5
295
330
107
100
AcDbEntity
  8
A-001_Pan
100
AcDbVertex
100
AcDb2dVertex
 10
454.0942954526562
 20
623.3298575050666
 30
0.0
  0
VERTEX
  5
296
330
107
100
AcDbEntity
  8
A-001_Pan
100
AcDbVertex
100
AcDb2dVertex
 10
453.9923342901276
 20
622.7065980145604
 30
0.0
  0
VERTEX
  5
297
330
107
100
AcDbEntity
  8
A-001_Pan
100
AcDbVertex
100
AcDb2dVertex
 10
453.9923342901276
 20
622.0840555036109
 30
0.0
  0
VERTEX
  5
298
330
107
100
AcDbEntity
  8
A-001_Pan
100
AcDbVertex
100
AcDb2dVertex
 10
453.9923342901276
 20
621.4607960131046
 30
0.0
  0
VERTEX
  5
299
330
107
100
AcDbEntity
  8
A-001_Pan
100
AcDbVertex
100
AcDb2dVertex
 10
453.8889391684858
 20
620.8404044408249
 30
0.0
  0
VERTEX
  5
29A
330
107
100
AcDbEntity
  8
A-001_Pan
100
AcDbVertex
100
AcDb2dVertex
 10
453.8889391684858
 20
620.2171449503188
 30
0.0
  0
VERTEX
  5
29B
330
107
100
AcDbEntity
  8
A-001_Pan
100
AcDbVertex
100
AcDb2dVertex
 10
453.8889391684858
 20
417.2813629206998
 30
0.0
  0
VERTEX
  5
29C
330
107
100
AcDbEntity
  8
A-001_Pan
100
AcDbVertex
100
AcDb2dVertex
 10
453.8889391684858
 20
213.7230383801313
 30
0.0
  0
VERTEX
  5
29D
330
107
100
AcDbEntity
  8
A-001_Pan
100
AcDbVertex
100
AcDb2dVertex
 10
453.9923342901276
 20
212.6833138108883
 30
0.0
  0
VERTEX
  5
29E
330
107
100
AcDbEntity
  8
A-001_Pan
100
AcDbVertex
100
AcDb2dVertex
 10
454.0942954526562
 20
211.6464613283576
 30
0.0
  0
VERTEX
  5
29F
330
107
100
AcDbEntity
  8
A-001_Pan
100
AcDbVertex
100
AcDb2dVertex
 10
454.3039661196236
 20
210.6081748867137
 30
0.0
  0
VERTEX
  5
2A0
330
107
100
AcDbEntity
  8
A-001_Pan
100
AcDbVertex
100
AcDb2dVertex
 10
454.5121986589919
 20
209.571322404183
 30
0.0
  0
VERTEX
  5
2A1
330
107
100
AcDbEntity
  8
A-001_Pan
100
AcDbVertex
100
AcDb2dVertex
 10
454.8223923608889
 20
208.530159707341
 30
0.0
  0
VERTEX
  5
2A2
330
107
100
AcDbEntity
  8
A-001_Pan
100
AcDbVertex
100
AcDb2dVertex
 10
455.2359811844277
 20
207.4933072248102
 30
0.0
  0
VERTEX
  5
2A3
330
107
100
AcDbEntity
  8
A-001_Pan
100
AcDbVertex
100
AcDb2dVertex
 10
455.7572795124054
 20
206.5598540324071
 30
0.0
  0
VERTEX
  5
2A4
330
107
100
AcDbEntity
  8
A-001_Pan
100
AcDbVertex
100
AcDb2dVertex
 10
456.2771438812697
 20
205.6235287532917
 30
0.0
  0
VERTEX
  5
2A5
330
107
100
AcDbEntity
  8
A-001_Pan
100
AcDbVertex
100
AcDb2dVertex
 10
456.8989694126626
 20
204.7963427692427
 30
0.0
  0
VERTEX
  5
2A6
330
107
100
AcDbEntity
  8
A-001_Pan
100
AcDbVertex
100
AcDb2dVertex
 10
457.6241900656973
 20
203.964850739368
 30
0.0
  0
VERTEX
  5
2A7
330
107
100
AcDbEntity
  8
A-001_Pan
100
AcDbVertex
100
AcDb2dVertex
 10
458.3508488463312
 20
203.1347968370925
 30
0.0
  0
VERTEX
  5
2A8
330
107
100
AcDbEntity
  8
A-001_Pan
100
AcDbVertex
100
AcDb2dVertex
 10
459.0789415860784
 20
202.4067040973455
 30
0.0
  0
VERTEX
  5
2A9
330
107
100
AcDbEntity
  8
A-001_Pan
100
AcDbVertex
100
AcDb2dVertex
 10
459.9075615292405
 20
201.7848785659526
 30
0.0
  0
VERTEX
  5
2AA
330
107
100
AcDbEntity
  8
A-001_Pan
100
AcDbVertex
100
AcDb2dVertex
 10
460.8424528492426
 20
201.1616190754464
 30
0.0
  0
VERTEX
  5
2AB
330
107
100
AcDbEntity
  8
A-001_Pan
100
AcDbVertex
100
AcDb2dVertex
 10
461.6725067515182
 20
200.5397935440534
 30
0.0
  0
VERTEX
  5
2AC
330
107
100
AcDbEntity
  8
A-001_Pan
100
AcDbVertex
100
AcDb2dVertex
 10
462.7122313207612
 20
200.1233284653167
 30
0.0
  0
VERTEX
  5
2AD
330
107
100
AcDbEntity
  8
A-001_Pan
100
AcDbVertex
100
AcDb2dVertex
 10
468.4206641481046
 20
197.5283293407634
 30
0.0
  0
VERTEX
  5
2AE
330
107
100
AcDbEntity
  8
A-001_Pan
100
AcDbVertex
100
AcDb2dVertex
 10
469.2521561779793
 20
197.1147363487388
 30
0.0
  0
VERTEX
  5
2AF
330
107
100
AcDbEntity
  8
A-001_Pan
100
AcDbVertex
100
AcDb2dVertex
 10
469.9759387034149
 20
196.6982712700021
 30
0.0
  0
VERTEX
  5
2B0
330
107
100
AcDbEntity
  8
A-001_Pan
100
AcDbVertex
100
AcDb2dVertex
 10
470.8088688608886
 20
196.2818061912653
 30
0.0
  0
VERTEX
  5
2B1
330
107
100
AcDbEntity
  8
A-001_Pan
100
AcDbVertex
100
AcDb2dVertex
 10
471.5355276415222
 20
195.7633799499999
 30
0.0
  0
VERTEX
  5
2B2
330
107
100
AcDbEntity
  8
A-001_Pan
100
AcDbVertex
100
AcDb2dVertex
 10
472.2593143354438
 20
195.2449537087345
 30
0.0
  0
VERTEX
  5
2B3
330
107
100
AcDbEntity
  8
A-001_Pan
100
AcDbVertex
100
AcDb2dVertex
 10
472.9874070751908
 20
194.7250935083559
 30
0.0
  0
VERTEX
  5
2B4
330
107
100
AcDbEntity
  8
A-001_Pan
100
AcDbVertex
100
AcDb2dVertex
 10
473.7140658558245
 20
194.2066672670906
 30
0.0
  0
VERTEX
  5
2B5
330
107
100
AcDbEntity
  8
A-001_Pan
100
AcDbVertex
100
AcDb2dVertex
 10
474.3373253463306
 20
193.6896791534242
 30
0.0
  0
VERTEX
  5
2B6
330
107
100
AcDbEntity
  8
A-001_Pan
100
AcDbVertex
100
AcDb2dVertex
 10
475.0639841269644
 20
193.064981535319
 30
0.0
  0
VERTEX
  5
2B7
330
107
100
AcDbEntity
  8
A-001_Pan
100
AcDbVertex
100
AcDb2dVertex
 10
475.6872436174705
 20
192.4431560039261
 30
0.0
  0
VERTEX
  5
2B8
330
107
100
AcDbEntity
  8
A-001_Pan
100
AcDbVertex
100
AcDb2dVertex
 10
476.3105031079768
 20
191.81989651342
 30
0.0
  0
VERTEX
  5
2B9
330
107
100
AcDbEntity
  8
A-001_Pan
100
AcDbVertex
100
AcDb2dVertex
 10
476.8289293492422
 20
191.0918037736729
 30
0.0
  0
VERTEX
  5
2BA
330
107
100
AcDbEntity
  8
A-001_Pan
100
AcDbVertex
100
AcDb2dVertex
 10
477.4521888397483
 20
190.4685442831667
 30
0.0
  0
VERTEX
  5
2BB
330
107
100
AcDbEntity
  8
A-001_Pan
100
AcDbVertex
100
AcDb2dVertex
 10
477.9706150810137
 20
189.7433194616462
 30
0.0
  0
VERTEX
  5
2BC
330
107
100
AcDbEntity
  8
A-001_Pan
100
AcDbVertex
100
AcDb2dVertex
 10
478.489041322279
 20
189.0166606810124
 30
0.0
  0
VERTEX
  5
2BD
330
107
100
AcDbEntity
  8
A-001_Pan
100
AcDbVertex
100
AcDb2dVertex
 10
479.0089056911435
 20
188.2914400279777
 30
0.0
  0
VERTEX
  5
2BE
330
107
100
AcDbEntity
  8
A-001_Pan
100
AcDbVertex
100
AcDb2dVertex
 10
479.4224945146821
 20
187.5633472882307
 30
0.0
  0
VERTEX
  5
2BF
330
107
100
AcDbEntity
  8
A-001_Pan
100
AcDbVertex
100
AcDb2dVertex
 10
479.9409207559476
 20
186.7347273450684
 30
0.0
  0
VERTEX
  5
2C0
330
107
100
AcDbEntity
  8
A-001_Pan
100
AcDbVertex
100
AcDb2dVertex
 10
480.3588239622833
 20
186.0066304368356
 30
0.0
  0
VERTEX
  5
2C1
330
107
100
AcDbEntity
  8
A-001_Pan
100
AcDbVertex
100
AcDb2dVertex
 10
480.6690176641803
 20
185.17657653456
 30
0.0
  0
VERTEX
  5
2C2
330
107
100
AcDbEntity
  8
A-001_Pan
100
AcDbVertex
100
AcDb2dVertex
 10
481.0826064877192
 20
184.3465184637987
 30
0.0
  0
VERTEX
  5
2C3
330
107
100
AcDbEntity
  8
A-001_Pan
100
AcDbVertex
100
AcDb2dVertex
 10
481.3956722763284
 20
183.5150264339241
 30
0.0
  0
VERTEX
  5
2C4
330
107
100
AcDbEntity
  8
A-001_Pan
100
AcDbVertex
100
AcDb2dVertex
 10
481.7058659782254
 20
182.6835344040495
 30
0.0
  0
VERTEX
  5
2C5
330
107
100
AcDbEntity
  8
A-001_Pan
100
AcDbVertex
100
AcDb2dVertex
 10
481.9140985175937
 20
181.8549144608873
 30
0.0
  0
VERTEX
  5
2C6
330
107
100
AcDbEntity
  8
A-001_Pan
100
AcDbVertex
100
AcDb2dVertex
 10
482.1223310569621
 20
181.0234224310127
 30
0.0
  0
VERTEX
  5
2C7
330
107
100
AcDbEntity
  8
A-001_Pan
100
AcDbVertex
100
AcDb2dVertex
 10
482.329129637217
 20
180.1933685287371
 30
0.0
  0
VERTEX
  5
2C8
330
107
100
AcDbEntity
  8
A-001_Pan
100
AcDbVertex
100
AcDb2dVertex
 10
482.5373580080999
 20
179.258477208735
 30
0.0
  0
VERTEX
  5
2C9
330
107
100
AcDbEntity
  8
A-001_Pan
100
AcDbVertex
100
AcDb2dVertex
 10
482.6421954258264
 20
178.4298572655727
 30
0.0
  0
VERTEX
  5
2CA
330
107
100
AcDbEntity
  8
A-001_Pan
100
AcDbVertex
100
AcDb2dVertex
 10
482.7470286750672
 20
177.4949659455706
 30
0.0
  0
VERTEX
  5
2CB
330
107
100
AcDbEntity
  8
A-001_Pan
100
AcDbVertex
100
AcDb2dVertex
 10
482.8475558784825
 20
176.6649120432949
 30
0.0
  0
VERTEX
  5
2CC
330
107
100
AcDbEntity
  8
A-001_Pan
100
AcDbVertex
100
AcDb2dVertex
 10
482.9523891277236
 20
175.7300207232928
 30
0.0
  0
VERTEX
  5
2CD
330
107
100
AcDbEntity
  8
A-001_Pan
100
AcDbVertex
100
AcDb2dVertex
 10
482.9523891277236
 20
174.8999668210173
 30
0.0
  0
VERTEX
  5
2CE
330
107
100
AcDbEntity
  8
A-001_Pan
100
AcDbVertex
100
AcDb2dVertex
 10
482.9523891277236
 20
172.2001302787374
 30
0.0
  0
VERTEX
  5
2CF
330
107
100
AcDbEntity
  8
A-001_Pan
100
AcDbVertex
100
AcDb2dVertex
 10
482.8475558784825
 20
170.2283864762045
 30
0.0
  0
VERTEX
  5
2D0
330
107
100
AcDbEntity
  8
A-001_Pan
100
AcDbVertex
100
AcDb2dVertex
 10
482.5373580080999
 20
168.3600419637992
 30
0.0
  0
VERTEX
  5
2D1
330
107
100
AcDbEntity
  8
A-001_Pan
100
AcDbVertex
100
AcDb2dVertex
 10
482.1223310569621
 20
166.3868642021531
 30
0.0
  0
VERTEX
  5
2D2
330
107
100
AcDbEntity
  8
A-001_Pan
100
AcDbVertex
100
AcDb2dVertex
 10
481.3956722763284
 20
164.5185196897478
 30
0.0
  0
VERTEX
  5
2D3
330
107
100
AcDbEntity
  8
A-001_Pan
100
AcDbVertex
100
AcDb2dVertex
 10
480.5641802464537
 20
162.7535744674701
 30
0.0
  0
VERTEX
  5
2D4
330
107
100
AcDbEntity
  8
A-001_Pan
100
AcDbVertex
100
AcDb2dVertex
 10
479.527327763923
 20
161.0934624944332
 30
0.0
  0
VERTEX
  5
2D5
330
107
100
AcDbEntity
  8
A-001_Pan
100
AcDbVertex
100
AcDb2dVertex
 10
478.3856420321515
 20
159.5367456430381
 30
0.0
  0
VERTEX
  5
2D6
330
107
100
AcDbEntity
  8
A-001_Pan
100
AcDbVertex
100
AcDb2dVertex
 10
477.0357237610114
 20
158.0834322502564
 30
0.0
  0
VERTEX
  5
2D7
330
107
100
AcDbEntity
  8
A-001_Pan
100
AcDbVertex
100
AcDb2dVertex
 10
475.5824103682299
 20
156.7349479382297
 30
0.0
  0
VERTEX
  5
2D8
330
107
100
AcDbEntity
  8
A-001_Pan
100
AcDbVertex
100
AcDb2dVertex
 10
474.0242595577215
 20
155.5903901197459
 30
0.0
  0
VERTEX
  5
2D9
330
107
100
AcDbEntity
  8
A-001_Pan
100
AcDbVertex
100
AcDb2dVertex
 10
472.3641475846845
 20
154.5535376372152
 30
0.0
  0
VERTEX
  5
2DA
330
107
100
AcDbEntity
  8
A-001_Pan
100
AcDbVertex
100
AcDb2dVertex
 10
470.5992023624069
 20
153.7234837349396
 30
0.0
  0
VERTEX
  5
2DB
330
107
100
AcDbEntity
  8
A-001_Pan
100
AcDbVertex
100
AcDb2dVertex
 10
468.7308578500015
 20
153.1016582035467
 30
0.0
  0
VERTEX
  5
2DC
330
107
100
AcDbEntity
  8
A-001_Pan
100
AcDbVertex
100
AcDb2dVertex
 10
466.8639472967095
 20
152.5817980031681
 30
0.0
  0
VERTEX
  5
2DD
330
107
100
AcDbEntity
  8
A-001_Pan
100
AcDbVertex
100
AcDb2dVertex
 10
464.8907695350634
 20
152.2701661736722
 30
0.0
  0
VERTEX
  5
2DE
330
107
100
AcDbEntity
  8
A-001_Pan
100
AcDbVertex
100
AcDb2dVertex
 10
462.9175917734174
 20
152.1653329244314
 30
0.0
  0
VERTEX
  5
2DF
330
107
100
AcDbEntity
  8
A-001_Pan
100
AcDbVertex
100
AcDb2dVertex
 10
322.8865572154402
 20
152.1653329244314
 30
0.0
  0
VERTEX
  5
2E0
330
107
100
AcDbEntity
  8
A-001_Pan
100
AcDbVertex
100
AcDb2dVertex
 10
182.8555268259489
 20
152.1653329244314
 30
0.0
  0
VERTEX
  5
2E1
330
107
100
AcDbEntity
  8
A-001_Pan
100
AcDbVertex
100
AcDb2dVertex
 10
180.990054400256
 20
152.2701661736722
 30
0.0
  0
VERTEX
  5
2E2
330
107
100
AcDbEntity
  8
A-001_Pan
100
AcDbVertex
100
AcDb2dVertex
 10
179.0168766386098
 20
152.5817980031681
 30
0.0
  0
VERTEX
  5
2E3
330
107
100
AcDbEntity
  8
A-001_Pan
100
AcDbVertex
100
AcDb2dVertex
 10
177.1470939986054
 20
153.1016582035467
 30
0.0
  0
VERTEX
  5
2E4
330
107
100
AcDbEntity
  8
A-001_Pan
100
AcDbVertex
100
AcDb2dVertex
 10
175.2787536546859
 20
153.7234837349396
 30
0.0
  0
VERTEX
  5
2E5
330
107
100
AcDbEntity
  8
A-001_Pan
100
AcDbVertex
100
AcDb2dVertex
 10
173.5138042639224
 20
154.5535376372152
 30
0.0
  0
VERTEX
  5
2E6
330
107
100
AcDbEntity
  8
A-001_Pan
100
AcDbVertex
100
AcDb2dVertex
 10
171.7488590416448
 20
155.5903901197459
 30
0.0
  0
VERTEX
  5
2E7
330
107
100
AcDbEntity
  8
A-001_Pan
100
AcDbVertex
100
AcDb2dVertex
 10
170.1935803178486
 20
156.7349479382297
 30
0.0
  0
VERTEX
  5
2E8
330
107
100
AcDbEntity
  8
A-001_Pan
100
AcDbVertex
100
AcDb2dVertex
 10
168.7388287974679
 20
158.0834322502564
 30
0.0
  0
VERTEX
  5
2E9
330
107
100
AcDbEntity
  8
A-001_Pan
100
AcDbVertex
100
AcDb2dVertex
 10
167.390348653927
 20
159.5367456430381
 30
0.0
  0
VERTEX
  5
2EA
330
107
100
AcDbEntity
  8
A-001_Pan
100
AcDbVertex
100
AcDb2dVertex
 10
166.2486587536696
 20
161.0934624944332
 30
0.0
  0
VERTEX
  5
2EB
330
107
100
AcDbEntity
  8
A-001_Pan
100
AcDbVertex
100
AcDb2dVertex
 10
165.2089383529126
 20
162.7535744674701
 30
0.0
  0
VERTEX
  5
2EC
330
107
100
AcDbEntity
  8
A-001_Pan
100
AcDbVertex
100
AcDb2dVertex
 10
164.3803184097501
 20
164.5185196897478
 30
0.0
  0
VERTEX
  5
2ED
330
107
100
AcDbEntity
  8
A-001_Pan
100
AcDbVertex
100
AcDb2dVertex
 10
163.7570547507581
 20
166.3868642021531
 30
0.0
  0
VERTEX
  5
2EE
330
107
100
AcDbEntity
  8
A-001_Pan
100
AcDbVertex
100
AcDb2dVertex
 10
163.238628509493
 20
168.3600419637992
 30
0.0
  0
VERTEX
  5
2EF
330
107
100
AcDbEntity
  8
A-001_Pan
100
AcDbVertex
100
AcDb2dVertex
 10
163.0304001386102
 20
170.2283864762045
 30
0.0
  0
VERTEX
  5
2F0
330
107
100
AcDbEntity
  8
A-001_Pan
100
AcDbVertex
100
AcDb2dVertex
 10
162.9255627208836
 20
172.2001302787374
 30
0.0
  0
SEQEND
  5
2F1
330
107
100
AcDbEntity
  8
A-001_Pan
  0
SPLINE
  5
106
330
A
100
AcDbEntity
  8
A-001_Pan
100
AcDbSpline
210
0.0
220
0.0
230
1.0
 70
     9
 71
     3
 72
   389
 73
   385
 74
     0
 42
0.0000000001
 43
0.0000000001
 40
0.0
 40
0.0
 40
0.0
 40
0.0
 40
1.0
 40
1.0
 40
1.0
 40
2.0
 40
2.0
 40
2.0
 40
3.0
 40
3.0
 40
3.0
 40
4.0
 40
4.0
 40
4.0
 40
5.0
 40
5.0
 40
5.0
 40
6.0
 40
6.0
 40
6.0
 40
7.0
 40
7.0
 40
7.0
 40
8.0
 40
8.0
 40
8.0
 40
9.0
 40
9.0
 40
9.0
 40
10.0
 40
10.0
 40
10.0
 40
11.0
 40
11.0
 40
11.0
 40
12.0
 40
12.0
 40
12.0
 40
13.0
 40
13.0
 40
13.0
 40
14.0
 40
14.0
 40
14.0
 40
15.0
 40
15.0
 40
15.0
 40
16.0
 40
16.0
 40
16.0
 40
17.0
 40
17.0
 40
17.0
 40
18.0
 40
18.0
 40
18.0
 40
19.0
 40
19.0
 40
19.0
 40
20.0
 40
20.0
 40
20.0
 40
21.0
 40
21.0
 40
21.0
 40
22.0
 40
22.0
 40
22.0
 40
23.0
 40
23.0
 40
23.0
 40
24.0
 40
24.0
 40
24.0
 40
25.0
 40
25.0
 40
25.0
 40
26.0
 40
26.0
 40
26.0
 40
27.0
 40
27.0
 40
27.0
 40
28.0
 40
28.0
 40
28.0
 40
29.0
 40
29.0
 40
29.0
 40
30.0
 40
30.0
 40
30.0
 40
31.0
 40
31.0
 40
31.0
 40
32.0
 40
32.0
 40
32.0
 40
33.0
 40
33.0
 40
33.0
 40
34.0
 40
34.0
 40
34.0
 40
35.0
 40
35.0
 40
35.0
 40
36.0
 40
36.0
 40
36.0
 40
37.0
 40
37.0
 40
37.0
 40
38.0
 40
38.0
 40
38.0
 40
39.0
 40
39.0
 40
39.0
 40
40.0
 40
40.0
 40
40.0
 40
41.0
 40
41.0
 40
41.0
 40
42.0
 40
42.0
 40
42.0
 40
43.0
 40
43.0
 40
43.0
 40
44.0
 40
44.0
 40
44.0
 40
45.0
 40
45.0
 40
45.0
 40
46.0
 40
46.0
 40
46.0
 40
47.0
 40
47.0
 40
47.0
 40
48.0
 40
48.0
 40
48.0
 40
49.0
 40
49.0
 40
49.0
 40
50.0
 40
50.0
 40
50.0
 40
51.0
 40
51.0
 40
51.0
 40
52.0
 40
52.0
 40
52.0
 40
53.0
 40
53.0
 40
53.0
 40
54.0
 40
54.0
 40
54.0
 40
55.0
 40
55.0
 40
55.0
 40
56.0
 40
56.0
 40
56.0
 40
57.0
 40
57.0
 40
57.0
 40
58.0
 40
58.0
 40
58.0
 40
59.0
 40
59.0
 40
59.0
 40
60.0
 40
60.0
 40
60.0
 40
61.0
 40
61.0
 40
61.0
 40
62.0
 40
62.0
 40
62.0
 40
63.0
 40
63.0
 40
63.0
 40
64.0
 40
64.0
 40
64.0
 40
65.0
 40
65.0
 40
65.0
 40
66.0
 40
66.0
 40
66.0
 40
67.0
 40
67.0
 40
67.0
 40
68.0
 40
68.0
 40
68.0
 40
69.0
 40
69.0
 40
69.0
 40
70.0
 40
70.0
 40
70.0
 40
71.0
 40
71.0
 40
71.0
 40
72.0
 40
72.0
 40
72.0
 40
73.0
 40
73.0
 40
73.0
 40
74.0
 40
74.0
 40
74.0
 40
75.0
 40
75.0
 40
75.0
 40
76.0
 40
76.0
 40
76.0
 40
77.0
 40
77.0
 40
77.0
 40
78.0
 40
78.0
 40
78.0
 40
79.0
 40
79.0
 40
79.0
 40
80.0
 40
80.0
 40
80.0
 40
81.0
 40
81.0
 40
81.0
 40
82.0
 40
82.0
 40
82.0
 40
83.0
 40
83.0
 40
83.0
 40
84.0
 40
84.0
 40
84.0
 40
85.0
 40
85.0
 40
85.0
 40
86.0
 40
86.0
 40
86.0
 40
87.0
 40
87.0
 40
87.0
 40
88.0
 40
88.0
 40
88.0
 40
89.0
 40
89.0
 40
89.0
 40
90.0
 40
90.0
 40
90.0
 40
91.0
 40
91.0
 40
91.0
 40
92.0
 40
92.0
 40
92.0
 40
93.0
 40
93.0
 40
93.0
 40
94.0
 40
94.0
 40
94.0
 40
95.0
 40
95.0
 40
95.0
 40
96.0
 40
96.0
 40
96.0
 40
97.0
 40
97.0
 40
97.0
 40
98.0
 40
98.0
 40
98.0
 40
99.0
 40
99.0
 40
99.0
 40
100.0
 40
100.0
 40
100.0
 40
101.0
 40
101.0
 40
101.0
 40
102.0
 40
102.0
 40
102.0
 40
103.0
 40
103.0
 40
103.0
 40
104.0
 40
104.0
 40
104.0
 40
105.0
 40
105.0
 40
105.0
 40
106.0
 40
106.0
 40
106.0
 40
107.0
 40
107.0
 40
107.0
 40
108.0
 40
108.0
 40
108.0
 40
109.0
 40
109.0
 40
109.0
 40
110.0
 40
110.0
 40
110.0
 40
111.0
 40
111.0
 40
111.0
 40
112.0
 40
112.0
 40
112.0
 40
113.0
 40
113.0
 40
113.0
 40
114.0
 40
114.0
 40
114.0
 40
115.0
 40
115.0
 40
115.0
 40
116.0
 40
116.0
 40
116.0
 40
117.0
 40
117.0
 40
117.0
 40
118.0
 40
118.0
 40
118.0
 40
119.0
 40
119.0
 40
119.0
 40
120.0
 40
120.0
 40
120.0
 40
121.0
 40
121.0
 40
121.0
 40
122.0
 40
122.0
 40
122.0
 40
123.0
 40
123.0
 40
123.0
 40
124.0
 40
124.0
 40
124.0
 40
125.0
 40
125.0
 40
125.0
 40
126.0
 40
126.0
 40
126.0
 40
127.0
 40
127.0
 40
127.0
 40
128.0
 40
128.0
 40
128.0
 40
128.0
 10
162.9255642587363
 20
172.2001289471378
 30
0.0
 10
162.9255642587363
 20
172.2001289471378
 30
0.0
 10
162.9255642587363
 20
174.8999652867829
 30
0.0
 10
162.9255642587363
 20
174.8999652867829
 30
0.0
 10
162.9255642587363
 20
184.6524060221712
 30
0.0
 10
168.5535741603692
 20
193.4757009534371
 30
0.0
 10
177.3567639274033
 20
197.5283276292236
 30
0.0
 10
177.3567639274033
 20
197.5283276292236
 30
0.0
 10
177.3567639274033
 20
197.5283276292236
 30
0.0
 10
177.3567639274033
 20
197.5283276292236
 30
0.0
 10
177.3567639274033
 20
197.5283276292236
 30
0.0
 10
183.1685924734376
 20
200.1233298982336
 30
0.0
 10
183.1685924734376
 20
200.1233298982336
 30
0.0
 10
188.4878444958021
 20
202.5933929323769
 30
0.0
 10
191.8870533340682
 20
207.8954119568291
 30
0.0
 10
191.8870533340682
 20
213.7230374176162
 30
0.0
 10
191.8870533340682
 20
213.7230374176162
 30
0.0
 10
191.8870533340682
 20
240.7113482319521
 30
0.0
 10
191.8870533340682
 20
240.7113482319521
 30
0.0
 10
191.8870533340682
 20
240.7113482319521
 30
0.0
 10
191.8870533340682
 20
240.7113482319521
 30
0.0
 10
191.8870533340682
 20
240.7113482319521
 30
0.0
 10
191.8870533340682
 20
240.7113482319521
 30
0.0
 10
191.8870533340682
 20
272.2664034931344
 30
0.0
 10
191.8870533340682
 20
272.2664034931344
 30
0.0
 10
191.8870533340682
 20
275.0193749096769
 30
0.0
 10
189.656816187542
 20
277.2496120562028
 30
0.0
 10
186.9067169373185
 20
277.2496120562028
 30
0.0
 10
186.9067169373185
 20
277.2496120562028
 30
0.0
 10
185.2437326387498
 20
277.2496120562028
 30
0.0
 10
185.2437326387498
 20
277.2496120562028
 30
0.0
 10
185.2437326387498
 20
277.2496120562028
 30
0.0
 10
185.2437326387498
 20
277.2496120562028
 30
0.0
 10
185.2437326387498
 20
277.2496120562028
 30
0.0
 10
180.9914904038087
 20
277.2496120562028
 30
0.0
 10
176.9216307301095
 20
275.5693947597215
 30
0.0
 10
173.9317055922685
 20
272.5794696218805
 30
0.0
 10
173.9317055922685
 20
272.5794696218805
 30
0.0
 10
171.2304331694638
 20
269.983031269711
 30
0.0
 10
171.2304331694638
 20
269.983031269711
 30
0.0
 10
171.2304331694638
 20
269.983031269711
 30
0.0
 10
171.2304331694638
 20
269.983031269711
 30
0.0
 10
171.2304331694638
 20
269.983031269711
 30
0.0
 10
171.2304331694638
 20
269.983031269711
 30
0.0
 10
171.0236371945124
 20
269.7747992116001
 30
0.0
 10
171.0236371945124
 20
269.7747992116001
 30
0.0
 10
170.0930553072304
 20
268.7781574989865
 30
0.0
 10
168.8235577943336
 20
268.218085066826
 30
0.0
 10
167.4951808719017
 20
268.218085066826
 30
0.0
 10
167.4951808719017
 20
268.218085066826
 30
0.0
 10
166.7685227932527
 20
268.218085066826
 30
0.0
 10
166.7685227932527
 20
268.218085066826
 30
0.0
 10
166.7685227932527
 20
268.218085066826
 30
0.0
 10
166.7685227932527
 20
268.218085066826
 30
0.0
 10
166.7685227932527
 20
268.218085066826
 30
0.0
 10
165.1615457378998
 20
268.218085066826
 30
0.0
 10
163.8618904786559
 20
269.5191764092295
 30
0.0
 10
163.8618904786559
 20
271.1261534645822
 30
0.0
 10
163.8618904786559
 20
271.1261534645822
 30
0.0
 10
163.8618904786559
 20
272.7862655968321
 30
0.0
 10
163.8618904786559
 20
272.7862655968321
 30
0.0
 10
163.8618904786559
 20
272.7862655968321
 30
0.0
 10
163.8618904786559
 20
272.7862655968321
 30
0.0
 10
163.8618904786559
 20
272.7862655968321
 30
0.0
 10
163.8618904786559
 20
272.7862655968321
 30
0.0
 10
163.8618904786559
 20
276.2098878488076
 30
0.0
 10
163.8618904786559
 20
276.2098878488076
 30
0.0
 10
163.8618904786559
 20
276.7843211125618
 30
0.0
 10
163.4425541961152
 20
277.2496120562028
 30
0.0
 10
162.9255642587363
 20
277.2496120562028
 30
0.0
 10
162.9255642587363
 20
277.2496120562028
 30
0.0
 10
154.4153354562166
 20
277.2496120562028
 30
0.0
 10
154.4153354562166
 20
277.2496120562028
 30
0.0
 10
154.4153354562166
 20
277.2496120562028
 30
0.0
 10
154.4153354562166
 20
277.2496120562028
 30
0.0
 10
154.4153354562166
 20
277.2496120562028
 30
0.0
 10
154.4153354562166
 20
277.2496120562028
 30
0.0
 10
147.9802468190093
 20
277.2496120562028
 30
0.0
 10
147.9802468190093
 20
277.2496120562028
 30
0.0
 10
146.1434964581549
 20
277.2496120562028
 30
0.0
 10
144.5666771491495
 20
276.0160166222905
 30
0.0
 10
144.1372882844932
 20
274.2395817541304
 30
0.0
 10
144.1372882844932
 20
274.2395817541304
 30
0.0
 10
143.8270943220658
 20
273.3032555342109
 30
0.0
 10
143.8270943220658
 20
273.3032555342109
 30
0.0
 10
143.8270943220658
 20
273.3032555342109
 30
0.0
 10
143.8270943220658
 20
273.3032555342109
 30
0.0
 10
143.8270943220658
 20
273.3032555342109
 30
0.0
 10
143.8270943220658
 20
273.3032555342109
 30
0.0
 10
143.72369633459
 20
272.9930615717837
 30
0.0
 10
143.72369633459
 20
272.9930615717837
 30
0.0
 10
143.1722404013859
 20
270.7901100052859
 30
0.0
 10
141.2134229719838
 20
269.2563731910619
 30
0.0
 10
138.9472837464731
 20
269.2563731910619
 30
0.0
 10
138.9472837464731
 20
269.2563731910619
 30
0.0
 10
137.3920056848584
 20
269.2563731910619
 30
0.0
 10
137.3920056848584
 20
269.2563731910619
 30
0.0
 10
137.3920056848584
 20
269.2563731910619
 30
0.0
 10
137.3920056848584
 20
269.2563731910619
 30
0.0
 10
137.3920056848584
 20
269.2563731910619
 30
0.0
 10
134.3518176364389
 20
269.2563731910619
 30
0.0
 10
131.8889350180922
 20
271.7206918925679
 30
0.0
 10
131.8889350180922
 20
274.7594438578281
 30
0.0
 10
131.8889350180922
 20
274.7594438578281
 30
0.0
 10
131.8889350180922
 20
408.2498358969476
 30
0.0
 10
131.8889350180922
 20
408.2498358969476
 30
0.0
 10
131.8889350180922
 20
408.2498358969476
 30
0.0
 10
131.8889350180922
 20
408.2498358969476
 30
0.0
 10
131.8889350180922
 20
408.2498358969476
 30
0.0
 10
131.8889350180922
 20
408.2498358969476
 30
0.0
 10
131.8889350180922
 20
541.845062006702
 30
0.0
 10
131.8889350180922
 20
541.845062006702
 30
0.0
 10
131.8889350180922
 20
544.8256526040071
 30
0.0
 10
134.3518176364389
 20
547.2432986028328
 30
0.0
 10
137.3920056848584
 20
547.2432986028328
 30
0.0
 10
137.3920056848584
 20
547.2432986028328
 30
0.0
 10
137.3920056848584
 20
547.2432986028328
 30
0.0
 10
137.3920056848584
 20
547.2432986028328
 30
0.0
 10
137.3920056848584
 20
547.2432986028328
 30
0.0
 10
138.9472837464731
 20
547.2432986028328
 30
0.0
 10
138.9472837464731
 20
547.2432986028328
 30
0.0
 10
141.2134229719838
 20
547.2432986028328
 30
0.0
 10
143.1722404013859
 20
545.7095617886092
 30
0.0
 10
143.72369633459
 20
543.5058921805315
 30
0.0
 10
143.72369633459
 20
543.5058921805315
 30
0.0
 10
143.8270943220658
 20
543.2969420808411
 30
0.0
 10
143.8270943220658
 20
543.2969420808411
 30
0.0
 10
143.8270943220658
 20
543.2969420808411
 30
0.0
 10
143.8270943220658
 20
543.2969420808411
 30
0.0
 10
143.8270943220658
 20
543.2969420808411
 30
0.0
 10
143.8270943220658
 20
543.2969420808411
 30
0.0
 10
144.1372882844932
 20
542.259371998185
 30
0.0
 10
144.1372882844932
 20
542.259371998185
 30
0.0
 10
144.5666771491495
 20
540.4843732131841
 30
0.0
 10
146.1434964581549
 20
539.2493416961124
 30
0.0
 10
147.9802468190093
 20
539.2493416961124
 30
0.0
 10
147.9802468190093
 20
539.2493416961124
 30
0.0
 10
154.4153354562166
 20
539.2493416961124
 30
0.0
 10
154.4153354562166
 20
539.2493416961124
 30
0.0
 10
154.4153354562166
 20
539.2493416961124
 30
0.0
 10
154.4153354562166
 20
539.2493416961124
 30
0.0
 10
154.4153354562166
 20
539.2493416961124
 30
0.0
 10
154.4153354562166
 20
539.2493416961124
 30
0.0
 10
162.9255642587363
 20
539.2493416961124
 30
0.0
 10
162.9255642587363
 20
539.2493416961124
 30
0.0
 10
163.4425541961152
 20
539.2493416961124
 30
0.0
 10
163.8618904786559
 20
539.7153506813331
 30
0.0
 10
163.8618904786559
 20
540.2861937371888
 30
0.0
 10
163.8618904786559
 20
540.2861937371888
 30
0.0
 10
163.8618904786559
 20
543.8160861429589
 30
0.0
 10
163.8618904786559
 20
543.8160861429589
 30
0.0
 10
163.8618904786559
 20
543.8160861429589
 30
0.0
 10
163.8618904786559
 20
543.8160861429589
 30
0.0
 10
163.8618904786559
 20
543.8160861429589
 30
0.0
 10
163.8618904786559
 20
543.8160861429589
 30
0.0
 10
163.8618904786559
 20
545.4790704415274
 30
0.0
 10
163.8618904786559
 20
545.4790704415274
 30
0.0
 10
163.8618904786559
 20
547.0264500457655
 30
0.0
 10
165.1615457378998
 20
548.2808686854891
 30
0.0
 10
166.7685227932527
 20
548.2808686854891
 30
0.0
 10
166.7685227932527
 20
548.2808686854891
 30
0.0
 10
166.7685227932527
 20
548.2808686854891
 30
0.0
 10
166.7685227932527
 20
548.2808686854891
 30
0.0
 10
166.7685227932527
 20
548.2808686854891
 30
0.0
 10
167.4951808719017
 20
548.2808686854891
 30
0.0
 10
167.4951808719017
 20
548.2808686854891
 30
0.0
 10
168.8235577943336
 20
548.2808686854891
 30
0.0
 10
170.0930553072304
 20
547.7588524570525
 30
0.0
 10
171.0236371945124
 20
546.8261164450315
 30
0.0
 10
171.0236371945124
 20
546.8261164450315
 30
0.0
 10
171.2304331694638
 20
546.6207565532393
 30
0.0
 10
171.2304331694638
 20
546.6207565532393
 30
0.0
 10
171.2304331694638
 20
546.6207565532393
 30
0.0
 10
171.2304331694638
 20
546.6207565532393
 30
0.0
 10
171.2304331694638
 20
546.6207565532393
 30
0.0
 10
171.2304331694638
 20
546.6207565532393
 30
0.0
 10
173.9317055922685
 20
544.0243182010699
 30
0.0
 10
173.9317055922685
 20
544.0243182010699
 30
0.0
 10
176.9216307301095
 20
540.9683332378971
 30
0.0
 10
180.9914904038087
 20
539.2493416961124
 30
0.0
 10
185.2437326387498
 20
539.2493416961124
 30
0.0
 10
185.2437326387498
 20
539.2493416961124
 30
0.0
 10
185.2437326387498
 20
539.2493416961124
 30
0.0
 10
185.2437326387498
 20
539.2493416961124
 30
0.0
 10
185.2437326387498
 20
539.2493416961124
 30
0.0
 10
186.9067169373185
 20
539.2493416961124
 30
0.0
 10
186.9067169373185
 20
539.2493416961124
 30
0.0
 10
189.656816187542
 20
539.2493416961124
 30
0.0
 10
191.8870533340682
 20
541.4795788426386
 30
0.0
 10
191.8870533340682
 20
544.2325502591808
 30
0.0
 10
191.8870533340682
 20
544.2325502591808
 30
0.0
 10
191.8870533340682
 20
584.9239665803751
 30
0.0
 10
191.8870533340682
 20
584.9239665803751
 30
0.0
 10
191.8870533340682
 20
584.9239665803751
 30
0.0
 10
191.8870533340682
 20
584.9239665803751
 30
0.0
 10
191.8870533340682
 20
584.9239665803751
 30
0.0
 10
191.8870533340682
 20
584.9239665803751
 30
0.0
 10
191.8870533340682
 20
620.2171463054386
 30
0.0
 10
191.8870533340682
 20
620.2171463054386
 30
0.0
 10
191.8870533340682
 20
626.8626211254958
 30
0.0
 10
189.2733819839861
 20
633.2474468521245
 30
0.0
 10
184.6204725475764
 20
637.9656980722866
 30
0.0
 10
184.6204725475764
 20
637.9656980722866
 30
0.0
 10
184.6204725475764
 20
637.9656980722866
 30
0.0
 10
184.6204725475764
 20
637.9656980722866
 30
0.0
 10
184.6204725475764
 20
637.9656980722866
 30
0.0
 10
184.4151126557843
 20
638.1739301303973
 30
0.0
 10
184.4151126557843
 20
638.1739301303973
 30
0.0
 10
183.4170348600112
 20
639.1037939760997
 30
0.0
 10
182.8555263446913
 20
640.3747275721559
 30
0.0
 10
182.8555263446913
 20
641.7038225361676
 30
0.0
 10
182.8555263446913
 20
641.7038225361676
 30
0.0
 10
182.8555263446913
 20
642.4304806148167
 30
0.0
 10
182.8555263446913
 20
642.4304806148167
 30
0.0
 10
182.8555263446913
 20
642.4304806148167
 30
0.0
 10
182.8555263446913
 20
642.4304806148167
 30
0.0
 10
182.8555263446913
 20
642.4304806148167
 30
0.0
 10
182.8555263446913
 20
644.0345855038507
 30
0.0
 10
184.1580537702541
 20
645.3371129294135
 30
0.0
 10
185.7650308256069
 20
645.3371129294135
 30
0.0
 10
185.7650308256069
 20
645.3371129294135
 30
0.0
 10
187.4251429578568
 20
645.3371129294135
 30
0.0
 10
187.4251429578568
 20
645.3371129294135
 30
0.0
 10
187.4251429578568
 20
645.3371129294135
 30
0.0
 10
187.4251429578568
 20
645.3371129294135
 30
0.0
 10
187.4251429578568
 20
645.3371129294135
 30
0.0
 10
187.4251429578568
 20
645.3371129294135
 30
0.0
 10
190.9535992804674
 20
645.3371129294135
 30
0.0
 10
190.9535992804674
 20
645.3371129294135
 30
0.0
 10
191.4691531346868
 20
645.3371129294135
 30
0.0
 10
191.8870533340682
 20
645.7550131287944
 30
0.0
 10
191.8870533340682
 20
646.2705669830142
 30
0.0
 10
191.8870533340682
 20
646.2705669830142
 30
0.0
 10
191.8870533340682
 20
654.7836679518527
 30
0.0
 10
191.8870533340682
 20
654.7836679518527
 30
0.0
 10
191.8870533340682
 20
654.7836679518527
 30
0.0
 10
191.8870533340682
 20
654.7836679518527
 30
0.0
 10
191.8870533340682
 20
654.7836679518527
 30
0.0
 10
191.8870533340682
 20
654.7836679518527
 30
0.0
 10
191.8870533340682
 20
661.21875658906
 30
0.0
 10
191.8870533340682
 20
661.21875658906
 30
0.0
 10
191.8870533340682
 20
663.0562249914939
 30
0.0
 10
190.6520218169965
 20
664.673972670542
 30
0.0
 10
188.8770230319957
 20
665.1629589863127
 30
0.0
 10
188.8770230319957
 20
665.1629589863127
 30
0.0
 10
187.943568978395
 20
665.3711910444237
 30
0.0
 10
187.943568978395
 20
665.3711910444237
 30
0.0
 10
187.943568978395
 20
665.3711910444237
 30
0.0
 10
187.943568978395
 20
665.3711910444237
 30
0.0
 10
187.943568978395
 20
665.3711910444237
 30
0.0
 10
187.943568978395
 20
665.3711910444237
 30
0.0
 10
187.6319389328082
 20
665.4753070734793
 30
0.0
 10
187.6319389328082
 20
665.4753070734793
 30
0.0
 10
185.4261151999917
 20
666.0260449651036
 30
0.0
 10
183.8952505520866
 20
667.9848623945058
 30
0.0
 10
183.8952505520866
 20
670.2510016200165
 30
0.0
 10
183.8952505520866
 20
670.2510016200165
 30
0.0
 10
183.8952505520866
 20
671.9111137522662
 30
0.0
 10
183.8952505520866
 20
671.9111137522662
 30
0.0
 10
183.8952505520866
 20
671.9111137522662
 30
0.0
 10
183.8952505520866
 20
671.9111137522662
 30
0.0
 10
183.8952505520866
 20
671.9111137522662
 30
0.0
 10
183.8952505520866
 20
674.8917043495713
 30
0.0
 10
186.3595692535925
 20
677.3093503483972
 30
0.0
 10
189.3954490525338
 20
677.3093503483972
 30
0.0
 10
189.3954490525338
 20
677.3093503483972
 30
0.0
 10
322.886559133233
 20
677.3093503483972
 30
0.0
 10
322.886559133233
 20
677.3093503483972
 30
0.0
 10
322.886559133233
 20
677.3093503483972
 30
0.0
 10
322.886559133233
 20
677.3093503483972
 30
0.0
 10
322.886559133233
 20
677.3093503483972
 30
0.0
 10
322.886559133233
 20
677.3093503483972
 30
0.0
 10
456.4825032845674
 20
677.3093503483972
 30
0.0
 10
456.4825032845674
 20
677.3093503483972
 30
0.0
 10
459.4638119234521
 20
677.3093503483972
 30
0.0
 10
461.8807398806983
 20
674.8917043495713
 30
0.0
 10
461.8807398806983
 20
671.9111137522662
 30
0.0
 10
461.8807398806983
 20
671.9111137522662
 30
0.0
 10
461.8807398806983
 20
671.9111137522662
 30
0.0
 10
461.8807398806983
 20
671.9111137522662
 30
0.0
 10
461.8807398806983
 20
671.9111137522662
 30
0.0
 10
461.8807398806983
 20
670.2510016200165
 30
0.0
 10
461.8807398806983
 20
670.2510016200165
 30
0.0
 10
461.8807398806983
 20
667.9848623945058
 30
0.0
 10
460.3484391496336
 20
666.0260449651036
 30
0.0
 10
458.1426154168174
 20
665.4753070734793
 30
0.0
 10
458.1426154168174
 20
665.4753070734793
 30
0.0
 10
457.9358194418658
 20
665.3711910444237
 30
0.0
 10
457.9358194418658
 20
665.3711910444237
 30
0.0
 10
457.9358194418658
 20
665.3711910444237
 30
0.0
 10
457.9358194418658
 20
665.3711910444237
 30
0.0
 10
457.9358194418658
 20
665.3711910444237
 30
0.0
 10
457.9358194418658
 20
665.3711910444237
 30
0.0
 10
456.8989674007894
 20
665.1629589863127
 30
0.0
 10
456.8989674007894
 20
665.1629589863127
 30
0.0
 10
455.1210964494697
 20
664.673972670542
 30
0.0
 10
453.8889370987164
 20
663.0562249914939
 30
0.0
 10
453.8889370987164
 20
661.21875658906
 30
0.0
 10
453.8889370987164
 20
661.21875658906
 30
0.0
 10
453.8889370987164
 20
654.7836679518527
 30
0.0
 10
453.8889370987164
 20
654.7836679518527
 30
0.0
 10
453.8889370987164
 20
654.7836679518527
 30
0.0
 10
453.8889370987164
 20
654.7836679518527
 30
0.0
 10
453.8889370987164
 20
654.7836679518527
 30
0.0
 10
453.8889370987164
 20
654.7836679518527
 30
0.0
 10
453.8889370987164
 20
646.2705669830142
 30
0.0
 10
453.8889370987164
 20
646.2705669830142
 30
0.0
 10
453.8889370987164
 20
645.7550131287944
 30
0.0
 10
454.3513558760389
 20
645.3371129294135
 30
0.0
 10
454.9257891397933
 20
645.3371129294135
 30
0.0
 10
454.9257891397933
 20
645.3371129294135
 30
0.0
 10
458.4556815455634
 20
645.3371129294135
 30
0.0
 10
458.4556815455634
 20
645.3371129294135
 30
0.0
 10
458.4556815455634
 20
645.3371129294135
 30
0.0
 10
458.4556815455634
 20
645.3371129294135
 30
0.0
 10
458.4556815455634
 20
645.3371129294135
 30
0.0
 10
458.4556815455634
 20
645.3371129294135
 30
0.0
 10
460.1157936778133
 20
645.3371129294135
 30
0.0
 10
460.1157936778133
 20
645.3371129294135
 30
0.0
 10
461.6624552404716
 20
645.3371129294135
 30
0.0
 10
462.9175919217748
 20
644.0345855038507
 30
0.0
 10
462.9175919217748
 20
642.4304806148167
 30
0.0
 10
462.9175919217748
 20
642.4304806148167
 30
0.0
 10
462.9175919217748
 20
642.4304806148167
 30
0.0
 10
462.9175919217748
 20
642.4304806148167
 30
0.0
 10
462.9175919217748
 20
642.4304806148167
 30
0.0
 10
462.9175919217748
 20
641.7038225361676
 30
0.0
 10
462.9175919217748
 20
641.7038225361676
 30
0.0
 10
462.9175919217748
 20
640.3747275721559
 30
0.0
 10
462.3962937349176
 20
639.1037939760997
 30
0.0
 10
461.4657118476359
 20
638.1739301303973
 30
0.0
 10
461.4657118476359
 20
638.1739301303973
 30
0.0
 10
461.257479789525
 20
637.9656980722866
 30
0.0
 10
461.257479789525
 20
637.9656980722866
 30
0.0
 10
461.257479789525
 20
637.9656980722866
 30
0.0
 10
461.257479789525
 20
637.9656980722866
 30
0.0
 10
461.257479789525
 20
637.9656980722866
 30
0.0
 10
456.5399466109429
 20
633.2474468521245
 30
0.0
 10
453.8889370987164
 20
626.8626211254958
 30
0.0
 10
453.8889370987164
 20
620.2171463054386
 30
0.0
 10
453.8889370987164
 20
620.2171463054386
 30
0.0
 10
453.8889370987164
 20
417.2813628863242
 30
0.0
 10
453.8889370987164
 20
417.2813628863242
 30
0.0
 10
453.8889370987164
 20
417.2813628863242
 30
0.0
 10
453.8889370987164
 20
417.2813628863242
 30
0.0
 10
453.8889370987164
 20
417.2813628863242
 30
0.0
 10
453.8889370987164
 20
417.2813628863242
 30
0.0
 10
453.8889370987164
 20
213.7230374176162
 30
0.0
 10
453.8889370987164
 20
213.7230374176162
 30
0.0
 10
453.8889370987164
 20
207.8954119568291
 30
0.0
 10
457.329792348605
 20
202.5933929323769
 30
0.0
 10
462.7122320299828
 20
200.1233298982336
 30
0.0
 10
462.7122320299828
 20
200.1233298982336
 30
0.0
 10
468.4206625885408
 20
197.5283276292236
 30
0.0
 10
468.4206625885408
 20
197.5283276292236
 30
0.0
 10
468.4206625885408
 20
197.5283276292236
 30
0.0
 10
468.4206625885408
 20
197.5283276292236
 30
0.0
 10
468.4206625885408
 20
197.5283276292236
 30
0.0
 10
477.2856039314287
 20
193.4757009534371
 30
0.0
 10
482.9523880783648
 20
184.6524060221712
 30
0.0
 10
482.9523880783648
 20
174.8999652867829
 30
0.0
 10
482.9523880783648
 20
174.8999652867829
 30
0.0
 10
482.9523880783648
 20
172.2001289471378
 30
0.0
 10
482.9523880783648
 20
172.2001289471378
 30
0.0
 10
482.9523880783648
 20
172.2001289471378
 30
0.0
 10
482.9523880783648
 20
172.2001289471378
 30
0.0
 10
482.9523880783648
 20
172.2001289471378
 30
0.0
 10
482.9523880783648
 20
161.1351082040709
 30
0.0
 10
473.9826126648418
 20
152.1653327905476
 30
0.0
 10
462.9175919217748
 20
152.1653327905476
 30
0.0
 10
462.9175919217748
 20
152.1653327905476
 30
0.0
 10
322.886559133233
 20
152.1653327905476
 30
0.0
 10
322.886559133233
 20
152.1653327905476
 30
0.0
 10
322.886559133233
 20
152.1653327905476
 30
0.0
 10
322.886559133233
 20
152.1653327905476
 30
0.0
 10
322.886559133233
 20
152.1653327905476
 30
0.0
 10
322.886559133233
 20
152.1653327905476
 30
0.0
 10
182.8555263446913
 20
152.1653327905476
 30
0.0
 10
182.8555263446913
 20
152.1653327905476
 30
0.0
 10
171.8493850111592
 20
152.1653327905476
 30
0.0
 10
162.9255642587363
 20
161.1351082040709
 30
0.0
 10
162.9255642587363
 20
172.2001289471378
 30
0.0
 10
162.9255642587363
 20
172.2001289471378
 30
0.0
 10
162.9255642587363
 20
172.2001289471378
 30
0.0
 10
162.9255642587363
 20
172.2001289471378
 30
0.0
  0
SPLINE
  5
105
330
A
100
AcDbEntity
  8
A-001_Pan
  6
HIDDEN
100
AcDbSpline
210
0.0
220
0.0
230
1.0
 70
     9
 71
     3
 72
   122
 73
   118
 74
     0
 42
0.0000000001
 43
0.0000000001
 40
0.0
 40
0.0
 40
0.0
 40
0.0
 40
1.0
 40
1.0
 40
1.0
 40
2.0
 40
2.0
 40
2.0
 40
3.0
 40
3.0
 40
3.0
 40
4.0
 40
4.0
 40
4.0
 40
5.0
 40
5.0
 40
5.0
 40
6.0
 40
6.0
 40
6.0
 40
7.0
 40
7.0
 40
7.0
 40
8.0
 40
8.0
 40
8.0
 40
9.0
 40
9.0
 40
9.0
 40
10.0
 40
10.0
 40
10.0
 40
11.0
 40
11.0
 40
11.0
 40
12.0
 40
12.0
 40
12.0
 40
13.0
 40
13.0
 40
13.0
 40
14.0
 40
14.0
 40
14.0
 40
15.0
 40
15.0
 40
15.0
 40
16.0
 40
16.0
 40
16.0
 40
17.0
 40
17.0
 40
17.0
 40
18.0
 40
18.0
 40
18.0
 40
19.0
 40
19.0
 40
19.0
 40
20.0
 40
20.0
 40
20.0
 40
21.0
 40
21.0
 40
21.0
 40
22.0
 40
22.0
 40
22.0
 40
23.0
 40
23.0
 40
23.0
 40
24.0
 40
24.0
 40
24.0
 40
25.0
 40
25.0
 40
25.0
 40
26.0
 40
26.0
 40
26.0
 40
27.0
 40
27.0
 40
27.0
 40
28.0
 40
28.0
 40
28.0
 40
29.0
 40
29.0
 40
29.0
 40
30.0
 40
30.0
 40
30.0
 40
31.0
 40
31.0
 40
31.0
 40
32.0
 40
32.0
 40
32.0
 40
33.0
 40
33.0
 40
33.0
 40
34.0
 40
34.0
 40
34.0
 40
35.0
 40
35.0
 40
35.0
 40
36.0
 40
36.0
 40
36.0
 40
37.0
 40
37.0
 40
37.0
 40
38.0
 40
38.0
 40
38.0
 40
39.0
 40
39.0
 40
39.0
 40
39.0
 10
268.2866774133881
 20
957.4733778297972
 30
0.0
 10
268.2866774133881
 20
957.4733778297972
 30
0.0
 10
322.886559133233
 20
957.4733778297972
 30
0.0
 10
322.886559133233
 20
957.4733778297972
 30
0.0
 10
372.7617272586989
 20
957.4733778297972
 30
0.0
 10
417.8260168002228
 20
928.0674210166356
 30
0.0
 10
437.9024593684349
 20
882.4243899618792
 30
0.0
 10
437.9024593684349
 20
882.4243899618792
 30
0.0
 10
437.9024593684349
 20
882.4243899618792
 30
0.0
 10
437.9024593684349
 20
882.4243899618792
 30
0.0
 10
437.9024593684349
 20
882.4243899618792
 30
0.0
 10
452.64241691637
 20
886.2637582884971
 30
0.0
 10
452.64241691637
 20
886.2637582884971
 30
0.0
 10
432.0059019159973
 20
935.3131785973161
 30
0.0
 10
385.6003107036072
 20
968.4795191633289
 30
0.0
 10
332.5413462137831
 20
972.1099373902561
 30
0.0
 10
332.5413462137831
 20
972.1099373902561
 30
0.0
 10
332.5413462137831
 20
972.1099373902561
 30
0.0
 10
332.5413462137831
 20
972.1099373902561
 30
0.0
 10
331.0492558111815
 20
976.3341760035892
 30
0.0
 10
327.0899745407551
 20
979.1682861186369
 30
0.0
 10
322.6811992414409
 20
979.1682861186369
 30
0.0
 10
322.6811992414409
 20
979.1682861186369
 30
0.0
 10
322.6811992414409
 20
979.1682861186369
 30
0.0
 10
322.6811992414409
 20
979.1682861186369
 30
0.0
 10
318.3025816884739
 20
979.1682861186369
 30
0.0
 10
314.423721074973
 20
976.4856827769046
 30
0.0
 10
312.9215780902557
 20
972.4222854774229
 30
0.0
 10
312.9215780902557
 20
972.4222854774229
 30
0.0
 10
312.9215780902557
 20
972.4222854774229
 30
0.0
 10
312.9215780902557
 20
972.4222854774229
 30
0.0
 10
312.9215780902557
 20
972.4222854774229
 30
0.0
 10
188.9804210194713
 20
972.4222854774229
 30
0.0
 10
188.9804210194713
 20
972.4222854774229
 30
0.0
 10
182.3356642409937
 20
972.4222854774229
 30
0.0
 10
175.9494024312053
 20
975.0725769480689
 30
0.0
 10
171.2304331694638
 20
979.7908281682307
 30
0.0
 10
171.2304331694638
 20
979.7908281682307
 30
0.0
 10
171.2304331694638
 20
979.7908281682307
 30
0.0
 10
171.2304331694638
 20
979.7908281682307
 30
0.0
 10
171.2304331694638
 20
979.7908281682307
 30
0.0
 10
171.0236371945124
 20
979.9990602263417
 30
0.0
 10
171.0236371945124
 20
979.9990602263417
 30
0.0
 10
170.0930553072304
 20
980.928924072044
 30
0.0
 10
168.8235577943336
 20
981.4516583420603
 30
0.0
 10
167.4951808719017
 20
981.4516583420603
 30
0.0
 10
167.4951808719017
 20
981.4516583420603
 30
0.0
 10
166.7685227932527
 20
981.4516583420603
 30
0.0
 10
166.7685227932527
 20
981.4516583420603
 30
0.0
 10
166.7685227932527
 20
981.4516583420603
 30
0.0
 10
166.7685227932527
 20
981.4516583420603
 30
0.0
 10
166.7685227932527
 20
981.4516583420603
 30
0.0
 10
165.1615457378998
 20
981.4516583420603
 30
0.0
 10
163.8618904786559
 20
980.1972397023373
 30
0.0
 10
163.8618904786559
 20
978.6491420565191
 30
0.0
 10
163.8618904786559
 20
978.6491420565191
 30
0.0
 10
163.8618904786559
 20
976.9890299242694
 30
0.0
 10
163.8618904786559
 20
976.9890299242694
 30
0.0
 10
163.8618904786559
 20
976.9890299242694
 30
0.0
 10
163.8618904786559
 20
976.9890299242694
 30
0.0
 10
163.8618904786559
 20
976.9890299242694
 30
0.0
 10
163.8618904786559
 20
976.9890299242694
 30
0.0
 10
163.8618904786559
 20
973.4591375184992
 30
0.0
 10
163.8618904786559
 20
973.4591375184992
 30
0.0
 10
163.8618904786559
 20
972.8861403379042
 30
0.0
 10
163.4425541961152
 20
972.4222854774229
 30
0.0
 10
162.9255642587363
 20
972.4222854774229
 30
0.0
 10
162.9255642587363
 20
972.4222854774229
 30
0.0
 10
154.4153354562166
 20
972.4222854774229
 30
0.0
 10
154.4153354562166
 20
972.4222854774229
 30
0.0
 10
154.4153354562166
 20
972.4222854774229
 30
0.0
 10
154.4153354562166
 20
972.4222854774229
 30
0.0
 10
154.4153354562166
 20
972.4222854774229
 30
0.0
 10
154.4153354562166
 20
972.4222854774229
 30
0.0
 10
147.9802468190093
 20
972.4222854774229
 30
0.0
 10
147.9802468190093
 20
972.4222854774229
 30
0.0
 10
146.1434964581549
 20
972.4222854774229
 30
0.0
 10
144.5666771491495
 20
973.6551628697553
 30
0.0
 10
144.1372882844932
 20
975.4323157794951
 30
0.0
 10
144.1372882844932
 20
975.4323157794951
 30
0.0
 10
143.8270943220658
 20
976.4698858621512
 30
0.0
 10
143.8270943220658
 20
976.4698858621512
 30
0.0
 10
143.8270943220658
 20
976.4698858621512
 30
0.0
 10
143.8270943220658
 20
976.4698858621512
 30
0.0
 10
143.8270943220658
 20
976.4698858621512
 30
0.0
 10
143.8270943220658
 20
976.4698858621512
 30
0.0
 10
143.72369633459
 20
976.7807978661579
 30
0.0
 10
143.72369633459
 20
976.7807978661579
 30
0.0
 10
143.1722404013859
 20
978.9248700231208
 30
0.0
 10
141.2134229719838
 20
980.414088259404
 30
0.0
 10
138.9472837464731
 20
980.414088259404
 30
0.0
 10
138.9472837464731
 20
980.414088259404
 30
0.0
 10
137.2871716142233
 20
980.414088259404
 30
0.0
 10
137.2871716142233
 20
980.414088259404
 30
0.0
 10
137.2871716142233
 20
980.414088259404
 30
0.0
 10
137.2871716142233
 20
980.414088259404
 30
0.0
 10
137.2871716142233
 20
980.414088259404
 30
0.0
 10
134.307299058498
 20
980.414088259404
 30
0.0
 10
131.8889350180922
 20
977.9978783437378
 30
0.0
 10
131.8889350180922
 20
975.0158516632733
 30
0.0
 10
131.8889350180922
 20
975.0158516632733
 30
0.0
 10
131.8889350180922
 20
968.9965091007078
 30
0.0
 10
131.8889350180922
 20
968.9965091007078
 30
0.0
 10
131.8889350180922
 20
968.9965091007078
 30
0.0
 10
131.8889350180922
 20
968.9965091007078
 30
0.0
 10
131.8889350180922
 20
968.9965091007078
 30
0.0
 10
131.8889350180922
 20
968.9965091007078
 30
0.0
 10
131.8889350180922
 20
963.9091845085841
 30
0.0
 10
131.8889350180922
 20
963.9091845085841
 30
0.0
 10
131.8889350180922
 20
960.3548786891042
 30
0.0
 10
134.8171085800798
 20
957.4733778297972
 30
0.0
 10
138.428857725935
 20
957.4733778297972
 30
0.0
 10
138.428857725935
 20
957.4733778297972
 30
0.0
 10
268.2866774133881
 20
957.4733778297972
 30
0.0
 10
268.2866774133881
 20
957.4733778297972
 30
0.0
 10
268.2866774133881
 20
957.4733778297972
 30
0.0
 10
268.2866774133881
 20
957.4733778297972
 30
0.0
 10
268.2866774133881
 20
957.4733778297972
 30
0.0
  0
SPLINE
  5
104
330
A
100
AcDbEntity
  8
A-001_Pan
100
AcDbSpline
210
0.0
220
0.0
230
1.0
 70
     8
 71
     3
 72
    17
 73
    13
 74
     0
 42
0.0000000001
 43
0.0000000001
 40
0.0
 40
0.0
 40
0.0
 40
0.0
 40
1.0
 40
1.0
 40
1.0
 40
2.0
 40
2.0
 40
2.0
 40
3.0
 40
3.0
 40
3.0
 40
4.0
 40
4.0
 40
4.0
 40
4.0
 10
482.9523880783648
 20
894.0494831371067
 30
0.0
 10
464.3579833306384
 20
940.6037089564931
 30
0.0
 10
426.4554405049715
 20
976.7262267061013
 30
0.0
 10
379.046027164171
 20
993.078905642027
 30
0.0
 10
379.046027164171
 20
993.078905642027
 30
0.0
 10
379.046027164171
 20
993.078905642027
 30
0.0
 10
379.046027164171
 20
993.078905642027
 30
0.0
 10
331.6998014823832
 20
1009.432302619531
 30
0.0
 10
279.6762529504763
 20
1004.358620817422
 30
0.0
 10
236.4185560234598
 20
979.1682861186369
 30
0.0
 10
236.4185560234598
 20
979.1682861186369
 30
0.0
 10
236.4185560234598
 20
979.1682861186369
 30
0.0
 10
236.4185560234598
 20
979.1682861186369
 30
0.0
  0
LINE
  5
103
330
A
100
AcDbEntity
  8
A-001_Pan
100
AcDbLine
 10
191.8870515175925
 20
205.0017032218987
 30
0.0
 11
311.0546687781014
 21
205.0017032218987
 31
0.0
  0
LINE
  5
102
330
A
100
AcDbEntity
  8
A-001_Pan
100
AcDbLine
 10
334.8247170296189
 20
205.0017032218987
 30
0.0
 11
453.8889391684858
 21
205.0017032218987
 31
0.0
  0
LINE
  5
101
330
A
100
AcDbEntity
  8
A-001_Pan
100
AcDbLine
 10
191.8870515175925
 20
665.1629593083574
 30
0.0
 11
453.8889391684858
 21
665.1629593083574
 31
0.0
  0
LINE
  5
100
330
A
100
AcDbEntity
  8
A-001_Pan
100
AcDbLine
 10
191.8870515175925
 20
668.9003653127245
 30
0.0
 11
453.8889391684858
 21
668.9003653127245
 31
0.0
  0
LINE
  5
FF
330
A
100
AcDbEntity
  8
A-001_Pan
100
AcDbLine
 10
191.8870515175925
 20
637.3424392638632
 30
0.0
 11
453.8889391684858
 21
637.3424392638632
 31
0.0
  0
LINE
  5
FE
330
A
100
AcDbEntity
  8
A-001_Pan
100
AcDbLine
 10
191.8870515175925
 20
645.3371114729764
 30
0.0
 11
453.8889391684858
 21
645.3371114729764
 31
0.0
  0
LINE
  5
FD
330
A
100
AcDbEntity
  8
A-001_Pan
100
AcDbLine
 10
191.8870515175925
 20
628.5191429431023
 30
0.0
 11
310.8464362387329
 21
628.5191429431023
 31
0.0
  0
LINE
  5
FC
330
A
100
AcDbEntity
  8
A-001_Pan
100
AcDbLine
 10
334.8247170296189
 20
628.5191429431023
 30
0.0
 11
453.8889391684858
 21
628.5191429431023
 31
0.0
  0
SPLINE
  5
CF
330
A
100
AcDbEntity
  8
A-001_Pan
100
AcDbSpline
210
0.0
220
0.0
230
1.0
 70
     9
 71
     3
 72
    41
 73
    37
 74
     0
 42
0.0000000001
 43
0.0000000001
 40
0.0
 40
0.0
 40
0.0
 40
0.0
 40
1.0
 40
1.0
 40
1.0
 40
2.0
 40
2.0
 40
2.0
 40
3.0
 40
3.0
 40
3.0
 40
4.0
 40
4.0
 40
4.0
 40
5.0
 40
5.0
 40
5.0
 40
6.0
 40
6.0
 40
6.0
 40
7.0
 40
7.0
 40
7.0
 40
8.0
 40
8.0
 40
8.0
 40
9.0
 40
9.0
 40
9.0
 40
10.0
 40
10.0
 40
10.0
 40
11.0
 40
11.0
 40
11.0
 40
12.0
 40
12.0
 40
12.0
 40
12.0
 10
265.3800450987915
 20
655.1979779433353
 30
0.0
 10
265.3800450987915
 20
655.7164039638735
 30
0.0
 10
265.1746852069994
 20
656.1335861216751
 30
0.0
 10
264.9664531488884
 20
656.4437800841025
 30
0.0
 10
264.7567850076182
 20
656.8580900755851
 30
0.0
 10
264.4465910451907
 20
657.1711562043312
 30
0.0
 10
264.1335249164448
 20
657.3772341377032
 30
0.0
 10
263.7199329665417
 20
657.5854661958139
 30
0.0
 10
263.3049049334791
 20
657.6895822248696
 30
0.0
 10
262.8884408172573
 20
657.6895822248696
 30
0.0
 10
262.370014796719
 20
657.6895822248696
 30
0.0
 10
261.9549867636566
 20
657.5854661958139
 30
0.0
 10
261.5399587305942
 20
657.3772341377032
 30
0.0
 10
261.1234946143721
 20
657.1711562043312
 30
0.0
 10
260.9181347225801
 20
656.8580900755851
 30
0.0
 10
260.7099026644692
 20
656.4437800841025
 30
0.0
 10
260.3997087020419
 20
656.1335861216751
 30
0.0
 10
260.2948746314067
 20
655.7164039638735
 30
0.0
 10
260.2948746314067
 20
655.1979779433353
 30
0.0
 10
260.2948746314067
 20
654.7836679518527
 30
0.0
 10
260.3997087020419
 20
654.3686399187902
 30
0.0
 10
260.7099026644692
 20
653.9521758025682
 30
0.0
 10
260.9181347225801
 20
653.6419818401409
 30
0.0
 10
261.1234946143721
 20
653.3289157113948
 30
0.0
 10
261.5399587305942
 20
653.0187217489675
 30
0.0
 10
261.9549867636566
 20
652.8104896908565
 30
0.0
 10
262.370014796719
 20
652.7056556202217
 30
0.0
 10
262.8884408172573
 20
652.7056556202217
 30
0.0
 10
263.3049049334791
 20
652.7056556202217
 30
0.0
 10
263.7199329665417
 20
652.8104896908565
 30
0.0
 10
264.1335249164448
 20
653.0187217489675
 30
0.0
 10
264.4465910451907
 20
653.3289157113948
 30
0.0
 10
264.7567850076182
 20
653.6419818401409
 30
0.0
 10
264.9664531488884
 20
653.9521758025682
 30
0.0
 10
265.1746852069994
 20
654.3686399187902
 30
0.0
 10
265.3800450987915
 20
654.7836679518527
 30
0.0
 10
265.3800450987915
 20
655.1979779433353
 30
0.0
  0
LINE
  5
CE
330
A
100
AcDbEntity
  8
A-001_Pan
100
AcDbLine
 10
144.1372885160757
 20
277.2496113831661
 30
0.0
 11
144.1372885160757
 21
539.2493397584179
 31
0.0
  0
LINE
  5
CD
330
A
100
AcDbEntity
  8
A-001_Pan
100
AcDbLine
 10
140.2986383287366
 20
277.2496113831661
 30
0.0
 11
140.2986383287366
 21
539.2493397584179
 31
0.0
  0
LINE
  5
CC
330
A
100
AcDbEntity
  8
A-001_Pan
100
AcDbLine
 10
171.8536922908855
 20
277.2496113831661
 30
0.0
 11
171.8536922908855
 21
539.2493397584179
 31
0.0
  0
LINE
  5
CB
330
A
100
AcDbEntity
  8
A-001_Pan
100
AcDbLine
 10
163.8618921684848
 20
277.2496113831661
 30
0.0
 11
163.8618921684848
 21
539.2493397584179
 31
0.0
  0
LINE
  5
CA
330
A
100
AcDbEntity
  8
A-001_Pan
100
AcDbLine
 10
180.6769886116467
 20
277.2496113831661
 30
0.0
 11
180.6769886116467
 21
396.2075621451933
 31
0.0
  0
LINE
  5
C9
330
A
100
AcDbEntity
  8
A-001_Pan
100
AcDbLine
 10
180.6769886116467
 20
420.187993874749
 30
0.0
 11
180.6769886116467
 21
539.2493397584179
 31
0.0
  0
SPLINE
  5
C8
330
A
100
AcDbEntity
  8
A-001_Pan
100
AcDbSpline
210
0.0
220
0.0
230
1.0
 70
     9
 71
     3
 72
    56
 73
    52
 74
     0
 42
0.0000000001
 43
0.0000000001
 40
0.0
 40
0.0
 40
0.0
 40
0.0
 40
1.0
 40
1.0
 40
1.0
 40
2.0
 40
2.0
 40
2.0
 40
3.0
 40
3.0
 40
3.0
 40
4.0
 40
4.0
 40
4.0
 40
5.0
 40
5.0
 40
5.0
 40
6.0
 40
6.0
 40
6.0
 40
7.0
 40
7.0
 40
7.0
 40
8.0
 40
8.0
 40
8.0
 40
9.0
 40
9.0
 40
9.0
 40
10.0
 40
10.0
 40
10.0
 40
11.0
 40
11.0
 40
11.0
 40
12.0
 40
12.0
 40
12.0
 40
13.0
 40
13.0
 40
13.0
 40
14.0
 40
14.0
 40
14.0
 40
15.0
 40
15.0
 40
15.0
 40
16.0
 40
16.0
 40
16.0
 40
17.0
 40
17.0
 40
17.0
 40
17.0
 10
322.886559133233
 20
635.163899828325
 30
0.0
 10
328.2733070640889
 20
635.163899828325
 30
0.0
 10
332.6792101970843
 20
630.8951426370509
 30
0.0
 10
332.8515401762104
 20
625.511266872514
 30
0.0
 10
332.8515401762104
 20
625.511266872514
 30
0.0
 10
332.8515401762104
 20
625.511266872514
 30
0.0
 10
332.8515401762104
 20
625.511266872514
 30
0.0
 10
332.8515401762104
 20
625.511266872514
 30
0.0
 10
332.8515401762104
 20
208.0117346927394
 30
0.0
 10
332.8515401762104
 20
208.0117346927394
 30
0.0
 10
332.8515401762104
 20
202.5101001091327
 30
0.0
 10
328.3910658831586
 20
198.0467536497619
 30
0.0
 10
322.886559133233
 20
198.0467536497619
 30
0.0
 10
322.886559133233
 20
198.0467536497619
 30
0.0
 10
322.886559133233
 20
198.0467536497619
 30
0.0
 10
322.886559133233
 20
198.0467536497619
 30
0.0
 10
317.3260451400915
 20
198.0467536497619
 30
0.0
 10
312.8196161859392
 20
202.5101001091327
 30
0.0
 10
312.8196161859392
 20
208.0117346927394
 30
0.0
 10
312.8196161859392
 20
208.0117346927394
 30
0.0
 10
312.8196161859392
 20
398.1807388249145
 30
0.0
 10
312.8196161859392
 20
398.1807388249145
 30
0.0
 10
312.8196161859392
 20
398.1807388249145
 30
0.0
 10
312.8196161859392
 20
398.1807388249145
 30
0.0
 10
312.8196161859392
 20
398.1807388249145
 30
0.0
 10
312.8196161859392
 20
398.1807388249145
 30
0.0
 10
183.6870184939759
 20
398.1807388249145
 30
0.0
 10
183.6870184939759
 20
398.1807388249145
 30
0.0
 10
178.3017066462791
 20
398.411230171996
 30
0.0
 10
174.0322314134254
 20
402.8638060076714
 30
0.0
 10
174.0322314134254
 20
408.2498358969476
 30
0.0
 10
174.0322314134254
 20
408.2498358969476
 30
0.0
 10
174.0322314134254
 20
408.2498358969476
 30
0.0
 10
174.0322314134254
 20
408.2498358969476
 30
0.0
 10
174.0322314134254
 20
413.6351477446438
 30
0.0
 10
178.3017066462791
 20
418.0417689192189
 30
0.0
 10
183.6870184939759
 20
418.2148169399249
 30
0.0
 10
183.6870184939759
 20
418.2148169399249
 30
0.0
 10
183.6870184939759
 20
418.2148169399249
 30
0.0
 10
183.6870184939759
 20
418.2148169399249
 30
0.0
 10
183.6870184939759
 20
418.2148169399249
 30
0.0
 10
312.8196161859392
 20
418.2148169399249
 30
0.0
 10
312.8196161859392
 20
418.2148169399249
 30
0.0
 10
312.8196161859392
 20
418.2148169399249
 30
0.0
 10
312.8196161859392
 20
625.511266872514
 30
0.0
 10
312.8196161859392
 20
625.511266872514
 30
0.0
 10
313.0508255746004
 20
630.8951426370509
 30
0.0
 10
317.5041194518554
 20
635.163899828325
 30
0.0
 10
322.886559133233
 20
635.163899828325
 30
0.0
 10
322.886559133233
 20
635.163899828325
 30
0.0
 10
322.886559133233
 20
635.163899828325
 30
0.0
 10
322.886559133233
 20
635.163899828325
 30
0.0
  0
SPLINE
  5
C7
330
A
100
AcDbEntity
  8
A-001_Pan
100
AcDbSpline
210
0.0
220
0.0
230
1.0
 70
     9
 71
     3
 72
   389
 73
   385
 74
     0
 42
0.0000000001
 43
0.0000000001
 40
0.0
 40
0.0
 40
0.0
 40
0.0
 40
1.0
 40
1.0
 40
1.0
 40
2.0
 40
2.0
 40
2.0
 40
3.0
 40
3.0
 40
3.0
 40
4.0
 40
4.0
 40
4.0
 40
5.0
 40
5.0
 40
5.0
 40
6.0
 40
6.0
 40
6.0
 40
7.0
 40
7.0
 40
7.0
 40
8.0
 40
8.0
 40
8.0
 40
9.0
 40
9.0
 40
9.0
 40
10.0
 40
10.0
 40
10.0
 40
11.0
 40
11.0
 40
11.0
 40
12.0
 40
12.0
 40
12.0
 40
13.0
 40
13.0
 40
13.0
 40
14.0
 40
14.0
 40
14.0
 40
15.0
 40
15.0
 40
15.0
 40
16.0
 40
16.0
 40
16.0
 40
17.0
 40
17.0
 40
17.0
 40
18.0
 40
18.0
 40
18.0
 40
19.0
 40
19.0
 40
19.0
 40
20.0
 40
20.0
 40
20.0
 40
21.0
 40
21.0
 40
21.0
 40
22.0
 40
22.0
 40
22.0
 40
23.0
 40
23.0
 40
23.0
 40
24.0
 40
24.0
 40
24.0
 40
25.0
 40
25.0
 40
25.0
 40
26.0
 40
26.0
 40
26.0
 40
27.0
 40
27.0
 40
27.0
 40
28.0
 40
28.0
 40
28.0
 40
29.0
 40
29.0
 40
29.0
 40
30.0
 40
30.0
 40
30.0
 40
31.0
 40
31.0
 40
31.0
 40
32.0
 40
32.0
 40
32.0
 40
33.0
 40
33.0
 40
33.0
 40
34.0
 40
34.0
 40
34.0
 40
35.0
 40
35.0
 40
35.0
 40
36.0
 40
36.0
 40
36.0
 40
37.0
 40
37.0
 40
37.0
 40
38.0
 40
38.0
 40
38.0
 40
39.0
 40
39.0
 40
39.0
 40
40.0
 40
40.0
 40
40.0
 40
41.0
 40
41.0
 40
41.0
 40
42.0
 40
42.0
 40
42.0
 40
43.0
 40
43.0
 40
43.0
 40
44.0
 40
44.0
 40
44.0
 40
45.0
 40
45.0
 40
45.0
 40
46.0
 40
46.0
 40
46.0
 40
47.0
 40
47.0
 40
47.0
 40
48.0
 40
48.0
 40
48.0
 40
49.0
 40
49.0
 40
49.0
 40
50.0
 40
50.0
 40
50.0
 40
51.0
 40
51.0
 40
51.0
 40
52.0
 40
52.0
 40
52.0
 40
53.0
 40
53.0
 40
53.0
 40
54.0
 40
54.0
 40
54.0
 40
55.0
 40
55.0
 40
55.0
 40
56.0
 40
56.0
 40
56.0
 40
57.0
 40
57.0
 40
57.0
 40
58.0
 40
58.0
 40
58.0
 40
59.0
 40
59.0
 40
59.0
 40
60.0
 40
60.0
 40
60.0
 40
61.0
 40
61.0
 40
61.0
 40
62.0
 40
62.0
 40
62.0
 40
63.0
 40
63.0
 40
63.0
 40
64.0
 40
64.0
 40
64.0
 40
65.0
 40
65.0
 40
65.0
 40
66.0
 40
66.0
 40
66.0
 40
67.0
 40
67.0
 40
67.0
 40
68.0
 40
68.0
 40
68.0
 40
69.0
 40
69.0
 40
69.0
 40
70.0
 40
70.0
 40
70.0
 40
71.0
 40
71.0
 40
71.0
 40
72.0
 40
72.0
 40
72.0
 40
73.0
 40
73.0
 40
73.0
 40
74.0
 40
74.0
 40
74.0
 40
75.0
 40
75.0
 40
75.0
 40
76.0
 40
76.0
 40
76.0
 40
77.0
 40
77.0
 40
77.0
 40
78.0
 40
78.0
 40
78.0
 40
79.0
 40
79.0
 40
79.0
 40
80.0
 40
80.0
 40
80.0
 40
81.0
 40
81.0
 40
81.0
 40
82.0
 40
82.0
 40
82.0
 40
83.0
 40
83.0
 40
83.0
 40
84.0
 40
84.0
 40
84.0
 40
85.0
 40
85.0
 40
85.0
 40
86.0
 40
86.0
 40
86.0
 40
87.0
 40
87.0
 40
87.0
 40
88.0
 40
88.0
 40
88.0
 40
89.0
 40
89.0
 40
89.0
 40
90.0
 40
90.0
 40
90.0
 40
91.0
 40
91.0
 40
91.0
 40
92.0
 40
92.0
 40
92.0
 40
93.0
 40
93.0
 40
93.0
 40
94.0
 40
94.0
 40
94.0
 40
95.0
 40
95.0
 40
95.0
 40
96.0
 40
96.0
 40
96.0
 40
97.0
 40
97.0
 40
97.0
 40
98.0
 40
98.0
 40
98.0
 40
99.0
 40
99.0
 40
99.0
 40
100.0
 40
100.0
 40
100.0
 40
101.0
 40
101.0
 40
101.0
 40
102.0
 40
102.0
 40
102.0
 40
103.0
 40
103.0
 40
103.0
 40
104.0
 40
104.0
 40
104.0
 40
105.0
 40
105.0
 40
105.0
 40
106.0
 40
106.0
 40
106.0
 40
107.0
 40
107.0
 40
107.0
 40
108.0
 40
108.0
 40
108.0
 40
109.0
 40
109.0
 40
109.0
 40
110.0
 40
110.0
 40
110.0
 40
111.0
 40
111.0
 40
111.0
 40
112.0
 40
112.0
 40
112.0
 40
113.0
 40
113.0
 40
113.0
 40
114.0
 40
114.0
 40
114.0
 40
115.0
 40
115.0
 40
115.0
 40
116.0
 40
116.0
 40
116.0
 40
117.0
 40
117.0
 40
117.0
 40
118.0
 40
118.0
 40
118.0
 40
119.0
 40
119.0
 40
119.0
 40
120.0
 40
120.0
 40
120.0
 40
121.0
 40
121.0
 40
121.0
 40
122.0
 40
122.0
 40
122.0
 40
123.0
 40
123.0
 40
123.0
 40
124.0
 40
124.0
 40
124.0
 40
125.0
 40
125.0
 40
125.0
 40
126.0
 40
126.0
 40
126.0
 40
127.0
 40
127.0
 40
127.0
 40
128.0
 40
128.0
 40
128.0
 40
128.0
 10
162.9255642587363
 20
172.2001289471378
 30
0.0
 10
162.9255642587363
 20
172.2001289471378
 30
0.0
 10
162.9255642587363
 20
174.8999652867829
 30
0.0
 10
162.9255642587363
 20
174.8999652867829
 30
0.0
 10
162.9255642587363
 20
184.6524060221712
 30
0.0
 10
168.5535741603692
 20
193.4757009534371
 30
0.0
 10
177.3567639274033
 20
197.5283276292236
 30
0.0
 10
177.3567639274033
 20
197.5283276292236
 30
0.0
 10
177.3567639274033
 20
197.5283276292236
 30
0.0
 10
177.3567639274033
 20
197.5283276292236
 30
0.0
 10
177.3567639274033
 20
197.5283276292236
 30
0.0
 10
183.1685924734376
 20
200.1233298982336
 30
0.0
 10
183.1685924734376
 20
200.1233298982336
 30
0.0
 10
188.4878444958021
 20
202.5933929323769
 30
0.0
 10
191.8870533340682
 20
207.8954119568291
 30
0.0
 10
191.8870533340682
 20
213.7230374176162
 30
0.0
 10
191.8870533340682
 20
213.7230374176162
 30
0.0
 10
191.8870533340682
 20
240.7113482319521
 30
0.0
 10
191.8870533340682
 20
240.7113482319521
 30
0.0
 10
191.8870533340682
 20
240.7113482319521
 30
0.0
 10
191.8870533340682
 20
240.7113482319521
 30
0.0
 10
191.8870533340682
 20
240.7113482319521
 30
0.0
 10
191.8870533340682
 20
240.7113482319521
 30
0.0
 10
191.8870533340682
 20
272.2664034931344
 30
0.0
 10
191.8870533340682
 20
272.2664034931344
 30
0.0
 10
191.8870533340682
 20
275.0193749096769
 30
0.0
 10
189.656816187542
 20
277.2496120562028
 30
0.0
 10
186.9067169373185
 20
277.2496120562028
 30
0.0
 10
186.9067169373185
 20
277.2496120562028
 30
0.0
 10
185.2437326387498
 20
277.2496120562028
 30
0.0
 10
185.2437326387498
 20
277.2496120562028
 30
0.0
 10
185.2437326387498
 20
277.2496120562028
 30
0.0
 10
185.2437326387498
 20
277.2496120562028
 30
0.0
 10
185.2437326387498
 20
277.2496120562028
 30
0.0
 10
180.9914904038087
 20
277.2496120562028
 30
0.0
 10
176.9216307301095
 20
275.5693947597215
 30
0.0
 10
173.9317055922685
 20
272.5794696218805
 30
0.0
 10
173.9317055922685
 20
272.5794696218805
 30
0.0
 10
171.2304331694638
 20
269.983031269711
 30
0.0
 10
171.2304331694638
 20
269.983031269711
 30
0.0
 10
171.2304331694638
 20
269.983031269711
 30
0.0
 10
171.2304331694638
 20
269.983031269711
 30
0.0
 10
171.2304331694638
 20
269.983031269711
 30
0.0
 10
171.2304331694638
 20
269.983031269711
 30
0.0
 10
171.0236371945124
 20
269.7747992116001
 30
0.0
 10
171.0236371945124
 20
269.7747992116001
 30
0.0
 10
170.0930553072304
 20
268.7781574989865
 30
0.0
 10
168.8235577943336
 20
268.218085066826
 30
0.0
 10
167.4951808719017
 20
268.218085066826
 30
0.0
 10
167.4951808719017
 20
268.218085066826
 30
0.0
 10
166.7685227932527
 20
268.218085066826
 30
0.0
 10
166.7685227932527
 20
268.218085066826
 30
0.0
 10
166.7685227932527
 20
268.218085066826
 30
0.0
 10
166.7685227932527
 20
268.218085066826
 30
0.0
 10
166.7685227932527
 20
268.218085066826
 30
0.0
 10
165.1615457378998
 20
268.218085066826
 30
0.0
 10
163.8618904786559
 20
269.5191764092295
 30
0.0
 10
163.8618904786559
 20
271.1261534645822
 30
0.0
 10
163.8618904786559
 20
271.1261534645822
 30
0.0
 10
163.8618904786559
 20
272.7862655968321
 30
0.0
 10
163.8618904786559
 20
272.7862655968321
 30
0.0
 10
163.8618904786559
 20
272.7862655968321
 30
0.0
 10
163.8618904786559
 20
272.7862655968321
 30
0.0
 10
163.8618904786559
 20
272.7862655968321
 30
0.0
 10
163.8618904786559
 20
272.7862655968321
 30
0.0
 10
163.8618904786559
 20
276.2098878488076
 30
0.0
 10
163.8618904786559
 20
276.2098878488076
 30
0.0
 10
163.8618904786559
 20
276.7843211125618
 30
0.0
 10
163.4425541961152
 20
277.2496120562028
 30
0.0
 10
162.9255642587363
 20
277.2496120562028
 30
0.0
 10
162.9255642587363
 20
277.2496120562028
 30
0.0
 10
154.4153354562166
 20
277.2496120562028
 30
0.0
 10
154.4153354562166
 20
277.2496120562028
 30
0.0
 10
154.4153354562166
 20
277.2496120562028
 30
0.0
 10
154.4153354562166
 20
277.2496120562028
 30
0.0
 10
154.4153354562166
 20
277.2496120562028
 30
0.0
 10
154.4153354562166
 20
277.2496120562028
 30
0.0
 10
147.9802468190093
 20
277.2496120562028
 30
0.0
 10
147.9802468190093
 20
277.2496120562028
 30
0.0
 10
146.1434964581549
 20
277.2496120562028
 30
0.0
 10
144.5666771491495
 20
276.0160166222905
 30
0.0
 10
144.1372882844932
 20
274.2395817541304
 30
0.0
 10
144.1372882844932
 20
274.2395817541304
 30
0.0
 10
143.8270943220658
 20
273.3032555342109
 30
0.0
 10
143.8270943220658
 20
273.3032555342109
 30
0.0
 10
143.8270943220658
 20
273.3032555342109
 30
0.0
 10
143.8270943220658
 20
273.3032555342109
 30
0.0
 10
143.8270943220658
 20
273.3032555342109
 30
0.0
 10
143.8270943220658
 20
273.3032555342109
 30
0.0
 10
143.72369633459
 20
272.9930615717837
 30
0.0
 10
143.72369633459
 20
272.9930615717837
 30
0.0
 10
143.1722404013859
 20
270.7901100052859
 30
0.0
 10
141.2134229719838
 20
269.2563731910619
 30
0.0
 10
138.9472837464731
 20
269.2563731910619
 30
0.0
 10
138.9472837464731
 20
269.2563731910619
 30
0.0
 10
137.3920056848584
 20
269.2563731910619
 30
0.0
 10
137.3920056848584
 20
269.2563731910619
 30
0.0
 10
137.3920056848584
 20
269.2563731910619
 30
0.0
 10
137.3920056848584
 20
269.2563731910619
 30
0.0
 10
137.3920056848584
 20
269.2563731910619
 30
0.0
 10
134.3518176364389
 20
269.2563731910619
 30
0.0
 10
131.8889350180922
 20
271.7206918925679
 30
0.0
 10
131.8889350180922
 20
274.7594438578281
 30
0.0
 10
131.8889350180922
 20
274.7594438578281
 30
0.0
 10
131.8889350180922
 20
408.2498358969476
 30
0.0
 10
131.8889350180922
 20
408.2498358969476
 30
0.0
 10
131.8889350180922
 20
408.2498358969476
 30
0.0
 10
131.8889350180922
 20
408.2498358969476
 30
0.0
 10
131.8889350180922
 20
408.2498358969476
 30
0.0
 10
131.8889350180922
 20
408.2498358969476
 30
0.0
 10
131.8889350180922
 20
541.845062006702
 30
0.0
 10
131.8889350180922
 20
541.845062006702
 30
0.0
 10
131.8889350180922
 20
544.8256526040071
 30
0.0
 10
134.3518176364389
 20
547.2432986028328
 30
0.0
 10
137.3920056848584
 20
547.2432986028328
 30
0.0
 10
137.3920056848584
 20
547.2432986028328
 30
0.0
 10
137.3920056848584
 20
547.2432986028328
 30
0.0
 10
137.3920056848584
 20
547.2432986028328
 30
0.0
 10
137.3920056848584
 20
547.2432986028328
 30
0.0
 10
138.9472837464731
 20
547.2432986028328
 30
0.0
 10
138.9472837464731
 20
547.2432986028328
 30
0.0
 10
141.2134229719838
 20
547.2432986028328
 30
0.0
 10
143.1722404013859
 20
545.7095617886092
 30
0.0
 10
143.72369633459
 20
543.5058921805315
 30
0.0
 10
143.72369633459
 20
543.5058921805315
 30
0.0
 10
143.8270943220658
 20
543.2969420808411
 30
0.0
 10
143.8270943220658
 20
543.2969420808411
 30
0.0
 10
143.8270943220658
 20
543.2969420808411
 30
0.0
 10
143.8270943220658
 20
543.2969420808411
 30
0.0
 10
143.8270943220658
 20
543.2969420808411
 30
0.0
 10
143.8270943220658
 20
543.2969420808411
 30
0.0
 10
144.1372882844932
 20
542.259371998185
 30
0.0
 10
144.1372882844932
 20
542.259371998185
 30
0.0
 10
144.5666771491495
 20
540.4843732131841
 30
0.0
 10
146.1434964581549
 20
539.2493416961124
 30
0.0
 10
147.9802468190093
 20
539.2493416961124
 30
0.0
 10
147.9802468190093
 20
539.2493416961124
 30
0.0
 10
154.4153354562166
 20
539.2493416961124
 30
0.0
 10
154.4153354562166
 20
539.2493416961124
 30
0.0
 10
154.4153354562166
 20
539.2493416961124
 30
0.0
 10
154.4153354562166
 20
539.2493416961124
 30
0.0
 10
154.4153354562166
 20
539.2493416961124
 30
0.0
 10
154.4153354562166
 20
539.2493416961124
 30
0.0
 10
162.9255642587363
 20
539.2493416961124
 30
0.0
 10
162.9255642587363
 20
539.2493416961124
 30
0.0
 10
163.4425541961152
 20
539.2493416961124
 30
0.0
 10
163.8618904786559
 20
539.7153506813331
 30
0.0
 10
163.8618904786559
 20
540.2861937371888
 30
0.0
 10
163.8618904786559
 20
540.2861937371888
 30
0.0
 10
163.8618904786559
 20
543.8160861429589
 30
0.0
 10
163.8618904786559
 20
543.8160861429589
 30
0.0
 10
163.8618904786559
 20
543.8160861429589
 30
0.0
 10
163.8618904786559
 20
543.8160861429589
 30
0.0
 10
163.8618904786559
 20
543.8160861429589
 30
0.0
 10
163.8618904786559
 20
543.8160861429589
 30
0.0
 10
163.8618904786559
 20
545.4790704415274
 30
0.0
 10
163.8618904786559
 20
545.4790704415274
 30
0.0
 10
163.8618904786559
 20
547.0264500457655
 30
0.0
 10
165.1615457378998
 20
548.2808686854891
 30
0.0
 10
166.7685227932527
 20
548.2808686854891
 30
0.0
 10
166.7685227932527
 20
548.2808686854891
 30
0.0
 10
166.7685227932527
 20
548.2808686854891
 30
0.0
 10
166.7685227932527
 20
548.2808686854891
 30
0.0
 10
166.7685227932527
 20
548.2808686854891
 30
0.0
 10
167.4951808719017
 20
548.2808686854891
 30
0.0
 10
167.4951808719017
 20
548.2808686854891
 30
0.0
 10
168.8235577943336
 20
548.2808686854891
 30
0.0
 10
170.0930553072304
 20
547.7588524570525
 30
0.0
 10
171.0236371945124
 20
546.8261164450315
 30
0.0
 10
171.0236371945124
 20
546.8261164450315
 30
0.0
 10
171.2304331694638
 20
546.6207565532393
 30
0.0
 10
171.2304331694638
 20
546.6207565532393
 30
0.0
 10
171.2304331694638
 20
546.6207565532393
 30
0.0
 10
171.2304331694638
 20
546.6207565532393
 30
0.0
 10
171.2304331694638
 20
546.6207565532393
 30
0.0
 10
171.2304331694638
 20
546.6207565532393
 30
0.0
 10
173.9317055922685
 20
544.0243182010699
 30
0.0
 10
173.9317055922685
 20
544.0243182010699
 30
0.0
 10
176.9216307301095
 20
540.9683332378971
 30
0.0
 10
180.9914904038087
 20
539.2493416961124
 30
0.0
 10
185.2437326387498
 20
539.2493416961124
 30
0.0
 10
185.2437326387498
 20
539.2493416961124
 30
0.0
 10
185.2437326387498
 20
539.2493416961124
 30
0.0
 10
185.2437326387498
 20
539.2493416961124
 30
0.0
 10
185.2437326387498
 20
539.2493416961124
 30
0.0
 10
186.9067169373185
 20
539.2493416961124
 30
0.0
 10
186.9067169373185
 20
539.2493416961124
 30
0.0
 10
189.656816187542
 20
539.2493416961124
 30
0.0
 10
191.8870533340682
 20
541.4795788426386
 30
0.0
 10
191.8870533340682
 20
544.2325502591808
 30
0.0
 10
191.8870533340682
 20
544.2325502591808
 30
0.0
 10
191.8870533340682
 20
584.9239665803751
 30
0.0
 10
191.8870533340682
 20
584.9239665803751
 30
0.0
 10
191.8870533340682
 20
584.9239665803751
 30
0.0
 10
191.8870533340682
 20
584.9239665803751
 30
0.0
 10
191.8870533340682
 20
584.9239665803751
 30
0.0
 10
191.8870533340682
 20
584.9239665803751
 30
0.0
 10
191.8870533340682
 20
620.2171463054386
 30
0.0
 10
191.8870533340682
 20
620.2171463054386
 30
0.0
 10
191.8870533340682
 20
626.8626211254958
 30
0.0
 10
189.2733819839861
 20
633.2474468521245
 30
0.0
 10
184.6204725475764
 20
637.9656980722866
 30
0.0
 10
184.6204725475764
 20
637.9656980722866
 30
0.0
 10
184.6204725475764
 20
637.9656980722866
 30
0.0
 10
184.6204725475764
 20
637.9656980722866
 30
0.0
 10
184.6204725475764
 20
637.9656980722866
 30
0.0
 10
184.4151126557843
 20
638.1739301303973
 30
0.0
 10
184.4151126557843
 20
638.1739301303973
 30
0.0
 10
183.4170348600112
 20
639.1037939760997
 30
0.0
 10
182.8555263446913
 20
640.3747275721559
 30
0.0
 10
182.8555263446913
 20
641.7038225361676
 30
0.0
 10
182.8555263446913
 20
641.7038225361676
 30
0.0
 10
182.8555263446913
 20
642.4304806148167
 30
0.0
 10
182.8555263446913
 20
642.4304806148167
 30
0.0
 10
182.8555263446913
 20
642.4304806148167
 30
0.0
 10
182.8555263446913
 20
642.4304806148167
 30
0.0
 10
182.8555263446913
 20
642.4304806148167
 30
0.0
 10
182.8555263446913
 20
644.0345855038507
 30
0.0
 10
184.1580537702541
 20
645.3371129294135
 30
0.0
 10
185.7650308256069
 20
645.3371129294135
 30
0.0
 10
185.7650308256069
 20
645.3371129294135
 30
0.0
 10
187.4251429578568
 20
645.3371129294135
 30
0.0
 10
187.4251429578568
 20
645.3371129294135
 30
0.0
 10
187.4251429578568
 20
645.3371129294135
 30
0.0
 10
187.4251429578568
 20
645.3371129294135
 30
0.0
 10
187.4251429578568
 20
645.3371129294135
 30
0.0
 10
187.4251429578568
 20
645.3371129294135
 30
0.0
 10
190.9535992804674
 20
645.3371129294135
 30
0.0
 10
190.9535992804674
 20
645.3371129294135
 30
0.0
 10
191.4691531346868
 20
645.3371129294135
 30
0.0
 10
191.8870533340682
 20
645.7550131287944
 30
0.0
 10
191.8870533340682
 20
646.2705669830142
 30
0.0
 10
191.8870533340682
 20
646.2705669830142
 30
0.0
 10
191.8870533340682
 20
654.7836679518527
 30
0.0
 10
191.8870533340682
 20
654.7836679518527
 30
0.0
 10
191.8870533340682
 20
654.7836679518527
 30
0.0
 10
191.8870533340682
 20
654.7836679518527
 30
0.0
 10
191.8870533340682
 20
654.7836679518527
 30
0.0
 10
191.8870533340682
 20
654.7836679518527
 30
0.0
 10
191.8870533340682
 20
661.21875658906
 30
0.0
 10
191.8870533340682
 20
661.21875658906
 30
0.0
 10
191.8870533340682
 20
663.0562249914939
 30
0.0
 10
190.6520218169965
 20
664.673972670542
 30
0.0
 10
188.8770230319957
 20
665.1629589863127
 30
0.0
 10
188.8770230319957
 20
665.1629589863127
 30
0.0
 10
187.943568978395
 20
665.3711910444237
 30
0.0
 10
187.943568978395
 20
665.3711910444237
 30
0.0
 10
187.943568978395
 20
665.3711910444237
 30
0.0
 10
187.943568978395
 20
665.3711910444237
 30
0.0
 10
187.943568978395
 20
665.3711910444237
 30
0.0
 10
187.943568978395
 20
665.3711910444237
 30
0.0
 10
187.6319389328082
 20
665.4753070734793
 30
0.0
 10
187.6319389328082
 20
665.4753070734793
 30
0.0
 10
185.4261151999917
 20
666.0260449651036
 30
0.0
 10
183.8952505520866
 20
667.9848623945058
 30
0.0
 10
183.8952505520866
 20
670.2510016200165
 30
0.0
 10
183.8952505520866
 20
670.2510016200165
 30
0.0
 10
183.8952505520866
 20
671.9111137522662
 30
0.0
 10
183.8952505520866
 20
671.9111137522662
 30
0.0
 10
183.8952505520866
 20
671.9111137522662
 30
0.0
 10
183.8952505520866
 20
671.9111137522662
 30
0.0
 10
183.8952505520866
 20
671.9111137522662
 30
0.0
 10
183.8952505520866
 20
674.8917043495713
 30
0.0
 10
186.3595692535925
 20
677.3093503483972
 30
0.0
 10
189.3954490525338
 20
677.3093503483972
 30
0.0
 10
189.3954490525338
 20
677.3093503483972
 30
0.0
 10
322.886559133233
 20
677.3093503483972
 30
0.0
 10
322.886559133233
 20
677.3093503483972
 30
0.0
 10
322.886559133233
 20
677.3093503483972
 30
0.0
 10
322.886559133233
 20
677.3093503483972
 30
0.0
 10
322.886559133233
 20
677.3093503483972
 30
0.0
 10
322.886559133233
 20
677.3093503483972
 30
0.0
 10
456.4825032845674
 20
677.3093503483972
 30
0.0
 10
456.4825032845674
 20
677.3093503483972
 30
0.0
 10
459.4638119234521
 20
677.3093503483972
 30
0.0
 10
461.8807398806983
 20
674.8917043495713
 30
0.0
 10
461.8807398806983
 20
671.9111137522662
 30
0.0
 10
461.8807398806983
 20
671.9111137522662
 30
0.0
 10
461.8807398806983
 20
671.9111137522662
 30
0.0
 10
461.8807398806983
 20
671.9111137522662
 30
0.0
 10
461.8807398806983
 20
671.9111137522662
 30
0.0
 10
461.8807398806983
 20
670.2510016200165
 30
0.0
 10
461.8807398806983
 20
670.2510016200165
 30
0.0
 10
461.8807398806983
 20
667.9848623945058
 30
0.0
 10
460.3484391496336
 20
666.0260449651036
 30
0.0
 10
458.1426154168174
 20
665.4753070734793
 30
0.0
 10
458.1426154168174
 20
665.4753070734793
 30
0.0
 10
457.9358194418658
 20
665.3711910444237
 30
0.0
 10
457.9358194418658
 20
665.3711910444237
 30
0.0
 10
457.9358194418658
 20
665.3711910444237
 30
0.0
 10
457.9358194418658
 20
665.3711910444237
 30
0.0
 10
457.9358194418658
 20
665.3711910444237
 30
0.0
 10
457.9358194418658
 20
665.3711910444237
 30
0.0
 10
456.8989674007894
 20
665.1629589863127
 30
0.0
 10
456.8989674007894
 20
665.1629589863127
 30
0.0
 10
455.1210964494697
 20
664.673972670542
 30
0.0
 10
453.8889370987164
 20
663.0562249914939
 30
0.0
 10
453.8889370987164
 20
661.21875658906
 30
0.0
 10
453.8889370987164
 20
661.21875658906
 30
0.0
 10
453.8889370987164
 20
654.7836679518527
 30
0.0
 10
453.8889370987164
 20
654.7836679518527
 30
0.0
 10
453.8889370987164
 20
654.7836679518527
 30
0.0
 10
453.8889370987164
 20
654.7836679518527
 30
0.0
 10
453.8889370987164
 20
654.7836679518527
 30
0.0
 10
453.8889370987164
 20
654.7836679518527
 30
0.0
 10
453.8889370987164
 20
646.2705669830142
 30
0.0
 10
453.8889370987164
 20
646.2705669830142
 30
0.0
 10
453.8889370987164
 20
645.7550131287944
 30
0.0
 10
454.3513558760389
 20
645.3371129294135
 30
0.0
 10
454.9257891397933
 20
645.3371129294135
 30
0.0
 10
454.9257891397933
 20
645.3371129294135
 30
0.0
 10
458.4556815455634
 20
645.3371129294135
 30
0.0
 10
458.4556815455634
 20
645.3371129294135
 30
0.0
 10
458.4556815455634
 20
645.3371129294135
 30
0.0
 10
458.4556815455634
 20
645.3371129294135
 30
0.0
 10
458.4556815455634
 20
645.3371129294135
 30
0.0
 10
458.4556815455634
 20
645.3371129294135
 30
0.0
 10
460.1157936778133
 20
645.3371129294135
 30
0.0
 10
460.1157936778133
 20
645.3371129294135
 30
0.0
 10
461.6624552404716
 20
645.3371129294135
 30
0.0
 10
462.9175919217748
 20
644.0345855038507
 30
0.0
 10
462.9175919217748
 20
642.4304806148167
 30
0.0
 10
462.9175919217748
 20
642.4304806148167
 30
0.0
 10
462.9175919217748
 20
642.4304806148167
 30
0.0
 10
462.9175919217748
 20
642.4304806148167
 30
0.0
 10
462.9175919217748
 20
642.4304806148167
 30
0.0
 10
462.9175919217748
 20
641.7038225361676
 30
0.0
 10
462.9175919217748
 20
641.7038225361676
 30
0.0
 10
462.9175919217748
 20
640.3747275721559
 30
0.0
 10
462.3962937349176
 20
639.1037939760997
 30
0.0
 10
461.4657118476359
 20
638.1739301303973
 30
0.0
 10
461.4657118476359
 20
638.1739301303973
 30
0.0
 10
461.257479789525
 20
637.9656980722866
 30
0.0
 10
461.257479789525
 20
637.9656980722866
 30
0.0
 10
461.257479789525
 20
637.9656980722866
 30
0.0
 10
461.257479789525
 20
637.9656980722866
 30
0.0
 10
461.257479789525
 20
637.9656980722866
 30
0.0
 10
456.5399466109429
 20
633.2474468521245
 30
0.0
 10
453.8889370987164
 20
626.8626211254958
 30
0.0
 10
453.8889370987164
 20
620.2171463054386
 30
0.0
 10
453.8889370987164
 20
620.2171463054386
 30
0.0
 10
453.8889370987164
 20
417.2813628863242
 30
0.0
 10
453.8889370987164
 20
417.2813628863242
 30
0.0
 10
453.8889370987164
 20
417.2813628863242
 30
0.0
 10
453.8889370987164
 20
417.2813628863242
 30
0.0
 10
453.8889370987164
 20
417.2813628863242
 30
0.0
 10
453.8889370987164
 20
417.2813628863242
 30
0.0
 10
453.8889370987164
 20
213.7230374176162
 30
0.0
 10
453.8889370987164
 20
213.7230374176162
 30
0.0
 10
453.8889370987164
 20
207.8954119568291
 30
0.0
 10
457.329792348605
 20
202.5933929323769
 30
0.0
 10
462.7122320299828
 20
200.1233298982336
 30
0.0
 10
462.7122320299828
 20
200.1233298982336
 30
0.0
 10
468.4206625885408
 20
197.5283276292236
 30
0.0
 10
468.4206625885408
 20
197.5283276292236
 30
0.0
 10
468.4206625885408
 20
197.5283276292236
 30
0.0
 10
468.4206625885408
 20
197.5283276292236
 30
0.0
 10
468.4206625885408
 20
197.5283276292236
 30
0.0
 10
477.2856039314287
 20
193.4757009534371
 30
0.0
 10
482.9523880783648
 20
184.6524060221712
 30
0.0
 10
482.9523880783648
 20
174.8999652867829
 30
0.0
 10
482.9523880783648
 20
174.8999652867829
 30
0.0
 10
482.9523880783648
 20
172.2001289471378
 30
0.0
 10
482.9523880783648
 20
172.2001289471378
 30
0.0
 10
482.9523880783648
 20
172.2001289471378
 30
0.0
 10
482.9523880783648
 20
172.2001289471378
 30
0.0
 10
482.9523880783648
 20
172.2001289471378
 30
0.0
 10
482.9523880783648
 20
161.1351082040709
 30
0.0
 10
473.9826126648418
 20
152.1653327905476
 30
0.0
 10
462.9175919217748
 20
152.1653327905476
 30
0.0
 10
462.9175919217748
 20
152.1653327905476
 30
0.0
 10
322.886559133233
 20
152.1653327905476
 30
0.0
 10
322.886559133233
 20
152.1653327905476
 30
0.0
 10
322.886559133233
 20
152.1653327905476
 30
0.0
 10
322.886559133233
 20
152.1653327905476
 30
0.0
 10
322.886559133233
 20
152.1653327905476
 30
0.0
 10
322.886559133233
 20
152.1653327905476
 30
0.0
 10
182.8555263446913
 20
152.1653327905476
 30
0.0
 10
182.8555263446913
 20
152.1653327905476
 30
0.0
 10
171.8493850111592
 20
152.1653327905476
 30
0.0
 10
162.9255642587363
 20
161.1351082040709
 30
0.0
 10
162.9255642587363
 20
172.2001289471378
 30
0.0
 10
162.9255642587363
 20
172.2001289471378
 30
0.0
 10
162.9255642587363
 20
172.2001289471378
 30
0.0
 10
162.9255642587363
 20
172.2001289471378
 30
0.0
  0
SPLINE
  5
C6
330
A
100
AcDbEntity
  8
A-001_Pan
100
AcDbSpline
210
0.0
220
0.0
230
1.0
 70
     9
 71
     3
 72
    41
 73
    37
 74
     0
 42
0.0000000001
 43
0.0000000001
 40
0.0
 40
0.0
 40
0.0
 40
0.0
 40
1.0
 40
1.0
 40
1.0
 40
2.0
 40
2.0
 40
2.0
 40
3.0
 40
3.0
 40
3.0
 40
4.0
 40
4.0
 40
4.0
 40
5.0
 40
5.0
 40
5.0
 40
6.0
 40
6.0
 40
6.0
 40
7.0
 40
7.0
 40
7.0
 40
8.0
 40
8.0
 40
8.0
 40
9.0
 40
9.0
 40
9.0
 40
10.0
 40
10.0
 40
10.0
 40
11.0
 40
11.0
 40
11.0
 40
12.0
 40
12.0
 40
12.0
 40
12.0
 10
156.490475621529
 20
468.2479542129232
 30
0.0
 10
156.490475621529
 20
468.6629822459857
 30
0.0
 10
156.3856415508937
 20
469.0794463622075
 30
0.0
 10
156.1802816591016
 20
469.4944743952701
 30
0.0
 10
155.9720496009908
 20
469.9087843867529
 30
0.0
 10
155.6604195554041
 20
470.2211324739193
 30
0.0
 10
155.2439554391821
 20
470.4272104072912
 30
0.0
 10
154.830363489279
 20
470.6361605069816
 30
0.0
 10
154.4153354562166
 20
470.7402765360371
 30
0.0
 10
154.0003074231542
 20
470.7402765360371
 30
0.0
 10
153.5838433069323
 20
470.7402765360371
 30
0.0
 10
153.1702513570292
 20
470.6361605069816
 30
0.0
 10
152.7552233239668
 20
470.4272104072912
 30
0.0
 10
152.3387592077449
 20
470.2211324739193
 30
0.0
 10
152.0271291621582
 20
469.9087843867529
 30
0.0
 10
151.8188971040473
 20
469.4944743952701
 30
0.0
 10
151.6135372122551
 20
469.0794463622075
 30
0.0
 10
151.50870314162
 20
468.6629822459857
 30
0.0
 10
151.50870314162
 20
468.2479542129232
 30
0.0
 10
151.50870314162
 20
467.8336442214402
 30
0.0
 10
151.6135372122551
 20
467.4164620636389
 30
0.0
 10
151.8188971040473
 20
467.002152072156
 30
0.0
 10
152.0271291621582
 20
466.5878420806733
 30
0.0
 10
152.3387592077449
 20
466.2747759519273
 30
0.0
 10
152.7552233239668
 20
466.0694160601351
 30
0.0
 10
153.1702513570292
 20
465.8604659604446
 30
0.0
 10
153.5838433069323
 20
465.7563499313892
 30
0.0
 10
154.0003074231542
 20
465.7563499313892
 30
0.0
 10
154.4153354562166
 20
465.7563499313892
 30
0.0
 10
154.830363489279
 20
465.8604659604446
 30
0.0
 10
155.2439554391821
 20
466.0694160601351
 30
0.0
 10
155.6604195554041
 20
466.2747759519273
 30
0.0
 10
155.9720496009908
 20
466.5878420806733
 30
0.0
 10
156.1802816591016
 20
467.002152072156
 30
0.0
 10
156.3856415508937
 20
467.4164620636389
 30
0.0
 10
156.490475621529
 20
467.8336442214402
 30
0.0
 10
156.490475621529
 20
468.2479542129232
 30
0.0
  0
SPLINE
  5
C5
330
A
100
AcDbEntity
  8
A-001_Pan
100
AcDbSpline
210
0.0
220
0.0
230
1.0
 70
     9
 71
     3
 72
    41
 73
    37
 74
     0
 42
0.0000000001
 43
0.0000000001
 40
0.0
 40
0.0
 40
0.0
 40
0.0
 40
1.0
 40
1.0
 40
1.0
 40
2.0
 40
2.0
 40
2.0
 40
3.0
 40
3.0
 40
3.0
 40
4.0
 40
4.0
 40
4.0
 40
5.0
 40
5.0
 40
5.0
 40
6.0
 40
6.0
 40
6.0
 40
7.0
 40
7.0
 40
7.0
 40
8.0
 40
8.0
 40
8.0
 40
9.0
 40
9.0
 40
9.0
 40
10.0
 40
10.0
 40
10.0
 40
11.0
 40
11.0
 40
11.0
 40
12.0
 40
12.0
 40
12.0
 40
12.0
 10
156.490475621529
 20
348.1461654687568
 30
0.0
 10
156.490475621529
 20
348.6660275724545
 30
0.0
 10
156.3856415508937
 20
349.0839277718357
 30
0.0
 10
156.1802816591016
 20
349.3926856511034
 30
0.0
 10
155.9720496009908
 20
349.8077136841662
 30
0.0
 10
155.6604195554041
 20
350.1193437297528
 30
0.0
 10
155.2439554391821
 20
350.3261397047044
 30
0.0
 10
154.830363489279
 20
350.6392058334504
 30
0.0
 10
154.4153354562166
 20
350.7440399040856
 30
0.0
 10
154.0003074231542
 20
350.7440399040856
 30
0.0
 10
153.5838433069323
 20
350.7440399040856
 30
0.0
 10
153.1702513570292
 20
350.6392058334504
 30
0.0
 10
152.7552233239668
 20
350.3261397047044
 30
0.0
 10
152.3387592077449
 20
350.1193437297528
 30
0.0
 10
152.0271291621582
 20
349.8077136841662
 30
0.0
 10
151.8188971040473
 20
349.3926856511034
 30
0.0
 10
151.6135372122551
 20
349.0839277718357
 30
0.0
 10
151.50870314162
 20
348.6660275724545
 30
0.0
 10
151.50870314162
 20
348.1461654687568
 30
0.0
 10
151.50870314162
 20
347.7325735188538
 30
0.0
 10
151.6135372122551
 20
347.3189815689506
 30
0.0
 10
151.8188971040473
 20
346.9010813695694
 30
0.0
 10
152.0271291621582
 20
346.5908874071421
 30
0.0
 10
152.3387592077449
 20
346.2778212783959
 30
0.0
 10
152.7552233239668
 20
346.0724613866038
 30
0.0
 10
153.1702513570292
 20
345.8627932453336
 30
0.0
 10
153.5838433069323
 20
345.6545611872227
 30
0.0
 10
154.0003074231542
 20
345.6545611872227
 30
0.0
 10
154.4153354562166
 20
345.6545611872227
 30
0.0
 10
154.830363489279
 20
345.8627932453336
 30
0.0
 10
155.2439554391821
 20
346.0724613866038
 30
0.0
 10
155.6604195554041
 20
346.2778212783959
 30
0.0
 10
155.9720496009908
 20
346.5908874071421
 30
0.0
 10
156.1802816591016
 20
346.9010813695694
 30
0.0
 10
156.3856415508937
 20
347.3189815689506
 30
0.0
 10
156.490475621529
 20
347.7325735188538
 30
0.0
 10
156.490475621529
 20
348.1461654687568
 30
0.0
  0
LINE
  5
C4
330
A
100
AcDbEntity
  8
A-001_Pan
100
AcDbLine
 10
314.3763308517741
 20
416.7600645927222
 30
0.0
 11
321.4346777817717
 21
409.7017176627246
 31
0.0
  0
LINE
  5
C3
330
A
100
AcDbEntity
  8
A-001_Pan
100
AcDbLine
 10
314.3763308517741
 20
399.6347744476634
 30
0.0
 11
321.4346777817717
 21
406.7950825401895
 31
0.0
  0
LINE
  5
C2
330
A
100
AcDbEntity
  8
A-001_Pan
100
AcDbLine
 10
305.3448019916447
 20
425.688194162724
 30
0.0
 11
199.3604295672138
 21
531.7759658772825
 31
0.0
  0
LINE
  5
C1
330
A
100
AcDbEntity
  8
A-001_Pan
100
AcDbLine
 10
305.3448019916447
 20
390.7073618572181
 30
0.0
 11
199.3604295672138
 21
284.7229894327873
 31
0.0
  0
SPLINE
  5
C0
330
A
100
AcDbEntity
  8
A-001_Pan
100
AcDbSpline
210
0.0
220
0.0
230
1.0
 70
     9
 71
     3
 72
    41
 73
    37
 74
     0
 42
0.0000000001
 43
0.0000000001
 40
0.0
 40
0.0
 40
0.0
 40
0.0
 40
1.0
 40
1.0
 40
1.0
 40
2.0
 40
2.0
 40
2.0
 40
3.0
 40
3.0
 40
3.0
 40
4.0
 40
4.0
 40
4.0
 40
5.0
 40
5.0
 40
5.0
 40
6.0
 40
6.0
 40
6.0
 40
7.0
 40
7.0
 40
7.0
 40
8.0
 40
8.0
 40
8.0
 40
9.0
 40
9.0
 40
9.0
 40
10.0
 40
10.0
 40
10.0
 40
11.0
 40
11.0
 40
11.0
 40
12.0
 40
12.0
 40
12.0
 40
12.0
 10
385.3762817307431
 20
655.1979779433353
 30
0.0
 10
385.3762817307431
 20
655.7164039638735
 30
0.0
 10
385.2728837432673
 20
656.1335861216751
 30
0.0
 10
385.0660877683157
 20
656.4437800841025
 30
0.0
 10
384.8578557102048
 20
656.8580900755851
 30
0.0
 10
384.5490978309369
 20
657.1711562043312
 30
0.0
 10
384.1311976315557
 20
657.3772341377032
 30
0.0
 10
383.7176056816526
 20
657.5854661958139
 30
0.0
 10
383.3025776485902
 20
657.6895822248696
 30
0.0
 10
382.8846774492089
 20
657.6895822248696
 30
0.0
 10
382.4710854993058
 20
657.6895822248696
 30
0.0
 10
382.0560574662433
 20
657.5854661958139
 30
0.0
 10
381.641029433181
 20
657.3772341377032
 30
0.0
 10
381.2245653169589
 20
657.1711562043312
 30
0.0
 10
380.9143713545317
 20
656.8580900755851
 30
0.0
 10
380.7061392964208
 20
656.4437800841025
 30
0.0
 10
380.4979072383098
 20
656.1335861216751
 30
0.0
 10
380.3959453339936
 20
655.7164039638735
 30
0.0
 10
380.3959453339936
 20
655.1979779433353
 30
0.0
 10
380.3959453339936
 20
654.7836679518527
 30
0.0
 10
380.4979072383098
 20
654.3686399187902
 30
0.0
 10
380.7061392964208
 20
653.9521758025682
 30
0.0
 10
380.9143713545317
 20
653.6419818401409
 30
0.0
 10
381.2245653169589
 20
653.3289157113948
 30
0.0
 10
381.641029433181
 20
653.0187217489675
 30
0.0
 10
382.0560574662433
 20
652.8104896908565
 30
0.0
 10
382.4710854993058
 20
652.7056556202217
 30
0.0
 10
382.8846774492089
 20
652.7056556202217
 30
0.0
 10
383.3025776485902
 20
652.7056556202217
 30
0.0
 10
383.7176056816526
 20
652.8104896908565
 30
0.0
 10
384.1311976315557
 20
653.0187217489675
 30
0.0
 10
384.5490978309369
 20
653.3289157113948
 30
0.0
 10
384.8578557102048
 20
653.6419818401409
 30
0.0
 10
385.0660877683157
 20
653.9521758025682
 30
0.0
 10
385.2728837432673
 20
654.3686399187902
 30
0.0
 10
385.3762817307431
 20
654.7836679518527
 30
0.0
 10
385.3762817307431
 20
655.1979779433353
 30
0.0
  0
LINE
  5
93
330
A
100
AcDbEntity
  8
A-001_Pan
100
AcDbLine
 10
437.9024585000005
 20
882.4243888853825
 30
0.0
 11
482.9523891277236
 21
894.0494829109519
 31
0.0
  0
LINE
  5
92
330
A
100
AcDbEntity
  8
A-001_Pan
100
AcDbLine
 10
207.8735321860779
 20
882.4243888853825
 30
0.0
 11
162.9255627208836
 21
894.0494829109519
 31
0.0
  0
LINE
  5
91
330
A
100
AcDbEntity
  8
A-001_Pan
100
AcDbLine
 10
131.888935
 20
882.4243888853825
 30
0.0
 11
207.8735321860779
 21
882.4243888853825
 31
0.0
  0
LINE
  5
90
330
A
100
AcDbEntity
  8
A-001_Pan
100
AcDbLine
 10
131.888935
 20
975.0158499752537
 30
0.0
 11
131.888935
 21
882.4243888853825
 31
0.0
  0
SPLINE
  5
8F
330
A
100
AcDbEntity
  8
A-001_Pan
  6
HIDDEN
100
AcDbSpline
210
0.0
220
0.0
230
1.0
 70
     8
 71
     3
 72
    17
 73
    13
 74
     0
 42
0.0000000001
 43
0.0000000001
 40
0.0
 40
0.0
 40
0.0
 40
0.0
 40
1.0
 40
1.0
 40
1.0
 40
2.0
 40
2.0
 40
2.0
 40
3.0
 40
3.0
 40
3.0
 40
4.0
 40
4.0
 40
4.0
 40
4.0
 10
312.8196161859392
 20
972.1099373902561
 30
0.0
 10
286.905495574824
 20
970.2774952788804
 30
0.0
 10
262.0153022563509
 20
961.2495584974016
 30
0.0
 10
240.9881726366251
 20
946.0557986711011
 30
0.0
 10
240.9881726366251
 20
946.0557986711011
 30
0.0
 10
240.9881726366251
 20
946.0557986711011
 30
0.0
 10
240.9881726366251
 20
946.0557986711011
 30
0.0
 10
219.821742950439
 20
930.9273806285522
 30
0.0
 10
203.2766288711563
 20
910.2104449712539
 30
0.0
 10
193.2384075870501
 20
886.2637582884971
 30
0.0
 10
193.2384075870501
 20
886.2637582884971
 30
0.0
 10
193.2384075870501
 20
886.2637582884971
 30
0.0
 10
193.2384075870501
 20
886.2637582884971
 30
0.0
  0
SPLINE
  5
8D
330
A
100
AcDbEntity
  8
A-001_Pan
100
AcDbSpline
210
0.0
220
0.0
230
1.0
 70
     8
 71
     3
 72
    17
 73
    13
 74
     0
 42
0.0000000001
 43
0.0000000001
 40
0.0
 40
0.0
 40
0.0
 40
0.0
 40
1.0
 40
1.0
 40
1.0
 40
2.0
 40
2.0
 40
2.0
 40
3.0
 40
3.0
 40
3.0
 40
4.0
 40
4.0
 40
4.0
 40
4.0
 10
437.9024593684349
 20
882.4243899618792
 30
0.0
 10
417.8260168002228
 20
928.0674210166356
 30
0.0
 10
372.7617272586989
 20
957.4733778297972
 30
0.0
 10
322.886559133233
 20
957.4733778297972
 30
0.0
 10
322.886559133233
 20
957.4733778297972
 30
0.0
 10
322.886559133233
 20
957.4733778297972
 30
0.0
 10
322.886559133233
 20
957.4733778297972
 30
0.0
 10
273.0774508330987
 20
957.4733778297972
 30
0.0
 10
228.011725208416
 20
928.0674210166356
 30
0.0
 10
207.8735310643498
 20
882.4243899618792
 30
0.0
 10
207.8735310643498
 20
882.4243899618792
 30
0.0
 10
207.8735310643498
 20
882.4243899618792
 30
0.0
 10
207.8735310643498
 20
882.4243899618792
 30
0.0
  0
SPLINE
  5
8C
330
A
100
AcDbEntity
  8
A-001_Pan
100
AcDbSpline
210
0.0
220
0.0
230
1.0
 70
     8
 71
     3
 72
    17
 73
    13
 74
     0
 42
0.0000000001
 43
0.0000000001
 40
0.0
 40
0.0
 40
0.0
 40
0.0
 40
1.0
 40
1.0
 40
1.0
 40
2.0
 40
2.0
 40
2.0
 40
3.0
 40
3.0
 40
3.0
 40
4.0
 40
4.0
 40
4.0
 40
4.0
 10
457.9358194418658
 20
887.614394499899
 30
0.0
 10
433.7464347051727
 20
940.615197621768
 30
0.0
 10
381.0823930841799
 20
974.4967076011551
 30
0.0
 10
322.886559133233
 20
974.4967076011551
 30
0.0
 10
322.886559133233
 20
974.4967076011551
 30
0.0
 10
322.886559133233
 20
974.4967076011551
 30
0.0
 10
322.886559133233
 20
974.4967076011551
 30
0.0
 10
264.693597348605
 20
974.4967076011551
 30
0.0
 10
212.069766056075
 20
940.615197621768
 30
0.0
 10
187.943568978395
 20
887.614394499899
 30
0.0
 10
187.943568978395
 20
887.614394499899
 30
0.0
 10
187.943568978395
 20
887.614394499899
 30
0.0
 10
187.943568978395
 20
887.614394499899
 30
0.0
  0
SPLINE
  5
8B
330
A
100
AcDbEntity
  8
A-001_Pan
100
AcDbSpline
210
0.0
220
0.0
230
1.0
 70
     8
 71
     3
 72
    71
 73
    67
 74
     0
 42
0.0000000001
 43
0.0000000001
 40
0.0
 40
0.0
 40
0.0
 40
0.0
 40
1.0
 40
1.0
 40
1.0
 40
2.0
 40
2.0
 40
2.0
 40
3.0
 40
3.0
 40
3.0
 40
4.0
 40
4.0
 40
4.0
 40
5.0
 40
5.0
 40
5.0
 40
6.0
 40
6.0
 40
6.0
 40
7.0
 40
7.0
 40
7.0
 40
8.0
 40
8.0
 40
8.0
 40
9.0
 40
9.0
 40
9.0
 40
10.0
 40
10.0
 40
10.0
 40
11.0
 40
11.0
 40
11.0
 40
12.0
 40
12.0
 40
12.0
 40
13.0
 40
13.0
 40
13.0
 40
14.0
 40
14.0
 40
14.0
 40
15.0
 40
15.0
 40
15.0
 40
16.0
 40
16.0
 40
16.0
 40
17.0
 40
17.0
 40
17.0
 40
18.0
 40
18.0
 40
18.0
 40
19.0
 40
19.0
 40
19.0
 40
20.0
 40
20.0
 40
20.0
 40
21.0
 40
21.0
 40
21.0
 40
22.0
 40
22.0
 40
22.0
 40
22.0
 10
236.4185560234598
 20
979.1682861186369
 30
0.0
 10
236.4185560234598
 20
979.1682861186369
 30
0.0
 10
171.9585273312724
 20
979.1682861186369
 30
0.0
 10
171.9585273312724
 20
979.1682861186369
 30
0.0
 10
171.9585273312724
 20
979.1682861186369
 30
0.0
 10
171.0236371945124
 20
979.9990602263417
 30
0.0
 10
171.0236371945124
 20
979.9990602263417
 30
0.0
 10
170.0930553072304
 20
980.928924072044
 30
0.0
 10
168.8235577943336
 20
981.4516583420603
 30
0.0
 10
167.4951808719017
 20
981.4516583420603
 30
0.0
 10
167.4951808719017
 20
981.4516583420603
 30
0.0
 10
166.7685227932527
 20
981.4516583420603
 30
0.0
 10
166.7685227932527
 20
981.4516583420603
 30
0.0
 10
166.7685227932527
 20
981.4516583420603
 30
0.0
 10
166.7685227932527
 20
981.4516583420603
 30
0.0
 10
166.7685227932527
 20
981.4516583420603
 30
0.0
 10
165.1615457378998
 20
981.4516583420603
 30
0.0
 10
163.8618904786559
 20
980.1972397023373
 30
0.0
 10
163.8618904786559
 20
978.6491420565191
 30
0.0
 10
163.8618904786559
 20
978.6491420565191
 30
0.0
 10
163.8618904786559
 20
976.9890299242694
 30
0.0
 10
163.8618904786559
 20
976.9890299242694
 30
0.0
 10
163.8618904786559
 20
976.9890299242694
 30
0.0
 10
163.8618904786559
 20
976.9890299242694
 30
0.0
 10
163.8618904786559
 20
976.9890299242694
 30
0.0
 10
163.8618904786559
 20
976.9890299242694
 30
0.0
 10
163.8618904786559
 20
973.4591375184992
 30
0.0
 10
163.8618904786559
 20
973.4591375184992
 30
0.0
 10
163.8618904786559
 20
972.8861403379042
 30
0.0
 10
163.4425541961152
 20
972.4222854774229
 30
0.0
 10
162.9255642587363
 20
972.4222854774229
 30
0.0
 10
162.9255642587363
 20
972.4222854774229
 30
0.0
 10
154.4153354562166
 20
972.4222854774229
 30
0.0
 10
154.4153354562166
 20
972.4222854774229
 30
0.0
 10
154.4153354562166
 20
972.4222854774229
 30
0.0
 10
154.4153354562166
 20
972.4222854774229
 30
0.0
 10
154.4153354562166
 20
972.4222854774229
 30
0.0
 10
154.4153354562166
 20
972.4222854774229
 30
0.0
 10
147.9802468190093
 20
972.4222854774229
 30
0.0
 10
147.9802468190093
 20
972.4222854774229
 30
0.0
 10
146.1434964581549
 20
972.4222854774229
 30
0.0
 10
144.5666771491495
 20
973.6551628697553
 30
0.0
 10
144.1372882844932
 20
975.4323157794951
 30
0.0
 10
144.1372882844932
 20
975.4323157794951
 30
0.0
 10
143.8270943220658
 20
976.4698858621512
 30
0.0
 10
143.8270943220658
 20
976.4698858621512
 30
0.0
 10
143.8270943220658
 20
976.4698858621512
 30
0.0
 10
143.8270943220658
 20
976.4698858621512
 30
0.0
 10
143.8270943220658
 20
976.4698858621512
 30
0.0
 10
143.8270943220658
 20
976.4698858621512
 30
0.0
 10
143.72369633459
 20
976.7807978661579
 30
0.0
 10
143.72369633459
 20
976.7807978661579
 30
0.0
 10
143.1722404013859
 20
978.9844674742356
 30
0.0
 10
141.2134229719838
 20
980.5182042884597
 30
0.0
 10
138.9472837464731
 20
980.5182042884597
 30
0.0
 10
138.9472837464731
 20
980.5182042884597
 30
0.0
 10
137.3920056848584
 20
980.5182042884597
 30
0.0
 10
137.3920056848584
 20
980.5182042884597
 30
0.0
 10
137.3920056848584
 20
980.5182042884597
 30
0.0
 10
137.3920056848584
 20
980.5182042884597
 30
0.0
 10
137.3920056848584
 20
980.5182042884597
 30
0.0
 10
134.3518176364389
 20
980.5182042884597
 30
0.0
 10
131.8889350180922
 20
978.0546036285331
 30
0.0
 10
131.8889350180922
 20
975.0158516632733
 30
0.0
 10
131.8889350180922
 20
975.0158516632733
 30
0.0
 10
131.8889350180922
 20
975.0158516632733
 30
0.0
 10
131.8889350180922
 20
975.0158516632733
 30
0.0
  0
SPLINE
  5
8A
330
A
100
AcDbEntity
  8
A-001_Pan
100
AcDbSpline
210
0.0
220
0.0
230
1.0
 70
     8
 71
     3
 72
    17
 73
    13
 74
     0
 42
0.0000000001
 43
0.0000000001
 40
0.0
 40
0.0
 40
0.0
 40
0.0
 40
1.0
 40
1.0
 40
1.0
 40
2.0
 40
2.0
 40
2.0
 40
3.0
 40
3.0
 40
3.0
 40
4.0
 40
4.0
 40
4.0
 40
4.0
 10
236.4185560234598
 20
979.1682861186369
 30
0.0
 10
219.8576450294237
 20
969.5472469923325
 30
0.0
 10
205.0185977434911
 20
957.2708901043236
 30
0.0
 10
192.5103134252414
 20
942.8375363109177
 30
0.0
 10
192.5103134252414
 20
942.8375363109177
 30
0.0
 10
192.5103134252414
 20
942.8375363109177
 30
0.0
 10
192.5103134252414
 20
942.8375363109177
 30
0.0
 10
180.0034651901512
 20
928.3374046506002
 30
0.0
 10
170.0054542345079
 20
911.8497338976926
 30
0.0
 10
162.9255642587363
 20
894.0494831371067
 30
0.0
 10
162.9255642587363
 20
894.0494831371067
 30
0.0
 10
162.9255642587363
 20
894.0494831371067
 30
0.0
 10
162.9255642587363
 20
894.0494831371067
 30
0.0
  0
LINE
  5
89
330
A
100
AcDbEntity
  8
A-001_Pan
100
AcDbLine
 10
144.8639472967094
 20
882.4243888853825
 30
0.0
 11
144.8639472967094
 21
972.4222848098136
 31
0.0
  0
LINE
  5
88
330
A
100
AcDbEntity
  8
A-001_Pan
100
AcDbLine
 10
141.1272582718989
 20
882.4243888853825
 30
0.0
 11
141.1272582718989
 21
972.4222848098136
 31
0.0
  0
LINE
  5
87
330
A
100
AcDbEntity
  8
A-001_Pan
100
AcDbLine
 10
172.6851843207602
 20
882.4243888853825
 30
0.0
 11
172.6851843207602
 21
891.5578789080404
 31
0.0
  0
LINE
  5
86
330
A
100
AcDbEntity
  8
A-001_Pan
100
AcDbLine
 10
172.6851843207602
 20
914.6027065065233
 30
0.0
 11
172.6851843207602
 21
978.4430622777239
 31
0.0
  0
LINE
  5
85
330
A
100
AcDbEntity
  8
A-001_Pan
100
AcDbLine
 10
164.6905121116472
 20
882.4243888853825
 30
0.0
 11
164.6905121116472
 21
893.6351729393708
 31
0.0
  0
LINE
  5
84
330
A
100
AcDbEntity
  8
A-001_Pan
100
AcDbLine
 10
164.6905121116472
 20
898.4101484058252
 30
0.0
 11
164.6905121116472
 21
972.4222848098136
 31
0.0
  0
LINE
  5
83
330
A
100
AcDbEntity
  8
A-001_Pan
100
AcDbLine
 10
181.5084806415212
 20
882.4243888853825
 30
0.0
 11
181.5084806415212
 21
889.2745074444972
 31
0.0
  0
LINE
  5
82
330
A
100
AcDbEntity
  8
A-001_Pan
100
AcDbLine
 10
181.5084806415212
 20
928.6160052448769
 30
0.0
 11
181.5084806415212
 21
972.4222848098136
 31
0.0
  0
LINE
  5
29
330
A
100
AcDbEntity
  8
A-001_Pan
100
AcDbLine
 10
188.9804205635433
 20
972.4222848098136
 30
0.0
 11
225.729787157596
 21
972.4222848098136
 31
0.0
  0
TEXT
  5
383
330
A
100
AcDbEntity
  8
A-043_Txt025
370
     0
100
AcDbText
 10
131.888935
 20
32.16533292443137
 30
0.0
 40
20.0
  1
P000 5020
  7
helvetica regular
100
AcDbText
  0
DIMENSION
  5
398
330
A
100
AcDbEntity
  8
A-031_DimExt
370
     0
100
AcDbDimension
  2
*D31
 10
162.9255627208836
 20
112.1653329244313
 30
0.0
 11
308.4072509446847
 21
127.3334001513221
 31
0.0
 70
    32
 71
     5
 42
290.9633764476023
  3
DIMEXT
100
AcDbAlignedDimension
 13
453.8889391684858
 23
213.7230383801313
 33
0.0
 14
162.9255627208836
 24
173.5500485498773
 34
0.0
100
AcDbRotatedDimension
  0
DIMENSION
  5
3A3
330
A
100
AcDbEntity
  8
A-031_DimExt
370
     0
100
AcDbDimension
  2
*D32
 10
131.888935
 20
72.16533292443137
 30
0.0
 11
292.888937084243
 21
87.33340015132212
 31
0.0
 70
    32
 71
     5
 42
322.0000041684858
  3
DIMEXT
100
AcDbAlignedDimension
 13
453.8889391684858
 23
417.2813629206998
 33
0.0
 14
131.888935
 24
417.2813629206998
 34
0.0
100
AcDbRotatedDimension
  0
DIMENSION
  5
3AE
330
A
100
AcDbEntity
  8
A-031_DimExt
370
     0
100
AcDbDimension
  2
*D33
 10
91.88893500000011
 20
646.2705688338653
 30
0.0
 11
76.72086777310925
 21
399.2179508791484
 31
0.0
 70
    32
 71
     5
 42
494.105235909434
  3
DIMEXT
100
AcDbAlignedDimension
 13
182.8555268259489
 23
152.1653329244314
 33
0.0
 14
191.8870515175925
 24
646.2705688338653
 34
0.0
 50
90.0
100
AcDbRotatedDimension
  0
DIMENSION
  5
3B9
330
A
100
AcDbEntity
  8
A-031_DimExt
370
     0
100
AcDbDimension
  2
*D34
 10
51.88893500000033
 20
677.3093516619046
 30
0.0
 11
36.72086777310946
 21
414.737342293168
 31
0.0
 70
    32
 71
     5
 42
525.1440187374732
  3
DIMEXT
100
AcDbAlignedDimension
 13
322.8865572154402
 23
152.1653329244314
 33
0.0
 14
322.8865572154402
 24
677.3093516619045
 34
0.0
 50
90.0
100
AcDbRotatedDimension
  0
DIMENSION
  5
3C9
330
A
100
AcDbEntity
  8
A-031_DimExt
370
     0
100
AcDbDimension
  2
*D35
 10
207.8735310643498
 20
842.4243888853824
 30
0.0
 11
322.8879947821752
 21
857.5924561122732
 31
0.0
 70
    32
 71
     5
 42
230.0289274356507
  3
DIMEXT
100
AcDbAlignedDimension
 13
437.9024585000005
 23
882.4243888853825
 33
0.0
 14
207.8735310643498
 24
882.4243899618792
 34
0.0
100
AcDbRotatedDimension
  0
DIMENSION
  5
3D4
330
A
100
AcDbEntity
  8
A-031_DimExt
370
     0
100
AcDbDimension
  2
*D36
 10
187.943568978395
 20
802.4243888853824
 30
0.0
 11
322.9396942101304
 21
817.5924561122732
 31
0.0
 70
    32
 71
     5
 42
269.9922504634708
  3
DIMEXT
100
AcDbAlignedDimension
 13
457.9358194418658
 23
887.614394499899
 33
0.0
 14
187.943568978395
 24
887.614394499899
 34
0.0
100
AcDbRotatedDimension
  0
DIMENSION
  5
3DF
330
A
100
AcDbEntity
  8
A-031_DimExt
370
     0
100
AcDbDimension
  2
*D37
 10
162.9255642587363
 20
762.4243888853824
 30
0.0
 11
322.9389761685506
 21
777.5924561122732
 31
0.0
 70
    32
 71
     5
 42
320.0268238196285
  3
DIMEXT
100
AcDbAlignedDimension
 13
482.9523880783648
 23
894.0494831371065
 33
0.0
 14
162.9255642587363
 24
894.0494831371067
 34
0.0
100
AcDbRotatedDimension
  0
DIMENSION
  5
3EA
330
A
100
AcDbEntity
  8
A-031_DimExt
370
     0
100
AcDbDimension
  2
*D38
 10
91.88893500000007
 20
1002.505665494128
 30
0.0
 11
76.72086777310915
 21
942.4650271897551
 31
0.0
 70
    32
 71
     5
 42
120.0812766087453
  3
DIMEXT
100
AcDbAlignedDimension
 13
131.888935
 23
882.4243888853825
 33
0.0
 14
324.5552421085253
 24
1002.505665494127
 34
0.0
 50
90.0
100
AcDbRotatedDimension
  0
ENDSEC
  0
SECTION
  2
OBJECTS
  0
DICTIONARY
  5
19
330
0
100
AcDbDictionary
281
     1
  3
ACAD_2007HEADERVARS_RT
350
41C
  3
ACAD_COLOR
350
31E
  3
ACAD_GROUP
350
1A
  3
ACAD_LAYOUT
350
1E
  3
ACAD_MATERIAL
350
2F4
  3
ACAD_MLEADERSTYLE
350
337
  3
ACAD_MLINESTYLE
350
1B
  3
ACAD_PLOTSETTINGS
350
22
  3
ACAD_PLOTSTYLENAME
350
1F
  3
ACAD_SCALELIST
350
321
  3
ACAD_TABLESTYLE
350
31F
  3
ACAD_VISUALSTYLE
350
30D
  3
ACAD_WIPEOUT_VARS
350
23
  3
ACDB_RECOMPOSE_DATA
350
41A
  3
AcDbVariableDictionary
350
411
  3
AEC_LAYERKEY_STYLES
350
3F7
  3
AEC_PROPERTY_SET_DEFS
350
36D
  3
AEC_VARS
350
3F5
  3
DWGPROPS
350
41B
  0
DICTIONARY
  5
364
330
2
100
AcDbDictionary
280
     1
281
     1
  3
ACAD_LAYERFILTERS
360
3F9
  3
ACAD_LAYERSTATES
360
365
  3
ACLYDICTIONARY
360
3F8
  0
DICTIONARY
  5
3FA
330
14
100
AcDbDictionary
280
     1
281
     1
  3
ADSK_XREC_LAYER_RECONCILED
360
3FB
  0
DICTIONARY
  5
358
330
357
100
AcDbDictionary
280
     1
281
     1
  3
ADSK_XREC_LAYER_RECONCILED
360
3FC
  0
DICTIONARY
  5
35A
330
359
100
AcDbDictionary
280
     1
281
     1
  3
ADSK_XREC_LAYER_RECONCILED
360
3FD
  0
DICTIONARY
  5
35C
330
35B
100
AcDbDictionary
280
     1
281
     1
  3
ADSK_XREC_LAYER_RECONCILED
360
3FE
  0
DICTIONARY
  5
3C6
330
A
100
AcDbDictionary
280
     1
281
     1
  3
ACAD_SORTENTS
360
3C7
  0
DICTIONARY
  5
428
330
33F
100
AcDbDictionary
280
     1
281
     1
  3
AcDbBlockTableRecordData
360
429
  0
DICTIONARY
  5
42B
330
346
100
AcDbDictionary
280
     1
281
     1
  3
AcDbBlockTableRecordData
360
42C
  0
DICTIONARY
  5
41C
102
{ACAD_REACTORS
330
19
102
}
330
19
100
AcDbDictionary
281
     1
  3
DIMFXL
350
41D
  3
DIMJOGANG
350
41E
  0
DICTIONARY
  5
31E
102
{ACAD_REACTORS
330
19
102
}
330
19
100
AcDbDictionary
281
     1
  0
DICTIONARY
  5
1A
102
{ACAD_REACTORS
330
19
102
}
330
19
100
AcDbDictionary
281
     1
  0
DICTIONARY
  5
1E
102
{ACAD_REACTORS
330
19
102
}
330
19
100
AcDbDictionary
281
     1
  3
Layout1
350
21
  3
Model
350
20
  0
DICTIONARY
  5
2F4
102
{ACAD_REACTORS
330
19
102
}
330
19
100
AcDbDictionary
281
     1
  3
ByBlock
350
2FD
  3
ByLayer
350
2F5
  3
Global
350
305
  0
DICTIONARY
  5
337
102
{ACAD_REACTORS
330
19
102
}
330
19
100
AcDbDictionary
281
     1
  3
Standard
350
338
  0
DICTIONARY
  5
1B
102
{ACAD_REACTORS
330
19
102
}
330
19
100
AcDbDictionary
281
     1
  3
Standard
350
1C
  0
DICTIONARY
  5
22
102
{ACAD_REACTORS
330
19
102
}
330
19
100
AcDbDictionary
281
     1
  0
ACDBDICTIONARYWDFLT
  5
1F
102
{ACAD_REACTORS
330
19
102
}
330
19
100
AcDbDictionary
281
     1
  3
Normal
350
1D
100
AcDbDictionaryWithDefault
340
1D
  0
DICTIONARY
  5
321
102
{ACAD_REACTORS
330
19
102
}
330
19
100
AcDbDictionary
281
     1
  3
A0
350
322
  3
A1
350
323
  3
A2
350
324
  3
A3
350
325
  3
A4
350
326
  3
A5
350
327
  3
A6
350
328
  3
A7
350
329
  3
A8
350
32A
  3
A9
350
32B
  3
B0
350
32C
  3
B1
350
32D
  3
B2
350
32E
  3
B3
350
32F
  3
B4
350
330
  3
B5
350
331
  3
B6
350
332
  3
B7
350
333
  3
B8
350
334
  3
B9
350
335
  3
C0
350
336
  0
DICTIONARY
  5
31F
102
{ACAD_REACTORS
330
19
102
}
330
19
100
AcDbDictionary
281
     1
  3
Standard
350
320
  0
DICTIONARY
  5
30D
102
{ACAD_REACTORS
330
19
102
}
330
19
100
AcDbDictionary
281
     1
  3
2dWireframe
350
313
  3
3D Hidden
350
315
  3
3dWireframe
350
314
  3
Basic
350
312
  3
Brighten
350
319
  3
ColorChange
350
31D
  3
Conceptual
350
316
  3
Dim
350
318
  3
Facepattern
350
31C
  3
Flat
350
30E
  3
FlatWithEdges
350
30F
  3
Gouraud
350
310
  3
GouraudWithEdges
350
311
  3
Linepattern
350
31B
  3
Realistic
350
317
  3
Thicken
350
31A
  0
WIPEOUTVARIABLES
  5
23
330
19
100
AcDbWipeoutVariables
 70
     1
  0
XRECORD
  5
41A
102
{ACAD_REACTORS
330
19
102
}
330
19
100
AcDbXrecord
280
     1
 90
        1
330
320
  0
DICTIONARY
  5
411
102
{ACAD_REACTORS
330
19
102
}
330
19
100
AcDbDictionary
281
     1
  3
CANNOSCALE
350
414
  3
CMLEADERSTYLE
350
413
  3
CTABLESTYLE
350
412
  3
DIMASSOC
350
417
  3
INDEXCTL
350
416
  3
SORTENTS
350
415
  0
DICTIONARY
  5
3F7
102
{ACAD_REACTORS
330
19
102
}
330
19
100
AcDbDictionary
281
     1
  0
DICTIONARY
  5
36D
102
{ACAD_REACTORS
330
19
102
}
330
19
100
AcDbDictionary
281
     1
  0
DICTIONARY
  5
3F5
102
{ACAD_REACTORS
330
19
102
}
330
19
100
AcDbDictionary
281
     1
  3
AEC_VARS_DWG_SETUP
350
3F6
  0
XRECORD
  5
41B
102
{ACAD_REACTORS
330
19
102
}
330
19
100
AcDbXrecord
280
     1
  1
DWGPROPS COOKIE
  2

  3

  4

  6

  7

  8
Admin
  9

300
=
301
=
302
=
303
=
304
=
305
=
306
=
307
=
308
=
309
=
 40
0.0067028356481481
 41
2454497.450636389
 42
2454497.457337778
  1

 90
        0
  0
DICTIONARY
  5
3F9
102
{ACAD_REACTORS
330
364
102
}
330
364
100
AcDbDictionary
281
     1
  0
DICTIONARY
  5
365
102
{ACAD_REACTORS
330
364
102
}
330
364
100
AcDbDictionary
281
     1
  0
DICTIONARY
  5
3F8
102
{ACAD_REACTORS
330
364
102
}
330
364
100
AcDbDictionary
281
     1
1001
ACAD
1000
<All
  0
XRECORD
  5
3FB
102
{ACAD_REACTORS
330
3FA
102
}
330
3FA
100
AcDbXrecord
280
     1
290
     1
  0
XRECORD
  5
3FC
102
{ACAD_REACTORS
330
358
102
}
330
358
100
AcDbXrecord
280
     1
290
     1
  0
XRECORD
  5
3FD
102
{ACAD_REACTORS
330
35A
102
}
330
35A
100
AcDbXrecord
280
     1
290
     1
  0
XRECORD
  5
3FE
102
{ACAD_REACTORS
330
35C
102
}
330
35C
100
AcDbXrecord
280
     1
290
     1
  0
SORTENTSTABLE
  5
3C7
102
{ACAD_REACTORS
330
3C6
102
}
330
3C6
100
AcDbSortentsTable
330
A
331
CB
  5
CB
331
87
  5
87
331
102
  5
102
331
383
  5
383
331
C9
  5
C9
331
85
  5
85
331
100
  5
100
331
3A3
  5
3A3
331
83
  5
83
331
C6
  5
C6
331
92
  5
92
331
C4
  5
C4
331
8C
  5
8C
331
90
  5
90
331
C2
  5
C2
331
3AE
  5
3AE
331
8A
  5
8A
331
C0
  5
C0
331
88
  5
88
331
FE
  5
FE
331
107
  5
107
331
CE
  5
CE
331
FC
  5
FC
331
105
  5
105
331
CC
  5
CC
331
3B9
  5
3B9
331
103
  5
103
331
CA
  5
CA
331
86
  5
86
331
101
  5
101
331
29
  5
29
331
84
  5
84
331
C7
  5
C7
331
C8
  5
C8
331
8F
  5
8F
331
82
  5
82
331
93
  5
93
331
C5
  5
C5
331
8D
  5
8D
331
91
  5
91
331
C3
  5
C3
331
8B
  5
8B
331
C1
  5
C1
331
89
  5
89
331
FF
  5
FF
331
CF
  5
CF
331
FD
  5
FD
331
106
  5
106
331
CD
  5
CD
331
398
  5
398
331
104
  5
104
  0
DICTIONARY
  5
429
102
{ACAD_REACTORS
330
428
102
}
330
428
100
AcDbDictionary
280
     1
281
     1
  3
Edit
360
42A
  0
DICTIONARY
  5
42C
102
{ACAD_REACTORS
330
42B
102
}
330
42B
100
AcDbDictionary
280
     1
281
     1
  3
Edit
360
42D
  0
XRECORD
  5
41D
102
{ACAD_REACTORS
330
41C
102
}
330
41C
100
AcDbXrecord
280
     1
 40
0.2
  0
XRECORD
  5
41E
102
{ACAD_REACTORS
330
41C
102
}
330
41C
100
AcDbXrecord
280
     1
 40
1.570796326794896
  0
LAYOUT
  5
21
102
{ACAD_XDICTIONARY
360
421
102
}
102
{ACAD_REACTORS
330
1E
102
}
330
1E
100
AcDbPlotSettings
  1

  2

  4

  6

 40
0.0
 41
0.0
 42
0.0
 43
0.0
 44
0.0
 45
0.0
 46
0.0
 47
0.0
 48
0.0
 49
0.0
140
0.0
141
0.0
142
1.0
143
1.0
 70
     0
 72
     0
 73
     0
 74
     0
  7

 75
     0
147
1.0
148
0.0
149
0.0
100
AcDbLayout
  1
Layout1
 70
     0
 71
     1
 10
0.0
 20
0.0
 11
12.0
 21
9.0
 12
0.0
 22
0.0
 32
0.0
 14
1.000000000000000E+20
 24
1.000000000000000E+20
 34
1.000000000000000E+20
 15
-1.000000000000000E+20
 25
-1.000000000000000E+20
 35
-1.000000000000000E+20
146
0.0
 13
0.0
 23
0.0
 33
0.0
 16
1.0
 26
0.0
 36
0.0
 17
0.0
 27
1.0
 37
0.0
 76
     0
330
B
  0
LAYOUT
  5
20
102
{ACAD_XDICTIONARY
360
41F
102
}
102
{ACAD_REACTORS
330
1E
102
}
330
1E
100
AcDbPlotSettings
  1

  2
HP LaserJet 1100
  4
A4
  6

 40
6.011333465576171
 41
4.233341693878173
 42
6.011322021484375
 43
4.23333740234375
 44
209.9733276367187
 45
296.9259948730469
 46
0.0
 47
0.0
 48
0.0
 49
0.0
140
0.0
141
0.0
142
1.0
143
1.0
 70
 11264
 72
     1
 73
     1
 74
     0
  7

 75
     0
147
1.0
148
496.5631535954197
149
-22.27373441567181
100
AcDbLayout
  1
Model
 70
     0
 71
     0
 10
0.0
 20
0.0
 11
0.0
 21
0.0
 12
0.0
 22
0.0
 32
0.0
 14
0.0
 24
0.0
 34
0.0
 15
0.0
 25
0.0
 35
0.0
146
0.0
 13
0.0
 23
0.0
 33
0.0
 16
0.0
 26
0.0
 36
0.0
 17
0.0
 27
0.0
 37
0.0
 76
     0
330
A
331
15
1001
ACAD_PSEXT
1000
HP LaserJet 1100
1000
HP LaserJet 1100
1000
LPT1:
1000

1070
     0
  0
MATERIAL
  5
2FD
102
{ACAD_XDICTIONARY
360
2FE
102
}
102
{ACAD_REACTORS
330
2F4
102
}
330
2F4
100
AcDbMaterial
  1
ByBlock
 72
     0
 43
0.0208333333333333
 43
0.0
 43
0.0
 43
0.0
 43
0.0
 43
0.0208333333333333
 43
0.0
 43
0.0
 43
0.0
 43
0.0
 43
1.0
 43
0.0
 43
0.0
 43
0.0
 43
0.0
 43
1.0
 77
     0
 47
0.0208333333333333
 47
0.0
 47
0.0
 47
0.0
 47
0.0
 47
0.0208333333333333
 47
0.0
 47
0.0
 47
0.0
 47
0.0
 47
1.0
 47
0.0
 47
0.0
 47
0.0
 47
0.0
 47
1.0
171
     0
 49
0.0208333333333333
 49
0.0
 49
0.0
 49
0.0
 49
0.0
 49
0.0208333333333333
 49
0.0
 49
0.0
 49
0.0
 49
0.0
 49
1.0
 49
0.0
 49
0.0
 49
0.0
 49
0.0
 49
1.0
175
     0
142
0.0208333333333333
142
0.0
142
0.0
142
0.0
142
0.0
142
0.0208333333333333
142
0.0
142
0.0
142
0.0
142
0.0
142
1.0
142
0.0
142
0.0
142
0.0
142
0.0
142
1.0
179
     0
144
0.0208333333333333
144
0.0
144
0.0
144
0.0
144
0.0
144
0.0208333333333333
144
0.0
144
0.0
144
0.0
144
0.0
144
1.0
144
0.0
144
0.0
144
0.0
144
0.0
144
1.0
147
0.0208333333333333
147
0.0
147
0.0
147
0.0
147
0.0
147
0.0208333333333333
147
0.0
147
0.0
147
0.0
147
0.0
147
1.0
147
0.0
147
0.0
147
0.0
147
0.0
147
1.0
  0
MATERIAL
  5
2F5
102
{ACAD_XDICTIONARY
360
2F6
102
}
102
{ACAD_REACTORS
330
2F4
102
}
330
2F4
100
AcDbMaterial
  1
ByLayer
 72
     0
 43
0.0208333333333333
 43
0.0
 43
0.0
 43
0.0
 43
0.0
 43
0.0208333333333333
 43
0.0
 43
0.0
 43
0.0
 43
0.0
 43
1.0
 43
0.0
 43
0.0
 43
0.0
 43
0.0
 43
1.0
 77
     0
 47
0.0208333333333333
 47
0.0
 47
0.0
 47
0.0
 47
0.0
 47
0.0208333333333333
 47
0.0
 47
0.0
 47
0.0
 47
0.0
 47
1.0
 47
0.0
 47
0.0
 47
0.0
 47
0.0
 47
1.0
171
     0
 49
0.0208333333333333
 49
0.0
 49
0.0
 49
0.0
 49
0.0
 49
0.0208333333333333
 49
0.0
 49
0.0
 49
0.0
 49
0.0
 49
1.0
 49
0.0
 49
0.0
 49
0.0
 49
0.0
 49
1.0
175
     0
142
0.0208333333333333
142
0.0
142
0.0
142
0.0
142
0.0
142
0.0208333333333333
142
0.0
142
0.0
142
0.0
142
0.0
142
1.0
142
0.0
142
0.0
142
0.0
142
0.0
142
1.0
179
     0
144
0.0208333333333333
144
0.0
144
0.0
144
0.0
144
0.0
144
0.0208333333333333
144
0.0
144
0.0
144
0.0
144
0.0
144
1.0
144
0.0
144
0.0
144
0.0
144
0.0
144
1.0
147
0.0208333333333333
147
0.0
147
0.0
147
0.0
147
0.0
147
0.0208333333333333
147
0.0
147
0.0
147
0.0
147
0.0
147
1.0
147
0.0
147
0.0
147
0.0
147
0.0
147
1.0
  0
MATERIAL
  5
305
102
{ACAD_XDICTIONARY
360
306
102
}
102
{ACAD_REACTORS
330
2F4
102
}
330
2F4
100
AcDbMaterial
  1
Global
 72
     0
 43
0.0208333333333333
 43
0.0
 43
0.0
 43
0.0
 43
0.0
 43
0.0208333333333333
 43
0.0
 43
0.0
 43
0.0
 43
0.0
 43
1.0
 43
0.0
 43
0.0
 43
0.0
 43
0.0
 43
1.0
 77
     0
 47
0.0208333333333333
 47
0.0
 47
0.0
 47
0.0
 47
0.0
 47
0.0208333333333333
 47
0.0
 47
0.0
 47
0.0
 47
0.0
 47
1.0
 47
0.0
 47
0.0
 47
0.0
 47
0.0
 47
1.0
171
     0
 49
0.0208333333333333
 49
0.0
 49
0.0
 49
0.0
 49
0.0
 49
0.0208333333333333
 49
0.0
 49
0.0
 49
0.0
 49
0.0
 49
1.0
 49
0.0
 49
0.0
 49
0.0
 49
0.0
 49
1.0
175
     0
142
0.0208333333333333
142
0.0
142
0.0
142
0.0
142
0.0
142
0.0208333333333333
142
0.0
142
0.0
142
0.0
142
0.0
142
1.0
142
0.0
142
0.0
142
0.0
142
0.0
142
1.0
179
     0
144
0.0208333333333333
144
0.0
144
0.0
144
0.0
144
0.0
144
0.0208333333333333
144
0.0
144
0.0
144
0.0
144
0.0
144
1.0
144
0.0
144
0.0
144
0.0
144
0.0
144
1.0
147
0.0208333333333333
147
0.0
147
0.0
147
0.0
147
0.0
147
0.0208333333333333
147
0.0
147
0.0
147
0.0
147
0.0
147
1.0
147
0.0
147
0.0
147
0.0
147
0.0
147
1.0
  0
MLEADERSTYLE
  5
338
102
{ACAD_REACTORS
330
337
102
}
330
337
100
AcDbMLeaderStyle
170
     2
171
     1
172
     0
 90
        2
 40
0.0
 41
0.0
173
     1
 91
-1056964608
340
11
 92
       -2
290
     1
 42
2.0
291
     1
 43
0.36
  3
Standard
 44
4.0
300

342
17
174
     1
178
     6
175
     1
176
     0
 93
-1056964608
 45
4.0
292
     0
297
     0
 46
4.0
 94
-1056964608
 47
1.0
 49
1.0
140
1.0
293
     1
141
0.0
294
     1
177
     0
142
1.0
295
     0
296
     0
143
0.125
1001
ACAD_MLEADERVER
1070
     2
  0
MLINESTYLE
  5
1C
102
{ACAD_REACTORS
330
1B
102
}
330
1B
100
AcDbMlineStyle
  2
STANDARD
 70
     0
  3

 62
     0
 51
90.0
 52
90.0
 71
     2
 49
0.5
 62
   256
  6
BYLAYER
 49
-0.5
 62
   256
  6
BYLAYER
  0
ACDBPLACEHOLDER
  5
1D
102
{ACAD_REACTORS
330
1F
102
}
330
1F
  0
SCALE
  5
322
102
{ACAD_REACTORS
330
321
102
}
330
321
100
AcDbScale
 70
     0
300
1:1
140
1.0
141
1.0
290
     1
  0
SCALE
  5
323
102
{ACAD_REACTORS
330
321
102
}
330
321
100
AcDbScale
 70
     0
300
1:2
140
1.0
141
2.0
290
     0
  0
SCALE
  5
324
102
{ACAD_REACTORS
330
321
102
}
330
321
100
AcDbScale
 70
     0
300
1:2.5
140
1.0
141
2.5
290
     0
  0
SCALE
  5
325
102
{ACAD_REACTORS
330
321
102
}
330
321
100
AcDbScale
 70
     0
300
1:5
140
1.0
141
5.0
290
     0
  0
SCALE
  5
326
102
{ACAD_REACTORS
330
321
102
}
330
321
100
AcDbScale
 70
     0
300
1:7.5
140
1.0
141
7.5
290
     0
  0
SCALE
  5
327
102
{ACAD_REACTORS
330
321
102
}
330
321
100
AcDbScale
 70
     0
300
1:10
140
1.0
141
10.0
290
     0
  0
SCALE
  5
328
102
{ACAD_REACTORS
330
321
102
}
330
321
100
AcDbScale
 70
     0
300
1:20
140
1.0
141
20.0
290
     0
  0
SCALE
  5
329
102
{ACAD_REACTORS
330
321
102
}
330
321
100
AcDbScale
 70
     0
300
1:25
140
1.0
141
25.0
290
     0
  0
SCALE
  5
32A
102
{ACAD_REACTORS
330
321
102
}
330
321
100
AcDbScale
 70
     0
300
1:50
140
1.0
141
50.0
290
     0
  0
SCALE
  5
32B
102
{ACAD_REACTORS
330
321
102
}
330
321
100
AcDbScale
 70
     0
300
1:75
140
1.0
141
75.0
290
     0
  0
SCALE
  5
32C
102
{ACAD_REACTORS
330
321
102
}
330
321
100
AcDbScale
 70
     0
300
1:100
140
1.0
141
100.0
290
     0
  0
SCALE
  5
32D
102
{ACAD_REACTORS
330
321
102
}
330
321
100
AcDbScale
 70
     0
300
1:150
140
1.0
141
150.0
290
     0
  0
SCALE
  5
32E
102
{ACAD_REACTORS
330
321
102
}
330
321
100
AcDbScale
 70
     0
300
1:200
140
1.0
141
200.0
290
     0
  0
SCALE
  5
32F
102
{ACAD_REACTORS
330
321
102
}
330
321
100
AcDbScale
 70
     0
300
1:250
140
1.0
141
250.0
290
     0
  0
SCALE
  5
330
102
{ACAD_REACTORS
330
321
102
}
330
321
100
AcDbScale
 70
     0
300
1:500
140
1.0
141
500.0
290
     0
  0
SCALE
  5
331
102
{ACAD_REACTORS
330
321
102
}
330
321
100
AcDbScale
 70
     0
300
1:750
140
1.0
141
750.0
290
     0
  0
SCALE
  5
332
102
{ACAD_REACTORS
330
321
102
}
330
321
100
AcDbScale
 70
     0
300
1:1000
140
1.0
141
1000.0
290
     0
  0
SCALE
  5
333
102
{ACAD_REACTORS
330
321
102
}
330
321
100
AcDbScale
 70
     0
300
1:1250
140
1.0
141
1250.0
290
     0
  0
SCALE
  5
334
102
{ACAD_REACTORS
330
321
102
}
330
321
100
AcDbScale
 70
     0
300
1:2000
140
1.0
141
2000.0
290
     0
  0
SCALE
  5
335
102
{ACAD_REACTORS
330
321
102
}
330
321
100
AcDbScale
 70
     0
300
1:2500
140
1.0
141
2500.0
290
     0
  0
SCALE
  5
336
102
{ACAD_REACTORS
330
321
102
}
330
321
100
AcDbScale
 70
     0
300
1:5000
140
1.0
141
5000.0
290
     0
  0
TABLESTYLE
  5
320
102
{ACAD_XDICTIONARY
360
418
102
}
102
{ACAD_REACTORS
330
31F
102
}
330
31F
100
AcDbTableStyle
  3
Standard
 70
     0
 71
     0
 40
1.5
 41
1.5
280
     0
281
     0
  7
Standard
140
4.5
170
     2
 62
     0
 63
     7
283
     0
274
    -2
284
     1
 64
     0
275
    -2
285
     1
 65
     0
276
    -2
286
     1
 66
     0
277
    -2
287
     1
 67
     0
278
    -2
288
     1
 68
     0
279
    -2
289
     1
 69
     0
  7
Standard
140
6.0
170
     5
 62
     0
 63
     7
283
     0
274
    -2
284
     1
 64
     0
275
    -2
285
     1
 65
     0
276
    -2
286
     1
 66
     0
277
    -2
287
     1
 67
     0
278
    -2
288
     1
 68
     0
279
    -2
289
     1
 69
     0
  7
Standard
140
4.5
170
     5
 62
     0
 63
     7
283
     0
274
    -2
284
     1
 64
     0
275
    -2
285
     1
 65
     0
276
    -2
286
     1
 66
     0
277
    -2
287
     1
 67
     0
278
    -2
288
     1
 68
     0
279
    -2
289
     1
 69
     0
  0
VISUALSTYLE
  5
313
102
{ACAD_REACTORS
330
30D
102
}
330
30D
100
AcDbVisualStyle
  2
2dWireframe
 70
     4
 71
     0
 72
     2
 73
     0
 90
        0
 40
-0.6
 41
-30.0
 62
     5
 63
     7
 74
     1
 91
        4
 64
     7
 65
   257
 75
     1
175
     1
 42
1.0
 92
        0
 66
   257
 43
1.0
 76
     1
 77
     6
 78
     2
 67
     7
 79
     5
170
     0
171
     0
290
     0
174
     0
 93
        1
 44
0.0
173
     0
291
     0
 45
0.0
1001
ACAD
1000
AcDbSavedByObjectVersion
1070
     0
  0
VISUALSTYLE
  5
315
102
{ACAD_REACTORS
330
30D
102
}
330
30D
100
AcDbVisualStyle
  2
3D Hidden
 70
     6
 71
     1
 72
     2
 73
     2
 90
        0
 40
-0.6
 41
-30.0
 62
     5
 63
     7
 74
     2
 91
        2
 64
     7
 65
   257
 75
     2
175
     1
 42
40.0
 92
        0
 66
   257
 43
1.0
 76
     1
 77
     6
 78
     2
 67
     7
 79
     3
170
     0
171
     0
290
     0
174
     0
 93
        1
 44
0.0
173
     0
291
     0
 45
0.0
1001
ACAD
1000
AcDbSavedByObjectVersion
1070
     0
  0
VISUALSTYLE
  5
314
102
{ACAD_REACTORS
330
30D
102
}
330
30D
100
AcDbVisualStyle
  2
3dWireframe
 70
     5
 71
     0
 72
     2
 73
     0
 90
        0
 40
-0.6
 41
-30.0
 62
     5
 63
     7
 74
     1
 91
        4
 64
     7
 65
   257
 75
     1
175
     1
 42
1.0
 92
        0
 66
   257
 43
1.0
 76
     1
 77
     6
 78
     2
 67
     7
 79
     5
170
     0
171
     0
290
     0
174
     0
 93
        1
 44
0.0
173
     0
291
     0
 45
0.0
1001
ACAD
1000
AcDbSavedByObjectVersion
1070
     0
  0
VISUALSTYLE
  5
312
102
{ACAD_REACTORS
330
30D
102
}
330
30D
100
AcDbVisualStyle
  2
Basic
 70
     7
 71
     1
 72
     0
 73
     1
 90
        0
 40
-0.6
 41
-30.0
 62
     5
 63
     7
 74
     0
 91
        4
 64
     7
 65
   257
 75
     1
175
     1
 42
1.0
 92
        8
 66
     7
 43
1.0
 76
     1
 77
     6
 78
     2
 67
     7
 79
     5
170
     0
171
     0
290
     0
174
     0
 93
        1
 44
0.0
173
     0
291
     1
 45
0.0
1001
ACAD
1000
AcDbSavedByObjectVersion
1070
     0
  0
VISUALSTYLE
  5
319
102
{ACAD_REACTORS
330
30D
102
}
330
30D
100
AcDbVisualStyle
  2
Brighten
 70
    12
 71
     2
 72
     2
 73
     0
 90
        0
 40
-0.6
 41
-30.0
 62
     5
 63
     7
 74
     1
 91
        4
 64
     7
 65
   257
 75
     1
175
     1
 42
1.0
 92
        8
 66
     7
 43
1.0
 76
     1
 77
     6
 78
     2
 67
     7
 79
     5
170
     0
171
     0
290
     0
174
     0
 93
        1
 44
50.0
173
     0
291
     1
 45
0.0
1001
ACAD
1000
AcDbSavedByObjectVersion
1070
     0
  0
VISUALSTYLE
  5
31D
102
{ACAD_REACTORS
330
30D
102
}
330
30D
100
AcDbVisualStyle
  2
ColorChange
 70
    16
 71
     2
 72
     2
 73
     3
 90
        0
 40
-0.6
 41
-30.0
 62
     5
 63
     8
 74
     1
 91
        4
 64
     7
 65
   257
 75
     1
175
     1
 42
1.0
 92
        8
 66
     8
 43
1.0
 76
     1
 77
     6
 78
     2
 67
     7
 79
     5
170
     0
171
     0
290
     0
174
     0
 93
        1
 44
0.0
173
     0
291
     1
 45
0.0
1001
ACAD
1000
AcDbSavedByObjectVersion
1070
     0
  0
VISUALSTYLE
  5
316
102
{ACAD_REACTORS
330
30D
102
}
330
30D
100
AcDbVisualStyle
  2
Conceptual
 70
     9
 71
     3
 72
     2
 73
     0
 90
        0
 40
-0.6
 41
-30.0
 62
     5
 63
     7
 74
     2
 91
        2
 64
     7
 65
   257
 75
     1
175
     1
 42
40.0
 92
        8
 66
     7
 43
1.0
 76
     1
 77
     6
 78
     2
 67
     7
 79
     3
170
     0
171
     0
290
     0
174
     0
 93
        1
 44
0.0
173
     0
291
     0
 45
0.0
1001
ACAD
1000
AcDbSavedByObjectVersion
1070
     0
  0
VISUALSTYLE
  5
318
102
{ACAD_REACTORS
330
30D
102
}
330
30D
100
AcDbVisualStyle
  2
Dim
 70
    11
 71
     2
 72
     2
 73
     0
 90
        0
 40
-0.6
 41
-30.0
 62
     5
 63
     7
 74
     1
 91
        4
 64
     7
 65
   257
 75
     1
175
     1
 42
1.0
 92
        8
 66
     7
 43
1.0
 76
     1
 77
     6
 78
     2
 67
     7
 79
     5
170
     0
171
     0
290
     0
174
     0
 93
        1
 44
-50.0
173
     0
291
     1
 45
0.0
1001
ACAD
1000
AcDbSavedByObjectVersion
1070
     0
  0
VISUALSTYLE
  5
31C
102
{ACAD_REACTORS
330
30D
102
}
330
30D
100
AcDbVisualStyle
  2
Facepattern
 70
    15
 71
     2
 72
     2
 73
     0
 90
        0
 40
-0.6
 41
-30.0
 62
     5
 63
     7
 74
     1
 91
        4
 64
     7
 65
   257
 75
     1
175
     1
 42
1.0
 92
        8
 66
     7
 43
1.0
 76
     1
 77
     6
 78
     2
 67
     7
 79
     5
170
     0
171
     0
290
     0
174
     0
 93
        1
 44
0.0
173
     0
291
     1
 45
0.0
1001
ACAD
1000
AcDbSavedByObjectVersion
1070
     0
  0
VISUALSTYLE
  5
30E
102
{ACAD_REACTORS
330
30D
102
}
330
30D
100
AcDbVisualStyle
  2
Flat
 70
     0
 71
     2
 72
     1
 73
     1
 90
        2
 40
-0.6
 41
30.0
 62
     5
 63
     7
 74
     0
 91
        4
 64
     7
 65
   257
 75
     1
175
     1
 42
1.0
 92
        8
 66
     7
 43
1.0
 76
     1
 77
     6
 78
     2
 67
     7
 79
     5
170
     0
171
     0
290
     0
174
     0
 93
       13
 44
0.0
173
     0
291
     1
 45
0.0
1001
ACAD
1000
AcDbSavedByObjectVersion
1070
     0
  0
VISUALSTYLE
  5
30F
102
{ACAD_REACTORS
330
30D
102
}
330
30D
100
AcDbVisualStyle
  2
FlatWithEdges
 70
     1
 71
     2
 72
     1
 73
     1
 90
        2
 40
-0.6
 41
30.0
 62
     5
 63
     7
 74
     1
 91
        4
 64
     7
 65
   257
 75
     1
175
     1
 42
1.0
 92
        0
 66
   257
 43
1.0
 76
     1
 77
     6
 78
     2
 67
     7
 79
     5
170
     0
171
     0
290
     0
174
     0
 93
       13
 44
0.0
173
     0
291
     1
 45
0.0
1001
ACAD
1000
AcDbSavedByObjectVersion
1070
     0
  0
VISUALSTYLE
  5
310
102
{ACAD_REACTORS
330
30D
102
}
330
30D
100
AcDbVisualStyle
  2
Gouraud
 70
     2
 71
     2
 72
     2
 73
     1
 90
        2
 40
-0.6
 41
30.0
 62
     5
 63
     7
 74
     0
 91
        4
 64
     7
 65
   257
 75
     1
175
     1
 42
1.0
 92
        0
 66
     7
 43
1.0
 76
     1
 77
     6
 78
     2
 67
     7
 79
     5
170
     0
171
     0
290
     0
174
     0
 93
       13
 44
0.0
173
     0
291
     1
 45
0.0
1001
ACAD
1000
AcDbSavedByObjectVersion
1070
     0
  0
VISUALSTYLE
  5
311
102
{ACAD_REACTORS
330
30D
102
}
330
30D
100
AcDbVisualStyle
  2
GouraudWithEdges
 70
     3
 71
     2
 72
     2
 73
     1
 90
        2
 40
-0.6
 41
30.0
 62
     5
 63
     7
 74
     1
 91
        4
 64
     7
 65
   257
 75
     1
175
     1
 42
1.0
 92
        0
 66
   257
 43
1.0
 76
     1
 77
     6
 78
     2
 67
     7
 79
     5
170
     0
171
     0
290
     0
174
     0
 93
       13
 44
0.0
173
     0
291
     1
 45
0.0
1001
ACAD
1000
AcDbSavedByObjectVersion
1070
     0
  0
VISUALSTYLE
  5
31B
102
{ACAD_REACTORS
330
30D
102
}
330
30D
100
AcDbVisualStyle
  2
Linepattern
 70
    14
 71
     2
 72
     2
 73
     0
 90
        0
 40
-0.6
 41
-30.0
 62
     5
 63
     7
 74
     1
 91
        4
 64
     7
 65
   257
 75
     7
175
     7
 42
1.0
 92
        8
 66
     7
 43
1.0
 76
     1
 77
     6
 78
     2
 67
     7
 79
     5
170
     0
171
     0
290
     0
174
     0
 93
        1
 44
0.0
173
     0
291
     1
 45
0.0
1001
ACAD
1000
AcDbSavedByObjectVersion
1070
     0
  0
VISUALSTYLE
  5
317
102
{ACAD_REACTORS
330
30D
102
}
330
30D
100
AcDbVisualStyle
  2
Realistic
 70
     8
 71
     2
 72
     2
 73
     0
 90
        0
 40
-0.6
 41
-30.0
 62
     5
 63
     7
 74
     1
 91
        0
 64
     7
 65
   257
 75
     1
175
     1
 42
1.0
 92
        8
 66
     8
 43
1.0
 76
     1
 77
     6
 78
     2
 67
     7
 79
     5
170
     0
171
     0
290
     0
174
     0
 93
       13
 44
0.0
173
     0
291
     0
 45
0.0
1001
ACAD
1000
AcDbSavedByObjectVersion
1070
     0
  0
VISUALSTYLE
  5
31A
102
{ACAD_REACTORS
330
30D
102
}
330
30D
100
AcDbVisualStyle
  2
Thicken
 70
    13
 71
     2
 72
     2
 73
     0
 90
        0
 40
-0.6
 41
-30.0
 62
     5
 63
     7
 74
     1
 91
        4
 64
     7
 65
   257
 75
     1
175
     1
 42
1.0
 92
       12
 66
     7
 43
1.0
 76
     1
 77
     6
 78
     2
 67
     7
 79
     5
170
     0
171
     0
290
     0
174
     0
 93
        1
 44
0.0
173
     0
291
     1
 45
0.0
1001
ACAD
1000
AcDbSavedByObjectVersion
1070
     0
  0
DICTIONARYVAR
  5
414
102
{ACAD_REACTORS
330
411
102
}
330
411
100
DictionaryVariables
280
     0
  1
1:1
  0
DICTIONARYVAR
  5
413
102
{ACAD_REACTORS
330
411
102
}
330
411
100
DictionaryVariables
280
     0
  1
STANDARD
  0
DICTIONARYVAR
  5
412
102
{ACAD_REACTORS
330
411
102
}
330
411
100
DictionaryVariables
280
     0
  1
STANDARD
  0
DICTIONARYVAR
  5
417
102
{ACAD_REACTORS
330
411
102
}
330
411
100
DictionaryVariables
280
     0
  1
1
  0
DICTIONARYVAR
  5
416
102
{ACAD_REACTORS
330
411
102
}
330
411
100
DictionaryVariables
280
     0
  1
0
  0
DICTIONARYVAR
  5
415
102
{ACAD_REACTORS
330
411
102
}
330
411
100
DictionaryVariables
280
     0
  1
127
  0
XRECORD
  5
42A
102
{ACAD_REACTORS
330
429
102
}
330
429
100
AcDbXrecord
280
     1
1070
     0
1070
     1
1070
     1
  0
XRECORD
  5
42D
102
{ACAD_REACTORS
330
42C
102
}
330
42C
100
AcDbXrecord
280
     1
1070
     0
1070
     1
1070
     1
  0
DICTIONARY
  5
421
330
21
100
AcDbDictionary
280
     1
281
     1
  3
ACAD_XREC_ROUNDTRIP
360
422
  0
DICTIONARY
  5
41F
330
20
100
AcDbDictionary
280
     1
281
     1
  3
ACAD_XREC_ROUNDTRIP
360
420
  0
DICTIONARY
  5
2FE
330
2FD
100
AcDbDictionary
280
     1
281
     1
  3
ACAD_XREC_ROUNDTRIP
360
425
  3
BUMPTILE
360
300
  3
DIFFUSETILE
360
2FF
  3
OPACITYTILE
360
303
  3
REFLECTIONTILE
360
302
  3
REFRACTIONTILE
360
304
  3
SPECULARTILE
360
301
  0
DICTIONARY
  5
2F6
330
2F5
100
AcDbDictionary
280
     1
281
     1
  3
ACAD_XREC_ROUNDTRIP
360
424
  3
BUMPTILE
360
2F8
  3
DIFFUSETILE
360
2F7
  3
OPACITYTILE
360
2FB
  3
REFLECTIONTILE
360
2FA
  3
REFRACTIONTILE
360
2FC
  3
SPECULARTILE
360
2F9
  0
DICTIONARY
  5
306
330
305
100
AcDbDictionary
280
     1
281
     1
  3
ACAD_XREC_ROUNDTRIP
360
426
  3
BUMPTILE
360
308
  3
DIFFUSETILE
360
307
  3
OPACITYTILE
360
30B
  3
REFLECTIONTILE
360
30A
  3
REFRACTIONTILE
360
30C
  3
SPECULARTILE
360
309
  0
DICTIONARY
  5
418
330
320
100
AcDbDictionary
280
     1
281
     1
  3
ACAD_ROUNDTRIP_2008_TABLESTYLE_CELLSTYLEMAP
360
419
  3
ACAD_XREC_ROUNDTRIP
360
427
  0
XRECORD
  5
422
102
{ACAD_REACTORS
330
421
102
}
330
421
100
AcDbXrecord
280
     1
102
SHADEPLOT
 70
     0
102
SHADEPLOTRESLEVEL
 70
     2
102
SHADEPLOTCUSTOMDPI
 70
   300
  0
XRECORD
  5
420
102
{ACAD_REACTORS
330
41F
102
}
330
41F
100
AcDbXrecord
280
     1
102
SHADEPLOT
 70
     0
102
SHADEPLOTRESLEVEL
 70
     2
102
SHADEPLOTCUSTOMDPI
 70
   300
  0
XRECORD
  5
425
102
{ACAD_REACTORS
330
2FE
102
}
330
2FE
100
AcDbXrecord
280
     1
102
MATERIAL
148
0.0
149
0.0
149
0.0
 93
        0
 94
      127
282
     0
 72
     0
 77
     0
171
     0
175
     0
179
     0
273
     0
  0
XRECORD
  5
300
102
{ACAD_REACTORS
330
2FE
102
}
330
2FE
100
AcDbXrecord
280
     1
270
     1
271
     1
  0
XRECORD
  5
2FF
102
{ACAD_REACTORS
330
2FE
102
}
330
2FE
100
AcDbXrecord
280
     1
270
     1
271
     1
  0
XRECORD
  5
303
102
{ACAD_REACTORS
330
2FE
102
}
330
2FE
100
AcDbXrecord
280
     1
270
     1
271
     1
  0
XRECORD
  5
302
102
{ACAD_REACTORS
330
2FE
102
}
330
2FE
100
AcDbXrecord
280
     1
270
     1
271
     1
  0
XRECORD
  5
304
102
{ACAD_REACTORS
330
2FE
102
}
330
2FE
100
AcDbXrecord
280
     1
270
     1
271
     1
  0
XRECORD
  5
301
102
{ACAD_REACTORS
330
2FE
102
}
330
2FE
100
AcDbXrecord
280
     1
270
     1
271
     1
  0
XRECORD
  5
424
102
{ACAD_REACTORS
330
2F6
102
}
330
2F6
100
AcDbXrecord
280
     1
102
MATERIAL
148
0.0
149
0.0
149
0.0
 93
        0
 94
      127
282
     0
 72
     0
 77
     0
171
     0
175
     0
179
     0
273
     0
  0
XRECORD
  5
2F8
102
{ACAD_REACTORS
330
2F6
102
}
330
2F6
100
AcDbXrecord
280
     1
270
     1
271
     1
  0
XRECORD
  5
2F7
102
{ACAD_REACTORS
330
2F6
102
}
330
2F6
100
AcDbXrecord
280
     1
270
     1
271
     1
  0
XRECORD
  5
2FB
102
{ACAD_REACTORS
330
2F6
102
}
330
2F6
100
AcDbXrecord
280
     1
270
     1
271
     1
  0
XRECORD
  5
2FA
102
{ACAD_REACTORS
330
2F6
102
}
330
2F6
100
AcDbXrecord
280
     1
270
     1
271
     1
  0
XRECORD
  5
2FC
102
{ACAD_REACTORS
330
2F6
102
}
330
2F6
100
AcDbXrecord
280
     1
270
     1
271
     1
  0
XRECORD
  5
2F9
102
{ACAD_REACTORS
330
2F6
102
}
330
2F6
100
AcDbXrecord
280
     1
270
     1
271
     1
  0
XRECORD
  5
426
102
{ACAD_REACTORS
330
306
102
}
330
306
100
AcDbXrecord
280
     1
102
MATERIAL
148
0.0
149
0.0
149
0.0
 93
        0
 94
      127
282
     0
 72
     0
 77
     0
171
     0
175
     0
179
     0
273
     0
  0
XRECORD
  5
308
102
{ACAD_REACTORS
330
306
102
}
330
306
100
AcDbXrecord
280
     1
270
     1
271
     1
  0
XRECORD
  5
307
102
{ACAD_REACTORS
330
306
102
}
330
306
100
AcDbXrecord
280
     1
270
     1
271
     1
  0
XRECORD
  5
30B
102
{ACAD_REACTORS
330
306
102
}
330
306
100
AcDbXrecord
280
     1
270
     1
271
     1
  0
XRECORD
  5
30A
102
{ACAD_REACTORS
330
306
102
}
330
306
100
AcDbXrecord
280
     1
270
     1
271
     1
  0
XRECORD
  5
30C
102
{ACAD_REACTORS
330
306
102
}
330
306
100
AcDbXrecord
280
     1
270
     1
271
     1
  0
XRECORD
  5
309
102
{ACAD_REACTORS
330
306
102
}
330
306
100
AcDbXrecord
280
     1
270
     1
271
     1
  0
CELLSTYLEMAP
  5
419
102
{ACAD_REACTORS
330
418
102
}
330
418
100
AcDbCellStyleMap
 90
        3
300
CELLSTYLE
  1
TABLEFORMAT_BEGIN
 90
        5
170
     1
 91
        0
 92
    32768
 62
   257
 93
        1
300
CONTENTFORMAT
  1
CONTENTFORMAT_BEGIN
 90
        0
 91
        0
 92
      512
 93
        0
300

 40
0.0
140
1.0
 94
        5
 62
     0
340
17
144
6.0
309
CONTENTFORMAT_END
171
     1
301
MARGIN
  1
CELLMARGIN_BEGIN
 40
1.5
 40
1.5
 40
1.5
 40
1.5
 40
4.5
 40
4.5
309
CELLMARGIN_END
 94
        6
 95
        1
302
GRIDFORMAT
  1
GRIDFORMAT_BEGIN
 90
        0
 91
        1
 62
     0
 92
       -2
340
0
 93
        0
 40
1.125
309
GRIDFORMAT_END
 95
        2
302
GRIDFORMAT
  1
GRIDFORMAT_BEGIN
 90
        0
 91
        1
 62
     0
 92
       -2
340
0
 93
        0
 40
1.125
309
GRIDFORMAT_END
 95
        4
302
GRIDFORMAT
  1
GRIDFORMAT_BEGIN
 90
        0
 91
        1
 62
     0
 92
       -2
340
0
 93
        0
 40
1.125
309
GRIDFORMAT_END
 95
        8
302
GRIDFORMAT
  1
GRIDFORMAT_BEGIN
 90
        0
 91
        1
 62
     0
 92
       -2
340
0
 93
        0
 40
1.125
309
GRIDFORMAT_END
 95
       16
302
GRIDFORMAT
  1
GRIDFORMAT_BEGIN
 90
        0
 91
        1
 62
     0
 92
       -2
340
0
 93
        0
 40
1.125
309
GRIDFORMAT_END
 95
       32
302
GRIDFORMAT
  1
GRIDFORMAT_BEGIN
 90
        0
 91
        1
 62
     0
 92
       -2
340
0
 93
        0
 40
1.125
309
GRIDFORMAT_END
309
TABLEFORMAT_END
  1
CELLSTYLE_BEGIN
 90
        1
 91
        1
300
_TITLE
309
CELLSTYLE_END
300
CELLSTYLE
  1
TABLEFORMAT_BEGIN
 90
        5
170
     1
 91
        0
 92
        0
 62
   257
 93
        1
300
CONTENTFORMAT
  1
CONTENTFORMAT_BEGIN
 90
        0
 91
        0
 92
      512
 93
        0
300

 40
0.0
140
1.0
 94
        5
 62
     0
340
17
144
4.5
309
CONTENTFORMAT_END
171
     1
301
MARGIN
  1
CELLMARGIN_BEGIN
 40
1.5
 40
1.5
 40
1.5
 40
1.5
 40
4.5
 40
4.5
309
CELLMARGIN_END
 94
        6
 95
        1
302
GRIDFORMAT
  1
GRIDFORMAT_BEGIN
 90
        0
 91
        1
 62
     0
 92
       -2
340
0
 93
        0
 40
1.125
309
GRIDFORMAT_END
 95
        2
302
GRIDFORMAT
  1
GRIDFORMAT_BEGIN
 90
        0
 91
        1
 62
     0
 92
       -2
340
0
 93
        0
 40
1.125
309
GRIDFORMAT_END
 95
        4
302
GRIDFORMAT
  1
GRIDFORMAT_BEGIN
 90
        0
 91
        1
 62
     0
 92
       -2
340
0
 93
        0
 40
1.125
309
GRIDFORMAT_END
 95
        8
302
GRIDFORMAT
  1
GRIDFORMAT_BEGIN
 90
        0
 91
        1
 62
     0
 92
       -2
340
0
 93
        0
 40
1.125
309
GRIDFORMAT_END
 95
       16
302
GRIDFORMAT
  1
GRIDFORMAT_BEGIN
 90
        0
 91
        1
 62
     0
 92
       -2
340
0
 93
        0
 40
1.125
309
GRIDFORMAT_END
 95
       32
302
GRIDFORMAT
  1
GRIDFORMAT_BEGIN
 90
        0
 91
        1
 62
     0
 92
       -2
340
0
 93
        0
 40
1.125
309
GRIDFORMAT_END
309
TABLEFORMAT_END
  1
CELLSTYLE_BEGIN
 90
        2
 91
        1
300
_HEADER
309
CELLSTYLE_END
300
CELLSTYLE
  1
TABLEFORMAT_BEGIN
 90
        5
170
     1
 91
        0
 92
        0
 62
   257
 93
        1
300
CONTENTFORMAT
  1
CONTENTFORMAT_BEGIN
 90
        0
 91
        0
 92
      512
 93
        0
300

 40
0.0
140
1.0
 94
        2
 62
     0
340
17
144
4.5
309
CONTENTFORMAT_END
171
     1
301
MARGIN
  1
CELLMARGIN_BEGIN
 40
1.5
 40
1.5
 40
1.5
 40
1.5
 40
4.5
 40
4.5
309
CELLMARGIN_END
 94
        6
 95
        1
302
GRIDFORMAT
  1
GRIDFORMAT_BEGIN
 90
        0
 91
        1
 62
     0
 92
       -2
340
0
 93
        0
 40
1.125
309
GRIDFORMAT_END
 95
        2
302
GRIDFORMAT
  1
GRIDFORMAT_BEGIN
 90
        0
 91
        1
 62
     0
 92
       -2
340
0
 93
        0
 40
1.125
309
GRIDFORMAT_END
 95
        4
302
GRIDFORMAT
  1
GRIDFORMAT_BEGIN
 90
        0
 91
        1
 62
     0
 92
       -2
340
0
 93
        0
 40
1.125
309
GRIDFORMAT_END
 95
        8
302
GRIDFORMAT
  1
GRIDFORMAT_BEGIN
 90
        0
 91
        1
 62
     0
 92
       -2
340
0
 93
        0
 40
1.125
309
GRIDFORMAT_END
 95
       16
302
GRIDFORMAT
  1
GRIDFORMAT_BEGIN
 90
        0
 91
        1
 62
     0
 92
       -2
340
0
 93
        0
 40
1.125
309
GRIDFORMAT_END
 95
       32
302
GRIDFORMAT
  1
GRIDFORMAT_BEGIN
 90
        0
 91
        1
 62
     0
 92
       -2
340
0
 93
        0
 40
1.125
309
GRIDFORMAT_END
309
TABLEFORMAT_END
  1
CELLSTYLE_BEGIN
 90
        3
 91
        2
300
_DATA
309
CELLSTYLE_END
  0
XRECORD
  5
427
102
{ACAD_REACTORS
330
418
102
}
330
418
100
AcDbXrecord
280
     1
102
ACAD_ROUNDTRIP_PRE2007_TABLESTYLE
 90
      512
 91
        0
  1

 92
      512
 93
        0
  2

 94
      512
 95
        0
  3

  0
ENDSEC
  0
EOF
