  0
SECTION
  2
HEADER
  9
$ACADVER
  1
AC1015
  9
$ACADMAINTVER
 70
    20
  9
$DWGCODEPAGE
  3
ANSI_1252
  9
$INSBASE
 10
0.0
 20
0.0
 30
0.0
  9
$EXTMIN
 10
-11.00135993705839
 20
-351.5789305381143
 30
-0.0015258207003583
  9
$EXTMAX
 10
614.5555568176558
 20
299.6120453109904
 30
0.0000000349246037
  9
$LIMMIN
 10
107.532282
 20
62.38981800000001
  9
$LIMMAX
 10
230.083803
 20
199.661715
  9
$ORTHOMODE
 70
     1
  9
$REGENMODE
 70
     1
  9
$FILLMODE
 70
     1
  9
$QTEXTMODE
 70
     0
  9
$MIRRTEXT
 70
     1
  9
$LTSCALE
 40
1.0
  9
$ATTMODE
 70
     1
  9
$TEXTSIZE
 40
0.0
  9
$TRACEWID
 40
0.05
  9
$TEXTSTYLE
  7
Standard
  9
$CLAYER
  8
A-031_DimExt
  9
$CELTYPE
  6
ByLayer
  9
$CECOLOR
 62
   256
  9
$CELTSCALE
 40
1.0
  9
$DISPSILH
 70
     0
  9
$DIMSCALE
 40
1.0
  9
$DIMASZ
 40
0.2
  9
$DIMEXO
 40
0.5
  9
$DIMDLI
 40
0.5
  9
$DIMRND
 40
0.0
  9
$DIMDLE
 40
0.0
  9
$DIMEXE
 40
0.2
  9
$DIMTP
 40
0.0
  9
$DIMTM
 40
0.0
  9
$DIMTXT
 40
0.4
  9
$DIMCEN
 40
0.1
  9
$DIMTSZ
 40
0.0
  9
$DIMTOL
 70
     0
  9
$DIMLIM
 70
     0
  9
$DIMTIH
 70
     0
  9
$DIMTOH
 70
     0
  9
$DIMSE1
 70
     1
  9
$DIMSE2
 70
     1
  9
$DIMTAD
 70
     1
  9
$DIMZIN
 70
     1
  9
$DIMBLK
  1

  9
$DIMASO
 70
     1
  9
$DIMSHO
 70
     1
  9
$DIMPOST
  1

  9
$DIMAPOST
  1
m
  9
$DIMALT
 70
     0
  9
$DIMALTD
 70
     2
  9
$DIMALTF
 40
0.01
  9
$DIMLFAC
 40
1.0
  9
$DIMTOFL
 70
     1
  9
$DIMTVP
 40
0.0
  9
$DIMTIX
 70
     1
  9
$DIMSOXD
 70
     0
  9
$DIMSAH
 70
     1
  9
$DIMBLK1
  1
DIML
  9
$DIMBLK2
  1
DIMR
  9
$DIMSTYLE
  2
DIMEXT
  9
$DIMCLRD
 70
     0
  9
$DIMCLRE
 70
     0
  9
$DIMCLRT
 70
     0
  9
$DIMTFAC
 40
1.0
  9
$DIMGAP
 40
0.1
  9
$DIMJUST
 70
     0
  9
$DIMSD1
 70
     0
  9
$DIMSD2
 70
     0
  9
$DIMTOLJ
 70
     1
  9
$DIMTZIN
 70
     0
  9
$DIMALTZ
 70
     8
  9
$DIMALTTZ
 70
     0
  9
$DIMUPT
 70
     0
  9
$DIMDEC
 70
     0
  9
$DIMTDEC
 70
     0
  9
$DIMALTU
 70
     2
  9
$DIMALTTD
 70
     2
  9
$DIMTXSTY
  7
helvetica regular
  9
$DIMAUNIT
 70
     1
  9
$DIMADEC
 70
     0
  9
$DIMALTRND
 40
0.0
  9
$DIMAZIN
 70
     0
  9
$DIMDSEP
 70
    46
  9
$DIMATFIT
 70
     3
  9
$DIMFRAC
 70
     1
  9
$DIMLDRBLK
  1

  9
$DIMLUNIT
 70
     2
  9
$DIMLWD
 70
    -2
  9
$DIMLWE
 70
    -2
  9
$DIMTMOVE
 70
     0
  9
$LUNITS
 70
     2
  9
$LUPREC
 70
     3
  9
$SKETCHINC
 40
0.1
  9
$FILLETRAD
 40
0.0
  9
$AUNITS
 70
     0
  9
$AUPREC
 70
     2
  9
$MENU
  1
acad
  9
$ELEVATION
 40
0.0
  9
$PELEVATION
 40
0.0
  9
$THICKNESS
 40
0.0
  9
$LIMCHECK
 70
     0
  9
$CHAMFERA
 40
0.0
  9
$CHAMFERB
 40
0.0
  9
$CHAMFERC
 40
0.0
  9
$CHAMFERD
 40
0.0
  9
$SKPOLY
 70
     0
  9
$TDCREATE
 40
2454446.690736030
  9
$TDUCREATE
 40
2454446.649069363
  9
$TDUPDATE
 40
2454446.709568137
  9
$TDUUPDATE
 40
2454446.667901470
  9
$TDINDWG
 40
0.0188340856
  9
$TDUSRTIMER
 40
0.0188339120
  9
$USRTIMER
 70
     1
  9
$ANGBASE
 50
0.0
  9
$ANGDIR
 70
     0
  9
$PDMODE
 70
     0
  9
$PDSIZE
 40
0.0
  9
$PLINEWID
 40
0.0
  9
$SPLFRAME
 70
     0
  9
$SPLINETYPE
 70
     6
  9
$SPLINESEGS
 70
     8
  9
$HANDSEED
  5
3D3
  9
$SURFTAB1
 70
     6
  9
$SURFTAB2
 70
     6
  9
$SURFTYPE
 70
     6
  9
$SURFU
 70
     6
  9
$SURFV
 70
     6
  9
$UCSBASE
  2

  9
$UCSNAME
  2

  9
$UCSORG
 10
0.0
 20
0.0
 30
0.0
  9
$UCSXDIR
 10
1.0
 20
0.0
 30
0.0
  9
$UCSYDIR
 10
0.0
 20
1.0
 30
0.0
  9
$UCSORTHOREF
  2

  9
$UCSORTHOVIEW
 70
     0
  9
$UCSORGTOP
 10
0.0
 20
0.0
 30
0.0
  9
$UCSORGBOTTOM
 10
0.0
 20
0.0
 30
0.0
  9
$UCSORGLEFT
 10
0.0
 20
0.0
 30
0.0
  9
$UCSORGRIGHT
 10
0.0
 20
0.0
 30
0.0
  9
$UCSORGFRONT
 10
0.0
 20
0.0
 30
0.0
  9
$UCSORGBACK
 10
0.0
 20
0.0
 30
0.0
  9
$PUCSBASE
  2

  9
$PUCSNAME
  2

  9
$PUCSORG
 10
0.0
 20
0.0
 30
0.0
  9
$PUCSXDIR
 10
1.0
 20
0.0
 30
0.0
  9
$PUCSYDIR
 10
0.0
 20
1.0
 30
0.0
  9
$PUCSORTHOREF
  2

  9
$PUCSORTHOVIEW
 70
     0
  9
$PUCSORGTOP
 10
0.0
 20
0.0
 30
0.0
  9
$PUCSORGBOTTOM
 10
0.0
 20
0.0
 30
0.0
  9
$PUCSORGLEFT
 10
0.0
 20
0.0
 30
0.0
  9
$PUCSORGRIGHT
 10
0.0
 20
0.0
 30
0.0
  9
$PUCSORGFRONT
 10
0.0
 20
0.0
 30
0.0
  9
$PUCSORGBACK
 10
0.0
 20
0.0
 30
0.0
  9
$USERI1
 70
     0
  9
$USERI2
 70
     0
  9
$USERI3
 70
     0
  9
$USERI4
 70
     0
  9
$USERI5
 70
     0
  9
$USERR1
 40
0.0
  9
$USERR2
 40
0.0
  9
$USERR3
 40
0.0
  9
$USERR4
 40
0.0
  9
$USERR5
 40
0.0
  9
$WORLDVIEW
 70
     1
  9
$SHADEDGE
 70
     3
  9
$SHADEDIF
 70
    70
  9
$TILEMODE
 70
     1
  9
$MAXACTVP
 70
    16
  9
$PINSBASE
 10
0.0
 20
0.0
 30
0.0
  9
$PLIMCHECK
 70
     0
  9
$PEXTMIN
 10
1.000000000000000E+20
 20
1.000000000000000E+20
 30
1.000000000000000E+20
  9
$PEXTMAX
 10
-1.000000000000000E+20
 20
-1.000000000000000E+20
 30
-1.000000000000000E+20
  9
$PLIMMIN
 10
0.0
 20
0.0
  9
$PLIMMAX
 10
12.0
 20
9.0
  9
$UNITMODE
 70
     0
  9
$VISRETAIN
 70
     0
  9
$PLINEGEN
 70
     1
  9
$PSLTSCALE
 70
     0
  9
$TREEDEPTH
 70
  3020
  9
$CMLSTYLE
  2
Standard
  9
$CMLJUST
 70
     0
  9
$CMLSCALE
 40
1.0
  9
$PROXYGRAPHICS
 70
     0
  9
$MEASUREMENT
 70
     1
  9
$CELWEIGHT
370
     0
  9
$ENDCAPS
280
     0
  9
$JOINSTYLE
280
     0
  9
$LWDISPLAY
290
     0
  9
$INSUNITS
 70
     4
  9
$HYPERLINKBASE
  1

  9
$STYLESHEET
  1

  9
$XEDIT
290
     1
  9
$CEPSNTYPE
380
     0
  9
$PSTYLEMODE
290
     1
  9
$FINGERPRINTGUID
  2

  9
$VERSIONGUID
  2
{49E07499-C16B-4BF8-AAF3-20585814801A}
  9
$EXTNAMES
290
     1
  9
$PSVPSCALE
 40
0.0
  9
$OLESTARTUP
290
     0
  0
ENDSEC
  0
SECTION
  2
CLASSES
  0
CLASS
  1
IMAGE
  2
AcDbRasterImage
  3
ISM
 90
    34943
280
     0
281
     1
  0
CLASS
  1
DICTIONARYVAR
  2
AcDbDictionaryVar
  3
ObjectDBX Classes
 90
        0
280
     0
281
     0
  0
CLASS
  1
RASTERVARIABLES
  2
AcDbRasterVariables
  3
ISM
 90
    32768
280
     0
281
     0
  0
CLASS
  1
IMAGEDEF
  2
AcDbRasterImageDef
  3
ISM
 90
    32768
280
     0
281
     0
  0
CLASS
  1
IMAGEDEF_REACTOR
  2
AcDbRasterImageDefReactor
  3
ISM
 90
    32769
280
     0
281
     0
  0
CLASS
  1
IDBUFFER
  2
AcDbIdBuffer
  3
ObjectDBX Classes
 90
    32768
280
     0
281
     0
  0
CLASS
  1
SPATIAL_FILTER
  2
AcDbSpatialFilter
  3
ObjectDBX Classes
 90
    32768
280
     0
281
     0
  0
CLASS
  1
SORTENTSTABLE
  2
AcDbSortentsTable
  3
ObjectDBX Classes
 90
        0
280
     0
281
     0
  0
CLASS
  1
LAYER_INDEX
  2
AcDbLayerIndex
  3
ObjectDBX Classes
 90
    32768
280
     0
281
     0
  0
CLASS
  1
SPATIAL_INDEX
  2
AcDbSpatialIndex
  3
ObjectDBX Classes
 90
    32768
280
     0
281
     0
  0
CLASS
  1
OBJECT_PTR
  2
CAseDLPNTableRecord
  3
"ASE-LPNTableRecord"
 90
    32769
280
     0
281
     0
  0
CLASS
  1
LAYOUT
  2
AcDbLayout
  3
ObjectDBX Classes
 90
        0
280
     0
281
     0
  0
CLASS
  1
PLOTSETTINGS
  2
AcDbPlotSettings
  3
ObjectDBX Classes
 90
    32768
280
     0
281
     0
  0
CLASS
  1
ACDBDICTIONARYWDFLT
  2
AcDbDictionaryWithDefault
  3
ObjectDBX Classes
 90
        0
280
     0
281
     0
  0
CLASS
  1
ACDBPLACEHOLDER
  2
AcDbPlaceHolder
  3
ObjectDBX Classes
 90
        0
280
     0
281
     0
  0
CLASS
  1
VBA_PROJECT
  2
AcDbVbaProject
  3
acad
 90
    32768
280
     0
281
     0
  0
CLASS
  1
WIPEOUT
  2
AcDbWipeout
  3
"WipeOut|Product Desc: Object Enabler for WipeOut entity                        |Company: Autodesk, Inc.                        |WEB Address: www.autodesk.com"
 90
    34943
280
     0
281
     1
  0
CLASS
  1
WIPEOUTVARIABLES
  2
AcDbWipeoutVariables
  3
"WipeOut|Product Desc:     WipeOut Dbx Application|Company:          Autodesk, Inc.|WEB Address:      www.autodesk.com"
 90
        0
280
     0
281
     0
  0
CLASS
  1
RTEXT
  2
RText
  3
RText|AutoCAD Express Tool|expresstools@autodesk.com
 90
    32768
280
     0
281
     1
  0
CLASS
  1
ARCALIGNEDTEXT
  2
AcDbArcAlignedText
  3
ATEXT|AutoCAD Express Tool|expresstools@autodesk.com
 90
    32768
280
     0
281
     1
  0
CLASS
  1
MATERIAL
  2
AcDbMaterial
  3
ObjectDBX Classes
 90
     1153
280
     0
281
     0
  0
CLASS
  1
VISUALSTYLE
  2
AcDbVisualStyle
  3
ObjectDBX Classes
 90
     4095
280
     0
281
     0
  0
CLASS
  1
TABLESTYLE
  2
AcDbTableStyle
  3
ObjectDBX Classes
 90
     4095
280
     0
281
     0
  0
CLASS
  1
SCALE
  2
AcDbScale
  3
ObjectDBX Classes
 90
     1153
280
     0
281
     0
  0
CLASS
  1
MLEADERSTYLE
  2
AcDbMLeaderStyle
  3
ACDB_MLEADERSTYLE_CLASS
 90
     4095
280
     0
281
     0
  0
CLASS
  1
CELLSTYLEMAP
  2
AcDbCellStyleMap
  3
ObjectDBX Classes
 90
     1152
280
     0
281
     0
  0
CLASS
  1
AEC_VARS_DWG_SETUP
  2
AecDbVarsDwgSetup
  3
AecBase50|Product Desc: Autodesk Architectural Desktop 2007 |Company: Autodesk,Inc. |WEB Address: www.autodesk.com
 90
      129
280
     0
281
     0
  0
ENDSEC
  0
SECTION
  2
TABLES
  0
TABLE
  2
VPORT
  5
7
330
0
100
AcDbSymbolTable
 70
     1
  0
VPORT
  5
15
330
7
100
AcDbSymbolTableRecord
100
AcDbViewportTableRecord
  2
*ACTIVE
 70
     0
 10
0.0
 20
0.0
 11
1.0
 21
1.0
 12
301.7770984402988
 22
-25.98344261356192
 13
0.0
 23
0.0
 14
1.0
 24
1.0
 15
0.0
 25
0.0
 16
0.0
 26
0.0
 36
1.0
 17
0.0
 27
0.0
 37
0.0
 40
656.2065674474289
 41
1.505141388174807
 42
50.0
 43
0.0
 44
0.0
 50
0.0
 51
0.0
 71
     0
 72
   100
 73
     1
 74
     1
 75
     0
 76
     0
 77
     0
 78
     0
281
     0
 65
     0
110
0.0
120
0.0
130
0.0
111
1.0
121
0.0
131
0.0
112
0.0
122
1.0
132
0.0
 79
     0
146
0.0
  0
ENDTAB
  0
TABLE
  2
LTYPE
  5
4
330
0
100
AcDbSymbolTable
 70
     1
  0
LTYPE
  5
11
330
4
100
AcDbSymbolTableRecord
100
AcDbLinetypeTableRecord
  2
ByBlock
 70
     0
  3

 72
    65
 73
     0
 40
0.0
  0
LTYPE
  5
12
330
4
100
AcDbSymbolTableRecord
100
AcDbLinetypeTableRecord
  2
ByLayer
 70
     0
  3

 72
    65
 73
     0
 40
0.0
  0
LTYPE
  5
13
330
4
100
AcDbSymbolTableRecord
100
AcDbLinetypeTableRecord
  2
Continuous
 70
     0
  3
Solid line
 72
    65
 73
     0
 40
0.0
  0
ENDTAB
  0
TABLE
  2
LAYER
  5
2
102
{ACAD_XDICTIONARY
360
28B
102
}
330
0
100
AcDbSymbolTable
 70
     6
  0
LAYER
  5
14
102
{ACAD_XDICTIONARY
360
381
102
}
330
2
100
AcDbSymbolTableRecord
100
AcDbLayerTableRecord
  2
0
 70
     0
 62
     7
  6
Continuous
370
    -3
390
1D
  0
LAYER
  5
27E
102
{ACAD_XDICTIONARY
360
27F
102
}
330
2
100
AcDbSymbolTableRecord
100
AcDbLayerTableRecord
  2
A-001_Pan
 70
     0
 62
     7
  6
Continuous
370
     9
390
1D
  0
LAYER
  5
280
102
{ACAD_XDICTIONARY
360
281
102
}
330
2
100
AcDbSymbolTableRecord
100
AcDbLayerTableRecord
  2
A-043_Txt025
 70
     0
 62
     7
  6
Continuous
370
     9
390
1D
1001
AcAecLayerStandard
1000

1000

  0
LAYER
  5
282
102
{ACAD_XDICTIONARY
360
283
102
}
330
2
100
AcDbSymbolTableRecord
100
AcDbLayerTableRecord
  2
A-031_DimExt
 70
     0
 62
     7
  6
Continuous
370
     9
390
1D
1001
AcAecLayerStandard
1000

1000

  0
LAYER
  5
284
330
2
100
AcDbSymbolTableRecord
100
AcDbLayerTableRecord
  2
Defpoints
 70
     0
 62
     7
  6
Continuous
290
     0
370
     9
390
1D
  0
ENDTAB
  0
TABLE
  2
STYLE
  5
3
330
0
100
AcDbSymbolTable
 70
     7
  0
STYLE
  5
17
330
3
100
AcDbSymbolTableRecord
100
AcDbTextStyleTableRecord
  2
Standard
 70
     0
 40
0.0
 41
1.0
 50
0.0
 71
     0
 42
0.0
  3
txt
  4

  0
STYLE
  5
285
330
3
100
AcDbSymbolTableRecord
100
AcDbTextStyleTableRecord
  2
helvetica regular
 70
     0
 40
0.0
 41
1.0
 50
0.0
 71
     0
 42
20.0
  3
LTe50259.ttf
  4

1001
ACAD
1000
HelveticaNeue LT 55 Roman
1071
        2
  0
ENDTAB
  0
TABLE
  2
VIEW
  5
5
330
0
100
AcDbSymbolTable
 70
     0
  0
ENDTAB
  0
TABLE
  2
UCS
  5
6
330
0
100
AcDbSymbolTable
 70
     0
  0
ENDTAB
  0
TABLE
  2
APPID
  5
8
330
0
100
AcDbSymbolTable
 70
     9
  0
APPID
  5
16
330
8
100
AcDbSymbolTableRecord
100
AcDbRegAppTableRecord
  2
ACAD
 70
     0
  0
APPID
  5
25E
330
8
100
AcDbSymbolTableRecord
100
AcDbRegAppTableRecord
  2
ACAD_MLEADERVER
 70
     0
  0
APPID
  5
263
330
8
100
AcDbSymbolTableRecord
100
AcDbRegAppTableRecord
  2
ACAD_EXEMPT_FROM_CAD_STANDARDS
 70
     0
  0
APPID
  5
264
330
8
100
AcDbSymbolTableRecord
100
AcDbRegAppTableRecord
  2
ACAD_PSEXT
 70
     0
  0
APPID
  5
287
330
8
100
AcDbSymbolTableRecord
100
AcDbRegAppTableRecord
  2
AcAecLayerStandard
 70
     0
  0
APPID
  5
288
330
8
100
AcDbSymbolTableRecord
100
AcDbRegAppTableRecord
  2
ACAD_DSTYLE_DIMJOGGED_JOGANGLE_SYMBOL
 70
     0
  0
APPID
  5
289
330
8
100
AcDbSymbolTableRecord
100
AcDbRegAppTableRecord
  2
ACAD_DSTYLE_DIMJAG
 70
     0
  0
APPID
  5
28A
330
8
100
AcDbSymbolTableRecord
100
AcDbRegAppTableRecord
  2
ACAD_DSTYLE_DIMTALN
 70
     0
  0
APPID
  5
3D2
330
8
100
AcDbSymbolTableRecord
100
AcDbRegAppTableRecord
  2
ACAD_DSTYLE_DIMEXT_LENGTH
 70
     0
  0
ENDTAB
  0
TABLE
  2
DIMSTYLE
  5
9
330
0
100
AcDbSymbolTable
 70
     4
100
AcDbDimStyleTable
 71
     2
340
286
340
18
  0
DIMSTYLE
105
18
330
9
100
AcDbSymbolTableRecord
100
AcDbDimStyleTableRecord
  2
Standard
 70
     0
340
17
  0
DIMSTYLE
105
286
102
{ACAD_REACTORS
330
290
330
2D7
330
360
330
36B
330
376
102
}
330
9
100
AcDbSymbolTableRecord
100
AcDbDimStyleTableRecord
  2
DIMEXT
 70
     0
  4
m
 40
50.0
 41
0.2
 42
0.5
 43
0.5
 44
0.2
 73
     0
 74
     0
 75
     1
 76
     1
 77
     1
 78
     1
140
0.4
141
0.1
143
0.01
147
0.1
172
     1
173
     1
174
     1
271
     0
272
     0
275
     1
276
     1
285
     8
340
285
343
266
344
26D
1001
ACAD_DSTYLE_DIMJAG
1070
   388
1040
1.5
1001
ACAD_DSTYLE_DIMTALN
1070
   392
1070
     0
1001
ACAD_DSTYLE_DIMEXT_LENGTH
1070
   378
1040
0.2
1001
ACAD_DSTYLE_DIMJOGGED_JOGANGLE_SYMBOL
1070
   384
1040
1.570796326794896
  0
ENDTAB
  0
TABLE
  2
BLOCK_RECORD
  5
1
330
0
100
AcDbSymbolTable
 70
    23
  0
BLOCK_RECORD
  5
A
102
{ACAD_XDICTIONARY
360
34A
102
}
330
1
100
AcDbSymbolTableRecord
100
AcDbBlockTableRecord
  2
*MODEL_SPACE
340
20
  0
BLOCK_RECORD
  5
B
330
1
100
AcDbSymbolTableRecord
100
AcDbBlockTableRecord
  2
*PAPER_SPACE
340
21
  0
BLOCK_RECORD
  5
266
102
{ACAD_XDICTIONARY
360
3CC
102
}
330
1
100
AcDbSymbolTableRecord
100
AcDbBlockTableRecord
  2
DIML
340
0
310
2800000020000000200000000100080000000000000400000000000000000000000000000000000000000000000080000080000000808000800000008000800080800000C0C0C000C0DCC000F0CAA6000020400000206000002080000020A0000020C0000020E00000400000004020000040400000406000004080000040A0
310
000040C0000040E00000600000006020000060400000606000006080000060A0000060C0000060E00000800000008020000080400000806000008080000080A0000080C0000080E00000A0000000A0200000A0400000A0600000A0800000A0A00000A0C00000A0E00000C0000000C0200000C0400000C0600000C0800000C0
310
A00000C0C00000C0E00000E0000000E0200000E0400000E0600000E0800000E0A00000E0C00000E0E00040000000400020004000400040006000400080004000A0004000C0004000E00040200000402020004020400040206000402080004020A0004020C0004020E000404000004040200040404000404060004040800040
310
40A0004040C0004040E00040600000406020004060400040606000406080004060A0004060C0004060E00040800000408020004080400040806000408080004080A0004080C0004080E00040A0000040A0200040A0400040A0600040A0800040A0A00040A0C00040A0E00040C0000040C0200040C0400040C0600040C08000
310
40C0A00040C0C00040C0E00040E0000040E0200040E0400040E0600040E0800040E0A00040E0C00040E0E00080000000800020008000400080006000800080008000A0008000C0008000E00080200000802020008020400080206000802080008020A0008020C0008020E00080400000804020008040400080406000804080
310
008040A0008040C0008040E00080600000806020008060400080606000806080008060A0008060C0008060E00080800000808020008080400080806000808080008080A0008080C0008080E00080A0000080A0200080A0400080A0600080A0800080A0A00080A0C00080A0E00080C0000080C0200080C0400080C0600080C0
310
800080C0A00080C0C00080C0E00080E0000080E0200080E0400080E0600080E0800080E0A00080E0C00080E0E000C0000000C0002000C0004000C0006000C0008000C000A000C000C000C000E000C0200000C0202000C0204000C0206000C0208000C020A000C020C000C020E000C0400000C0402000C0404000C0406000C0
310
408000C040A000C040C000C040E000C0600000C0602000C0604000C0606000C0608000C060A000C060C000C060E000C0800000C0802000C0804000C0806000C0808000C080A000C080C000C080E000C0A00000C0A02000C0A04000C0A06000C0A08000C0A0A000C0A0C000C0A0E000C0C00000C0C02000C0C04000C0C06000
310
C0C08000C0C0A000F0FBFF00A4A0A000808080000000FF0000FF000000FFFF00FF000000FF00FF00FFFF0000FFFFFF00000000000000000000000000000000000000000000000000000000000000000000000000000000000000000000000000FF000000000000000000000000000000000000000000000000000000000000
310
00FF00000000000000000000000000000000000000000000000000000000000000FF00000000000000000000000000000000000000000000000000000000000000FF00000000000000000000000000000000000000000000000000000000000000FF0000000000000000000000000000000000000000000000000000000000
310
0000FF00000000000000000000000000000000000000000000000000000000000000FF00000000000000000000000000000000000000000000000000000000000000FF0000000000000000000000000000000000000000000000000000000000FFFFFFFF000000000000000000000000000000000000000000000000000000
310
00FFFFFFFF0000000000000000000000000000000000000000FFFFFFFFFFFFFFFFFFFFFFFFFFFFFFFFFFFFFFFF0000000000000000000000000000000000000000FFFFFFFF0000000000000000000000000000000000000000000000000000000000FFFF000000000000000000000000000000000000000000000000000000
310
00000000FF00000000000000000000000000000000000000000000000000000000000000FF00000000000000000000000000000000000000000000000000000000000000FF00000000000000000000000000000000000000000000000000000000000000FF0000000000000000000000000000000000000000000000000000
310
0000000000FF00000000000000000000000000000000000000000000000000000000000000FF00000000000000000000000000000000000000000000000000000000000000FF00000000000000000000000000000000000000000000000000000000000000FF00000000000000000000000000000000000000000000000000
310
000000000000FF00000000000000000000000000000000000000000000000000000000000000FF00000000000000000000000000000000000000000000000000000000000000FF00000000000000000000000000000000000000000000000000000000000000FF000000000000000000000000000000000000000000000000
310
00000000000000FF00000000000000000000000000000000000000000000000000000000000000FF00000000000000000000000000000000000000000000000000000000000000FF00000000000000000000000000000000000000000000000000000000000000FF0000000000000000000000000000000000000000000000
310
0000000000000000FF0000000000000000000000000000000000000000000000000000000000000000000000000000000000000000000000
102
{BLKREFS
331
277
331
2A5
331
359
331
365
331
370
331
37B
102
}
1001
ACAD
1000
DesignCenter Data
1002
{
1070
     1
1070
     4
1002
}
  0
BLOCK_RECORD
  5
26D
102
{ACAD_XDICTIONARY
360
3CF
102
}
330
1
100
AcDbSymbolTableRecord
100
AcDbBlockTableRecord
  2
DIMR
340
0
310
2800000020000000200000000100080000000000000400000000000000000000000000000000000000000000000080000080000000808000800000008000800080800000C0C0C000C0DCC000F0CAA6000020400000206000002080000020A0000020C0000020E00000400000004020000040400000406000004080000040A0
310
000040C0000040E00000600000006020000060400000606000006080000060A0000060C0000060E00000800000008020000080400000806000008080000080A0000080C0000080E00000A0000000A0200000A0400000A0600000A0800000A0A00000A0C00000A0E00000C0000000C0200000C0400000C0600000C0800000C0
310
A00000C0C00000C0E00000E0000000E0200000E0400000E0600000E0800000E0A00000E0C00000E0E00040000000400020004000400040006000400080004000A0004000C0004000E00040200000402020004020400040206000402080004020A0004020C0004020E000404000004040200040404000404060004040800040
310
40A0004040C0004040E00040600000406020004060400040606000406080004060A0004060C0004060E00040800000408020004080400040806000408080004080A0004080C0004080E00040A0000040A0200040A0400040A0600040A0800040A0A00040A0C00040A0E00040C0000040C0200040C0400040C0600040C08000
310
40C0A00040C0C00040C0E00040E0000040E0200040E0400040E0600040E0800040E0A00040E0C00040E0E00080000000800020008000400080006000800080008000A0008000C0008000E00080200000802020008020400080206000802080008020A0008020C0008020E00080400000804020008040400080406000804080
310
008040A0008040C0008040E00080600000806020008060400080606000806080008060A0008060C0008060E00080800000808020008080400080806000808080008080A0008080C0008080E00080A0000080A0200080A0400080A0600080A0800080A0A00080A0C00080A0E00080C0000080C0200080C0400080C0600080C0
310
800080C0A00080C0C00080C0E00080E0000080E0200080E0400080E0600080E0800080E0A00080E0C00080E0E000C0000000C0002000C0004000C0006000C0008000C000A000C000C000C000E000C0200000C0202000C0204000C0206000C0208000C020A000C020C000C020E000C0400000C0402000C0404000C0406000C0
310
408000C040A000C040C000C040E000C0600000C0602000C0604000C0606000C0608000C060A000C060C000C060E000C0800000C0802000C0804000C0806000C0808000C080A000C080C000C080E000C0A00000C0A02000C0A04000C0A06000C0A08000C0A0A000C0A0C000C0A0E000C0C00000C0C02000C0C04000C0C06000
310
C0C08000C0C0A000F0FBFF00A4A0A000808080000000FF0000FF000000FFFF00FF000000FF00FF00FFFF0000FFFFFF000000000000000000000000000000000000000000000000000000000000000000000000000000000000000000000000FF00000000000000000000000000000000000000000000000000000000000000
310
FF00000000000000000000000000000000000000000000000000000000000000FF00000000000000000000000000000000000000000000000000000000000000FF00000000000000000000000000000000000000000000000000000000000000FF000000000000000000000000000000000000000000000000000000000000
310
00FF00000000000000000000000000000000000000000000000000000000000000FF00000000000000000000000000000000000000000000000000000000000000FF00000000000000000000000000000000000000000000000000000000000000FF0000000000000000000000000000000000000000000000000000000000
310
0000FF00000000000000000000000000000000000000000000000000000000000000FF00000000000000000000000000000000000000000000000000000000000000FF00000000000000000000000000000000000000000000000000000000000000FF00000000000000000000000000000000000000000000000000000000
310
000000FF00000000000000000000000000000000000000000000000000000000000000FF00000000000000000000000000000000000000000000000000000000000000FF00000000000000000000000000000000000000000000000000000000000000FF000000000000000000000000000000000000000000000000000000
310
00000000FF000000000000000000000000000000000000000000000000000000000000FFFFFFFF0000000000000000000000000000000000000000FFFFFFFFFFFFFFFFFFFFFFFFFFFFFFFFFFFFFFFF0000000000000000000000000000000000000000FFFFFFFF000000000000000000000000000000000000000000000000
310
0000000000FFFF000000000000000000000000000000000000000000000000000000000000FF00000000000000000000000000000000000000000000000000000000000000FF00000000000000000000000000000000000000000000000000000000000000FF00000000000000000000000000000000000000000000000000
310
000000000000FF00000000000000000000000000000000000000000000000000000000000000FF00000000000000000000000000000000000000000000000000000000000000FF00000000000000000000000000000000000000000000000000000000000000FF000000000000000000000000000000000000000000000000
310
00000000000000FF000000000000000000000000000000000000000000000000000000000000000000000000000000000000000000000000
102
{BLKREFS
331
278
331
2A6
331
35A
331
366
331
371
331
37C
102
}
1001
ACAD
1000
DesignCenter Data
1002
{
1070
     1
1070
     4
1002
}
  0
BLOCK_RECORD
  5
2D8
330
1
100
AcDbSymbolTableRecord
100
AcDbBlockTableRecord
  2
*D18
340
0
  0
BLOCK_RECORD
  5
361
330
1
100
AcDbSymbolTableRecord
100
AcDbBlockTableRecord
  2
*D19
340
0
  0
BLOCK_RECORD
  5
36C
330
1
100
AcDbSymbolTableRecord
100
AcDbBlockTableRecord
  2
*D20
340
0
  0
BLOCK_RECORD
  5
377
330
1
100
AcDbSymbolTableRecord
100
AcDbBlockTableRecord
  2
*D21
340
0
  0
ENDTAB
  0
ENDSEC
  0
SECTION
  2
BLOCKS
  0
BLOCK
  5
D
330
A
100
AcDbEntity
  8
0
100
AcDbBlockBegin
  2
*MODEL_SPACE
 70
     0
 10
0.0
 20
0.0
 30
0.0
  3
*MODEL_SPACE
  1

  0
ENDBLK
  5
E
330
A
100
AcDbEntity
  8
0
100
AcDbBlockEnd
  0
BLOCK
  5
F
330
B
100
AcDbEntity
 67
     1
  8
0
100
AcDbBlockBegin
  2
*PAPER_SPACE
 70
     0
 10
0.0
 20
0.0
 30
0.0
  3
*PAPER_SPACE
  1

  0
ENDBLK
  5
10
330
B
100
AcDbEntity
 67
     1
  8
0
100
AcDbBlockEnd
  0
BLOCK
  5
267
330
266
100
AcDbEntity
  8
0
100
AcDbBlockBegin
  2
DIML
 70
     0
 10
0.0
 20
0.0
 30
0.0
  3
DIML
  1

  0
LINE
  5
268
330
266
100
AcDbEntity
  8
0
 62
     0
100
AcDbLine
 10
0.0
 20
0.0000000000000071
 30
0.0
 11
0.0
 21
2.0
 31
0.0
  0
LINE
  5
269
330
266
100
AcDbEntity
  8
0
 62
     0
100
AcDbLine
 10
0.0
 20
-1.0
 30
0.0
 11
0.0
 21
0.0000000000000071
 31
0.0
  0
LINE
  5
26A
330
266
100
AcDbEntity
  8
0
 62
     0
100
AcDbLine
 10
-1.0
 20
0.0
 30
0.0
 11
1.0
 21
0.0
 31
0.0
  0
LWPOLYLINE
  5
26B
330
266
100
AcDbEntity
  8
0
370
     0
100
AcDbPolyline
 90
        2
 70
   129
 43
0.2
 10
-0.1000000000000014
 20
0.0
 42
1.0
 10
0.1000000000000014
 20
0.0
 42
1.0
  0
ENDBLK
  5
26C
330
266
100
AcDbEntity
  8
0
100
AcDbBlockEnd
  0
BLOCK
  5
26E
330
26D
100
AcDbEntity
  8
0
100
AcDbBlockBegin
  2
DIMR
 70
     0
 10
0.0
 20
0.0
 30
0.0
  3
DIMR
  1

  0
LINE
  5
26F
330
26D
100
AcDbEntity
  8
0
 62
     0
100
AcDbLine
 10
1.000000000000007
 20
-0.0000000000000213
 30
0.0
 11
-0.9999999999999928
 21
0.0000000000000213
 31
0.0
  0
LINE
  5
270
330
26D
100
AcDbEntity
  8
0
 62
     0
100
AcDbLine
 10
0.0000000000000071
 20
1.000000000000021
 30
0.0
 11
0.0
 21
0.0
 31
0.0
  0
LINE
  5
271
330
26D
100
AcDbEntity
  8
0
 62
     0
100
AcDbLine
 10
0.0
 20
0.0
 30
0.0
 11
0.0000000000000071
 21
-1.999999999999978
 31
0.0
  0
LWPOLYLINE
  5
272
330
26D
100
AcDbEntity
  8
0
370
     0
100
AcDbPolyline
 90
        2
 70
   129
 43
0.2
 10
-0.0999999999999943
 20
0.0
 42
1.0
 10
0.1000000000000085
 20
0.0
 42
1.0
  0
ENDBLK
  5
273
330
26D
100
AcDbEntity
  8
0
100
AcDbBlockEnd
  0
BLOCK
  5
2D9
330
2D8
100
AcDbEntity
  8
0
370
     0
100
AcDbBlockBegin
  2
*D18
 70
     1
 10
0.0
 20
0.0
 30
0.0
  3
*D18
  1

  0
LINE
  5
356
330
2D8
100
AcDbEntity
  8
A-031_DimExt
 62
     0
370
    -2
100
AcDbLine
 10
532.0755603059062
 20
-305.5720599255228
 30
0.0
 11
522.0755603059062
 21
-305.5720599255228
 31
0.0
  0
LINE
  5
357
330
2D8
100
AcDbEntity
  8
A-031_DimExt
 62
     0
370
    -2
100
AcDbLine
 10
567.1267052815424
 20
-305.5720599255228
 30
0.0
 11
614.5216632647357
 21
-305.5720599255228
 31
0.0
  0
LINE
  5
358
330
2D8
100
AcDbEntity
  8
A-031_DimExt
 62
     0
370
    -2
100
AcDbLine
 10
542.0755603059062
 20
-305.5720599255228
 30
0.0
 11
557.1267052815423
 21
-305.5720599255228
 31
0.0
  0
INSERT
  5
359
330
2D8
100
AcDbEntity
  8
A-031_DimExt
 62
     0
370
    -2
100
AcDbBlockReference
  2
DIML
 10
542.0755603059062
 20
-305.5720599255228
 30
0.0
 41
10.0
 42
10.0
 43
10.0
  0
INSERT
  5
35A
330
2D8
100
AcDbEntity
  8
A-031_DimExt
 62
     0
370
    -2
100
AcDbBlockReference
  2
DIMR
 10
557.1267052815423
 20
-305.5720599255228
 30
0.0
 41
10.0
 42
10.0
 43
10.0
 50
180.0
  0
MTEXT
  5
35B
330
2D8
100
AcDbEntity
  8
A-031_DimExt
 62
     0
370
     0
100
AcDbMText
 10
595.824184273139
 20
-290.4039926986321
 30
0.0
 40
20.0
 41
0.0
 71
     5
 72
     1
  1
\A1;15
  7
helvetica regular
 73
     1
 44
1.0
1001
ACAD
1000
MTEXTBEGIN
1070
    73
1070
     1
1070
    44
1040
1.0
1070
    74
1070
     0
1000
MTEXTEND
  0
POINT
  5
35C
330
2D8
100
AcDbEntity
  8
Defpoints
 62
     0
370
     0
100
AcDbPoint
 10
542.0755603059062
 20
-305.5312695929035
 30
0.0
  0
POINT
  5
35D
330
2D8
100
AcDbEntity
  8
Defpoints
 62
     0
370
     0
100
AcDbPoint
 10
557.1267052815423
 20
-305.5312695929035
 30
0.0
  0
POINT
  5
35E
330
2D8
100
AcDbEntity
  8
Defpoints
 62
     0
370
     0
100
AcDbPoint
 10
557.1267052815423
 20
-305.5720599255228
 30
0.0
  0
ENDBLK
  5
2DA
330
2D8
100
AcDbEntity
  8
0
370
     0
100
AcDbBlockEnd
  0
BLOCK
  5
362
330
361
100
AcDbEntity
  8
0
370
     0
100
AcDbBlockBegin
  2
*D19
 70
     1
 10
0.0
 20
0.0
 30
0.0
  3
*D19
  1

  0
LINE
  5
364
330
361
100
AcDbEntity
  8
A-031_DimExt
 62
     0
370
    -2
100
AcDbLine
 10
358.0189658523842
 20
154.4687354086561
 30
0.0
 11
148.0189659999988
 21
154.4687354086561
 31
0.0
  0
INSERT
  5
365
330
361
100
AcDbEntity
  8
A-031_DimExt
 62
     0
370
    -2
100
AcDbBlockReference
  2
DIML
 10
368.0189658523842
 20
154.4687354086561
 30
0.0
 41
10.0
 42
10.0
 43
10.0
  0
INSERT
  5
366
330
361
100
AcDbEntity
  8
A-031_DimExt
 62
     0
370
    -2
100
AcDbBlockReference
  2
DIMR
 10
138.0189659999988
 20
154.4687354086561
 30
0.0
 41
10.0
 42
10.0
 43
10.0
 50
180.0
  0
MTEXT
  5
367
330
361
100
AcDbEntity
  8
A-031_DimExt
 62
     0
370
     0
100
AcDbMText
 10
253.0189659261915
 20
169.6368026355469
 30
0.0
 40
20.0
 41
0.0
 71
     5
 72
     1
  1
\A1;230
  7
helvetica regular
 73
     1
 44
1.0
1001
ACAD
1000
MTEXTBEGIN
1070
    73
1070
     1
1070
    44
1040
1.0
1070
    74
1070
     0
1000
MTEXTEND
  0
POINT
  5
368
330
361
100
AcDbEntity
  8
Defpoints
 62
     0
370
     0
100
AcDbPoint
 10
368.0189658523842
 20
200.4484035199922
 30
0.0
  0
POINT
  5
369
330
361
100
AcDbEntity
  8
Defpoints
 62
     0
370
     0
100
AcDbPoint
 10
138.0189659999988
 20
200.4484035199922
 30
0.0
  0
POINT
  5
36A
330
361
100
AcDbEntity
  8
Defpoints
 62
     0
370
     0
100
AcDbPoint
 10
138.0189659999988
 20
154.4687354086561
 30
0.0
  0
ENDBLK
  5
363
330
361
100
AcDbEntity
  8
0
370
     0
100
AcDbBlockEnd
  0
BLOCK
  5
36D
330
36C
100
AcDbEntity
  8
0
370
     0
100
AcDbBlockBegin
  2
*D20
 70
     1
 10
0.0
 20
0.0
 30
0.0
  3
*D20
  1

  0
LINE
  5
36F
330
36C
100
AcDbEntity
  8
A-031_DimExt
 62
     0
370
    -2
100
AcDbLine
 10
21.04731847455796
 20
-255.5720594153811
 30
0.0
 11
21.04731847455804
 21
99.42470298710137
 31
0.0
  0
INSERT
  5
370
330
36C
100
AcDbEntity
  8
A-031_DimExt
 62
     0
370
    -2
100
AcDbBlockReference
  2
DIML
 10
21.04731847455795
 20
-265.5720594153811
 30
0.0
 41
10.0
 42
10.0
 43
10.0
 50
270.0
  0
INSERT
  5
371
330
36C
100
AcDbEntity
  8
A-031_DimExt
 62
     0
370
    -2
100
AcDbBlockReference
  2
DIMR
 10
21.04731847455804
 20
109.4247029871013
 30
0.0
 41
10.0
 42
10.0
 43
10.0
 50
90.0
  0
MTEXT
  5
372
330
36C
100
AcDbEntity
  8
A-031_DimExt
 62
     0
370
     0
100
AcDbMText
 10
5.879251247667254
 20
-78.07367821413986
 30
0.0
 40
20.0
 41
0.0
 71
     5
 72
     1
  1
\A1;375
  7
helvetica regular
 11
0.0000000000000001
 21
1.0
 31
0.0
 73
     1
 44
1.0
1001
ACAD
1000
MTEXTBEGIN
1070
    73
1070
     1
1070
    44
1040
1.0
1070
    74
1070
     0
1000
MTEXTEND
  0
POINT
  5
373
330
36C
100
AcDbEntity
  8
Defpoints
 62
     0
370
     0
100
AcDbPoint
 10
119.545767501304
 20
-265.5720594153811
 30
0.0
  0
POINT
  5
374
330
36C
100
AcDbEntity
  8
Defpoints
 62
     0
370
     0
100
AcDbPoint
 10
119.545767501304
 20
109.4247029871013
 30
0.0
  0
POINT
  5
375
330
36C
100
AcDbEntity
  8
Defpoints
 62
     0
370
     0
100
AcDbPoint
 10
21.04731847455804
 20
109.4247029871013
 30
0.0
  0
ENDBLK
  5
36E
330
36C
100
AcDbEntity
  8
0
370
     0
100
AcDbBlockEnd
  0
BLOCK
  5
378
330
377
100
AcDbEntity
  8
0
370
     0
100
AcDbBlockBegin
  2
*D21
 70
     1
 10
0.0
 20
0.0
 30
0.0
  3
*D21
  1

  0
LINE
  5
37A
330
377
100
AcDbEntity
  8
A-031_DimExt
 62
     0
370
    -2
100
AcDbLine
 10
71.07451869838418
 20
-225.0579465121903
 30
0.0
 11
71.07451869838425
 21
68.91058619380856
 31
0.0
  0
INSERT
  5
37B
330
377
100
AcDbEntity
  8
A-031_DimExt
 62
     0
370
    -2
100
AcDbBlockReference
  2
DIML
 10
71.07451869838418
 20
-235.0579465121903
 30
0.0
 41
10.0
 42
10.0
 43
10.0
 50
270.0
  0
INSERT
  5
37C
330
377
100
AcDbEntity
  8
A-031_DimExt
 62
     0
370
    -2
100
AcDbBlockReference
  2
DIMR
 10
71.07451869838425
 20
78.91058619380856
 30
0.0
 41
10.0
 42
10.0
 43
10.0
 50
90.0
  0
MTEXT
  5
37D
330
377
100
AcDbEntity
  8
A-031_DimExt
 62
     0
370
     0
100
AcDbMText
 10
55.90645147149348
 20
-78.07368015919087
 30
0.0
 40
20.0
 41
0.0
 71
     5
 72
     1
  1
\A1;314
  7
helvetica regular
 11
0.0000000000000001
 21
1.0
 31
0.0
 73
     1
 44
1.0
1001
ACAD
1000
MTEXTBEGIN
1070
    73
1070
     1
1070
    44
1040
1.0
1070
    74
1070
     0
1000
MTEXTEND
  0
POINT
  5
37E
330
377
100
AcDbEntity
  8
Defpoints
 62
     0
370
     0
100
AcDbPoint
 10
77.25005506297769
 20
-235.0579465121903
 30
0.0
  0
POINT
  5
37F
330
377
100
AcDbEntity
  8
Defpoints
 62
     0
370
     0
100
AcDbPoint
 10
77.25005506297769
 20
78.91058619380856
 30
0.0
  0
POINT
  5
380
330
377
100
AcDbEntity
  8
Defpoints
 62
     0
370
     0
100
AcDbPoint
 10
71.07451869838425
 20
78.91058619380856
 30
0.0
  0
ENDBLK
  5
379
330
377
100
AcDbEntity
  8
0
370
     0
100
AcDbBlockEnd
  0
ENDSEC
  0
SECTION
  2
ENTITIES
  0
LINE
  5
A1
330
A
100
AcDbEntity
  8
A-001_Pan
100
AcDbLine
 10
123.3848010949517
 20
204.2874355940685
 30
0.0
 11
113.0066587913883
 21
206.9875128420779
 31
0.0
  0
LINE
  5
A0
330
A
100
AcDbEntity
  8
A-001_Pan
100
AcDbLine
 10
384.003167028273
 20
-253.3252297132029
 30
0.0
 11
122.0347649717272
 21
-253.3252297132029
 31
0.0
  0
LINE
  5
9F
330
A
100
AcDbEntity
  8
A-001_Pan
100
AcDbLine
 10
384.003167028273
 20
-257.1642672425401
 30
0.0
 11
122.0347649717272
 21
-257.1642672425401
 31
0.0
  0
LINE
  5
9E
330
A
100
AcDbEntity
  8
A-001_Pan
100
AcDbLine
 10
384.003167028273
 20
-226.027254525247
 30
0.0
 11
122.0347649717272
 21
-226.027254525247
 31
0.0
  0
LINE
  5
9D
330
A
100
AcDbEntity
  8
A-001_Pan
100
AcDbLine
 10
384.003167028273
 20
-234.0180621360819
 30
0.0
 11
122.0347649717272
 21
-234.0180621360819
 31
0.0
  0
LINE
  5
9C
330
A
100
AcDbEntity
  8
A-001_Pan
100
AcDbLine
 10
384.003167028273
 20
-217.2050575751592
 30
0.0
 11
264.9543465603405
 21
-217.2050575751592
 31
0.0
  0
LINE
  5
9B
330
A
100
AcDbEntity
  8
A-001_Pan
100
AcDbLine
 10
241.0835854396596
 20
-217.2050575751592
 30
0.0
 11
122.0347649717272
 21
-217.2050575751592
 31
0.0
  0
SPLINE
  5
9A
330
A
100
AcDbEntity
  8
A-001_Pan
100
AcDbSpline
210
0.0
220
0.0
230
1.0
 70
     9
 71
     3
 72
    35
 73
    31
 74
     0
 42
0.0000000001
 43
0.0000000001
 40
0.0
 40
0.0
 40
0.0
 40
0.0
 40
1.0
 40
1.0
 40
1.0
 40
2.0
 40
2.0
 40
2.0
 40
3.0
 40
3.0
 40
3.0
 40
4.0
 40
4.0
 40
4.0
 40
5.0
 40
5.0
 40
5.0
 40
6.0
 40
6.0
 40
6.0
 40
7.0
 40
7.0
 40
7.0
 40
8.0
 40
8.0
 40
8.0
 40
9.0
 40
9.0
 40
9.0
 40
10.0
 40
10.0
 40
10.0
 40
10.0
 10
262.9839977451325
 20
-214.1948270148737
 30
0.0
 10
262.8091045939555
 20
-219.5803299114692
 30
0.0
 10
258.4031756524756
 20
-223.8484120342869
 30
0.0
 10
253.0202573837302
 20
-223.8484120342869
 30
0.0
 10
253.0202573837302
 20
-223.8484120342869
 30
0.0
 10
253.0202573837302
 20
-223.8484120342869
 30
0.0
 10
253.0202573837302
 20
-223.8484120342869
 30
0.0
 10
247.6933393850659
 20
-223.8484120342869
 30
0.0
 10
243.2874104435865
 20
-219.5803299114692
 30
0.0
 10
243.056517022328
 20
-214.1948270148737
 30
0.0
 10
243.056517022328
 20
-214.1948270148737
 30
0.0
 10
243.056517022328
 20
-214.1948270148737
 30
0.0
 10
243.056517022328
 20
-214.1948270148737
 30
0.0
 10
243.056517022328
 20
-214.1948270148737
 30
0.0
 10
243.056517022328
 20
58.15171724320681
 30
0.0
 10
243.056517022328
 20
58.15171724320681
 30
0.0
 10
243.056517022328
 20
63.65525147828157
 30
0.0
 10
247.5167231486553
 20
68.11545760460922
 30
0.0
 10
253.0202573837302
 20
68.11545760460922
 30
0.0
 10
253.0202573837302
 20
68.11545760460922
 30
0.0
 10
253.0202573837302
 20
68.11545760460922
 30
0.0
 10
253.0202573837302
 20
68.11545760460922
 30
0.0
 10
258.5237916188048
 20
68.11545760460922
 30
0.0
 10
262.9839977451325
 20
63.65525147828157
 30
0.0
 10
262.9839977451325
 20
58.15171724320681
 30
0.0
 10
262.9839977451325
 20
58.15171724320681
 30
0.0
 10
262.9839977451325
 20
-214.1948270148737
 30
0.0
 10
262.9839977451325
 20
-214.1948270148737
 30
0.0
 10
262.9839977451325
 20
-214.1948270148737
 30
0.0
 10
262.9839977451325
 20
-214.1948270148737
 30
0.0
 10
262.9839977451325
 20
-214.1948270148737
 30
0.0
  0
POLYLINE
  5
94
330
A
100
AcDbEntity
  8
A-001_Pan
100
AcDb2dPolyline
 66
     1
 10
0.0
 20
0.0
 30
0.0
  0
VERTEX
  5
95
330
94
100
AcDbEntity
  8
A-001_Pan
100
AcDbVertex
100
AcDb2dVertex
 10
549.5503019378121
 20
-265.5720599255228
 30
0.0
  0
VERTEX
  5
96
330
94
100
AcDbEntity
  8
A-001_Pan
100
AcDbVertex
100
AcDb2dVertex
 10
467.0360578750285
 20
-265.5720599255228
 30
0.0
  0
VERTEX
  5
97
330
94
100
AcDbEntity
  8
A-001_Pan
100
AcDbVertex
100
AcDb2dVertex
 10
467.0360578750285
 20
109.4247046087009
 30
0.0
  0
VERTEX
  5
98
330
94
100
AcDbEntity
  8
A-001_Pan
100
AcDbVertex
100
AcDb2dVertex
 10
560.1369392782295
 20
109.4247046087009
 30
0.0
  0
SEQEND
  5
99
330
94
100
AcDbEntity
  8
A-001_Pan
  0
SPLINE
  5
93
330
A
100
AcDbEntity
  8
A-001_Pan
100
AcDbSpline
210
0.0
220
0.0
230
1.0
 70
     9
 71
     3
 72
    65
 73
    61
 74
     0
 42
0.0000000001
 43
0.0000000001
 40
0.0
 40
0.0
 40
0.0
 40
0.0
 40
1.0
 40
1.0
 40
1.0
 40
2.0
 40
2.0
 40
2.0
 40
3.0
 40
3.0
 40
3.0
 40
4.0
 40
4.0
 40
4.0
 40
5.0
 40
5.0
 40
5.0
 40
6.0
 40
6.0
 40
6.0
 40
7.0
 40
7.0
 40
7.0
 40
8.0
 40
8.0
 40
8.0
 40
9.0
 40
9.0
 40
9.0
 40
10.0
 40
10.0
 40
10.0
 40
11.0
 40
11.0
 40
11.0
 40
12.0
 40
12.0
 40
12.0
 40
13.0
 40
13.0
 40
13.0
 40
14.0
 40
14.0
 40
14.0
 40
15.0
 40
15.0
 40
15.0
 40
16.0
 40
16.0
 40
16.0
 40
17.0
 40
17.0
 40
17.0
 40
18.0
 40
18.0
 40
18.0
 40
19.0
 40
19.0
 40
19.0
 40
20.0
 40
20.0
 40
20.0
 40
20.0
 10
486.8592928486211
 20
-229.5561318695044
 30
0.0
 10
487.0764015880137
 20
-232.6878392809784
 30
0.0
 10
491.6253466038551
 20
-232.6878392809784
 30
0.0
 10
491.8424553432467
 20
-229.5561318695044
 30
0.0
 10
491.8424553432467
 20
-229.5561318695044
 30
0.0
 10
491.8424553432467
 20
-229.5561318695044
 30
0.0
 10
491.8424553432467
 20
-229.5561318695044
 30
0.0
 10
491.8424553432467
 20
-229.5561318695044
 30
0.0
 10
494.1255432773342
 20
-197.0690828813714
 30
0.0
 10
494.1255432773342
 20
-197.0690828813714
 30
0.0
 10
494.2633900959962
 20
-194.7170715379533
 30
0.0
 10
494.33145196271
 20
-192.3986603565841
 30
0.0
 10
494.33145196271
 20
-190.1155724224971
 30
0.0
 10
494.33145196271
 20
-190.1155724224971
 30
0.0
 10
494.33145196271
 20
-79.99319516400646
 30
0.0
 10
494.33145196271
 20
-79.99319516400646
 30
0.0
 10
494.33145196271
 20
-79.99319516400646
 30
0.0
 10
494.33145196271
 20
-79.99319516400646
 30
0.0
 10
494.33145196271
 20
-79.99319516400646
 30
0.0
 10
494.33145196271
 20
-79.99319516400646
 30
0.0
 10
494.33145196271
 20
30.23084412324783
 30
0.0
 10
494.33145196271
 20
30.23084412324783
 30
0.0
 10
494.33145196271
 20
32.3769467812898
 30
0.0
 10
494.2633900959962
 20
34.55751114399675
 30
0.0
 10
494.1255432773342
 20
36.76995258351963
 30
0.0
 10
494.1255432773342
 20
36.76995258351963
 30
0.0
 10
491.8424553432467
 20
71.43584284912674
 30
0.0
 10
491.8424553432467
 20
71.43584284912674
 30
0.0
 10
491.8424553432467
 20
71.43584284912674
 30
0.0
 10
491.8424553432467
 20
71.43584284912674
 30
0.0
 10
491.8424553432467
 20
71.43584284912674
 30
0.0
 10
491.6253466038551
 20
74.7389972413115
 30
0.0
 10
487.0764015880137
 20
74.7389972413115
 30
0.0
 10
486.8592928486211
 20
71.43584284912674
 30
0.0
 10
486.8592928486211
 20
71.43584284912674
 30
0.0
 10
486.8592928486211
 20
71.43584284912674
 30
0.0
 10
486.8592928486211
 20
71.43584284912674
 30
0.0
 10
486.8592928486211
 20
71.43584284912674
 30
0.0
 10
484.576204914534
 20
36.76995258351963
 30
0.0
 10
484.576204914534
 20
36.76995258351963
 30
0.0
 10
484.4383580958719
 20
34.55751114399675
 30
0.0
 10
484.3685731439251
 20
32.3769467812898
 30
0.0
 10
484.3685731439251
 20
30.23084412324783
 30
0.0
 10
484.3685731439251
 20
30.23084412324783
 30
0.0
 10
484.3685731439251
 20
-79.99319516400646
 30
0.0
 10
484.3685731439251
 20
-79.99319516400646
 30
0.0
 10
484.3685731439251
 20
-79.99319516400646
 30
0.0
 10
484.3685731439251
 20
-79.99319516400646
 30
0.0
 10
484.3685731439251
 20
-79.99319516400646
 30
0.0
 10
484.3685731439251
 20
-79.99319516400646
 30
0.0
 10
484.3685731439251
 20
-190.1155724224971
 30
0.0
 10
484.3685731439251
 20
-190.1155724224971
 30
0.0
 10
484.3685731439251
 20
-192.3986603565841
 30
0.0
 10
484.4383580958719
 20
-194.7170715379533
 30
0.0
 10
484.576204914534
 20
-197.0690828813714
 30
0.0
 10
484.576204914534
 20
-197.0690828813714
 30
0.0
 10
486.8592928486211
 20
-229.5561318695044
 30
0.0
 10
486.8592928486211
 20
-229.5561318695044
 30
0.0
 10
486.8592928486211
 20
-229.5561318695044
 30
0.0
 10
486.8592928486211
 20
-229.5561318695044
 30
0.0
 10
486.8592928486211
 20
-229.5561318695044
 30
0.0
  0
LINE
  5
92
330
A
100
AcDbEntity
  8
A-001_Pan
100
AcDbLine
 10
563.6658150573286
 20
69.77565168999831
 30
0.0
 11
563.6658150573286
 21
-225.9230070068199
 31
0.0
  0
LINE
  5
4E
330
A
100
AcDbEntity
  8
A-001_Pan
100
AcDbLine
 10
382.7573734219151
 20
204.2874355940685
 30
0.0
 11
393.0338540136545
 21
206.9875128420779
 31
0.0
  0
LINE
  5
37
330
A
100
AcDbEntity
  8
A-001_Pan
100
AcDbLine
 10
384.003167028273
 20
97.2795361082051
 30
0.0
 11
122.0347649717272
 21
97.2795361082051
 31
0.0
  0
LINE
  5
36
330
A
100
AcDbEntity
  8
A-001_Pan
100
AcDbLine
 10
384.003167028273
 20
101.0169069241581
 30
0.0
 11
122.0347649717272
 21
101.0169069241581
 31
0.0
  0
LINE
  5
35
330
A
100
AcDbEntity
  8
A-001_Pan
100
AcDbLine
 10
384.003167028273
 20
69.98414172529192
 30
0.0
 11
122.0347649717272
 21
69.98414172529192
 31
0.0
  0
LINE
  5
34
330
A
100
AcDbEntity
  8
A-001_Pan
100
AcDbLine
 10
384.003167028273
 20
77.974949336127
 30
0.0
 11
122.0347649717272
 21
77.974949336127
 31
0.0
  0
LINE
  5
33
330
A
100
AcDbEntity
  8
A-001_Pan
100
AcDbLine
 10
384.003167028273
 20
61.16194477520434
 30
0.0
 11
264.9543465603405
 21
61.16194477520434
 31
0.0
  0
LINE
  5
32
330
A
100
AcDbEntity
  8
A-001_Pan
100
AcDbLine
 10
241.0835854396596
 20
61.16194477520434
 30
0.0
 11
122.0347649717272
 21
61.16194477520434
 31
0.0
  0
SPLINE
  5
31
330
A
100
AcDbEntity
  8
A-001_Pan
100
AcDbSpline
210
0.0
220
0.0
230
1.0
 70
     9
 71
     3
 72
   305
 73
   301
 74
     0
 42
0.0000000001
 43
0.0000000001
 40
0.0
 40
0.0
 40
0.0
 40
0.0
 40
1.0
 40
1.0
 40
1.0
 40
2.0
 40
2.0
 40
2.0
 40
3.0
 40
3.0
 40
3.0
 40
4.0
 40
4.0
 40
4.0
 40
5.0
 40
5.0
 40
5.0
 40
6.0
 40
6.0
 40
6.0
 40
7.0
 40
7.0
 40
7.0
 40
8.0
 40
8.0
 40
8.0
 40
9.0
 40
9.0
 40
9.0
 40
10.0
 40
10.0
 40
10.0
 40
11.0
 40
11.0
 40
11.0
 40
12.0
 40
12.0
 40
12.0
 40
13.0
 40
13.0
 40
13.0
 40
14.0
 40
14.0
 40
14.0
 40
15.0
 40
15.0
 40
15.0
 40
16.0
 40
16.0
 40
16.0
 40
17.0
 40
17.0
 40
17.0
 40
18.0
 40
18.0
 40
18.0
 40
19.0
 40
19.0
 40
19.0
 40
20.0
 40
20.0
 40
20.0
 40
21.0
 40
21.0
 40
21.0
 40
22.0
 40
22.0
 40
22.0
 40
23.0
 40
23.0
 40
23.0
 40
24.0
 40
24.0
 40
24.0
 40
25.0
 40
25.0
 40
25.0
 40
26.0
 40
26.0
 40
26.0
 40
27.0
 40
27.0
 40
27.0
 40
28.0
 40
28.0
 40
28.0
 40
29.0
 40
29.0
 40
29.0
 40
30.0
 40
30.0
 40
30.0
 40
31.0
 40
31.0
 40
31.0
 40
32.0
 40
32.0
 40
32.0
 40
33.0
 40
33.0
 40
33.0
 40
34.0
 40
34.0
 40
34.0
 40
35.0
 40
35.0
 40
35.0
 40
36.0
 40
36.0
 40
36.0
 40
37.0
 40
37.0
 40
37.0
 40
38.0
 40
38.0
 40
38.0
 40
39.0
 40
39.0
 40
39.0
 40
40.0
 40
40.0
 40
40.0
 40
41.0
 40
41.0
 40
41.0
 40
42.0
 40
42.0
 40
42.0
 40
43.0
 40
43.0
 40
43.0
 40
44.0
 40
44.0
 40
44.0
 40
45.0
 40
45.0
 40
45.0
 40
46.0
 40
46.0
 40
46.0
 40
47.0
 40
47.0
 40
47.0
 40
48.0
 40
48.0
 40
48.0
 40
49.0
 40
49.0
 40
49.0
 40
50.0
 40
50.0
 40
50.0
 40
51.0
 40
51.0
 40
51.0
 40
52.0
 40
52.0
 40
52.0
 40
53.0
 40
53.0
 40
53.0
 40
54.0
 40
54.0
 40
54.0
 40
55.0
 40
55.0
 40
55.0
 40
56.0
 40
56.0
 40
56.0
 40
57.0
 40
57.0
 40
57.0
 40
58.0
 40
58.0
 40
58.0
 40
59.0
 40
59.0
 40
59.0
 40
60.0
 40
60.0
 40
60.0
 40
61.0
 40
61.0
 40
61.0
 40
62.0
 40
62.0
 40
62.0
 40
63.0
 40
63.0
 40
63.0
 40
64.0
 40
64.0
 40
64.0
 40
65.0
 40
65.0
 40
65.0
 40
66.0
 40
66.0
 40
66.0
 40
67.0
 40
67.0
 40
67.0
 40
68.0
 40
68.0
 40
68.0
 40
69.0
 40
69.0
 40
69.0
 40
70.0
 40
70.0
 40
70.0
 40
71.0
 40
71.0
 40
71.0
 40
72.0
 40
72.0
 40
72.0
 40
73.0
 40
73.0
 40
73.0
 40
74.0
 40
74.0
 40
74.0
 40
75.0
 40
75.0
 40
75.0
 40
76.0
 40
76.0
 40
76.0
 40
77.0
 40
77.0
 40
77.0
 40
78.0
 40
78.0
 40
78.0
 40
79.0
 40
79.0
 40
79.0
 40
80.0
 40
80.0
 40
80.0
 40
81.0
 40
81.0
 40
81.0
 40
82.0
 40
82.0
 40
82.0
 40
83.0
 40
83.0
 40
83.0
 40
84.0
 40
84.0
 40
84.0
 40
85.0
 40
85.0
 40
85.0
 40
86.0
 40
86.0
 40
86.0
 40
87.0
 40
87.0
 40
87.0
 40
88.0
 40
88.0
 40
88.0
 40
89.0
 40
89.0
 40
89.0
 40
90.0
 40
90.0
 40
90.0
 40
91.0
 40
91.0
 40
91.0
 40
92.0
 40
92.0
 40
92.0
 40
93.0
 40
93.0
 40
93.0
 40
94.0
 40
94.0
 40
94.0
 40
95.0
 40
95.0
 40
95.0
 40
96.0
 40
96.0
 40
96.0
 40
97.0
 40
97.0
 40
97.0
 40
98.0
 40
98.0
 40
98.0
 40
99.0
 40
99.0
 40
99.0
 40
100.0
 40
100.0
 40
100.0
 40
100.0
 10
391.3736631041696
 20
-226.6501486235892
 30
0.0
 10
391.3736631041696
 20
-226.6501486235892
 30
0.0
 10
391.5795717895454
 20
-226.8586419368152
 30
0.0
 10
391.5795717895454
 20
-226.8586419368152
 30
0.0
 10
392.5091762728965
 20
-227.7882464201661
 30
0.0
 10
393.0338557264281
 20
-229.0564371518551
 30
0.0
 10
393.0338557264281
 20
-230.3875204945588
 30
0.0
 10
393.0338557264281
 20
-230.3875204945588
 30
0.0
 10
393.0338557264281
 20
-231.2163244917632
 30
0.0
 10
393.0338557264281
 20
-231.2163244917632
 30
0.0
 10
393.0338557264281
 20
-231.2163244917632
 30
0.0
 10
393.0338557264281
 20
-231.2163244917632
 30
0.0
 10
393.0338557264281
 20
-231.2163244917632
 30
0.0
 10
393.0338557264281
 20
-232.7636550312425
 30
0.0
 10
391.7794496766052
 20
-234.0180610810654
 30
0.0
 10
390.2295345092761
 20
-234.0180610810654
 30
0.0
 10
390.2295345092761
 20
-234.0180610810654
 30
0.0
 10
388.569341887017
 20
-234.0180610810654
 30
0.0
 10
388.569341887017
 20
-234.0180610810654
 30
0.0
 10
388.569341887017
 20
-234.0180610810654
 30
0.0
 10
388.569341887017
 20
-234.0180610810654
 30
0.0
 10
388.569341887017
 20
-234.0180610810654
 30
0.0
 10
388.569341887017
 20
-234.0180610810654
 30
0.0
 10
385.0404633292735
 20
-234.0180610810654
 30
0.0
 10
385.0404633292735
 20
-234.0180610810654
 30
0.0
 10
384.4675374892103
 20
-234.0180610810654
 30
0.0
 10
384.0031660188431
 20
-234.4841556366657
 30
0.0
 10
384.0031660188431
 20
-235.0579430193457
 30
0.0
 10
384.0031660188431
 20
-235.0579430193457
 30
0.0
 10
384.0031660188431
 20
-243.2572441018763
 30
0.0
 10
384.0031660188431
 20
-243.2572441018763
 30
0.0
 10
384.0031660188431
 20
-243.2572441018763
 30
0.0
 10
384.0031660188431
 20
-243.2572441018763
 30
0.0
 10
384.0031660188431
 20
-243.2572441018763
 30
0.0
 10
384.0031660188431
 20
-243.2572441018763
 30
0.0
 10
384.0031660188431
 20
-249.4836125923092
 30
0.0
 10
384.0031660188431
 20
-249.4836125923092
 30
0.0
 10
384.0031660188431
 20
-251.3204214509784
 30
0.0
 10
385.2386181311001
 20
-252.8961828968068
 30
0.0
 10
387.0133959213717
 20
-253.3252311198918
 30
0.0
 10
387.0133959213717
 20
-253.3252311198918
 30
0.0
 10
388.0506932318018
 20
-253.6353864618809
 30
0.0
 10
388.0506932318018
 20
-253.6353864618809
 30
0.0
 10
388.0506932318018
 20
-253.6353864618809
 30
0.0
 10
388.0506932318018
 20
-253.6353864618809
 30
0.0
 10
388.0506932318018
 20
-253.6353864618809
 30
0.0
 10
388.0506932318018
 20
-253.6353864618809
 30
0.0
 10
388.259186545028
 20
-253.6353864618809
 30
0.0
 10
388.259186545028
 20
-253.6353864618809
 30
0.0
 10
390.4630125583843
 20
-254.2479432623096
 30
0.0
 10
391.9939737881478
 20
-256.2484452181396
 30
0.0
 10
391.9939737881478
 20
-258.5143022998941
 30
0.0
 10
391.9939737881478
 20
-258.5143022998941
 30
0.0
 10
391.9939737881478
 20
-260.0702482655397
 30
0.0
 10
391.9939737881478
 20
-260.0702482655397
 30
0.0
 10
391.9939737881478
 20
-260.0702482655397
 30
0.0
 10
391.9939737881478
 20
-260.0702482655397
 30
0.0
 10
391.9939737881478
 20
-260.0702482655397
 30
0.0
 10
391.9939737881478
 20
-263.1089090744171
 30
0.0
 10
389.5790698337155
 20
-265.5720594153811
 30
0.0
 10
386.5989939227692
 20
-265.5720594153811
 30
0.0
 10
386.5989939227692
 20
-265.5720594153811
 30
0.0
 10
253.0202573837302
 20
-265.5720594153811
 30
0.0
 10
253.0202573837302
 20
-265.5720594153811
 30
0.0
 10
253.0202573837302
 20
-265.5720594153811
 30
0.0
 10
253.0202573837302
 20
-265.5720594153811
 30
0.0
 10
253.0202573837302
 20
-265.5720594153811
 30
0.0
 10
253.0202573837302
 20
-265.5720594153811
 30
0.0
 10
119.545767501304
 20
-265.5720594153811
 30
0.0
 10
119.545767501304
 20
-265.5720594153811
 30
0.0
 10
116.5071066924266
 20
-265.5720594153811
 30
0.0
 10
114.0439563514625
 20
-263.1089090744171
 30
0.0
 10
114.0439563514625
 20
-260.0702482655397
 30
0.0
 10
114.0439563514625
 20
-260.0702482655397
 30
0.0
 10
114.0439563514625
 20
-260.0702482655397
 30
0.0
 10
114.0439563514625
 20
-260.0702482655397
 30
0.0
 10
114.0439563514625
 20
-260.0702482655397
 30
0.0
 10
114.0439563514625
 20
-258.5143022998941
 30
0.0
 10
114.0439563514625
 20
-258.5143022998941
 30
0.0
 10
114.0439563514625
 20
-256.2484452181396
 30
0.0
 10
115.5775022090757
 20
-254.2479432623096
 30
0.0
 10
117.7813282224321
 20
-253.6353864618809
 30
0.0
 10
117.7813282224321
 20
-253.6353864618809
 30
0.0
 10
118.0914835644212
 20
-253.6353864618809
 30
0.0
 10
118.0914835644212
 20
-253.6353864618809
 30
0.0
 10
118.0914835644212
 20
-253.6353864618809
 30
0.0
 10
118.0914835644212
 20
-253.6353864618809
 30
0.0
 10
118.0914835644212
 20
-253.6353864618809
 30
0.0
 10
118.0914835644212
 20
-253.6353864618809
 30
0.0
 10
119.0271188460886
 20
-253.3252311198918
 30
0.0
 10
119.0271188460886
 20
-253.3252311198918
 30
0.0
 10
120.8018966363602
 20
-252.8961828968068
 30
0.0
 10
122.0347641207669
 20
-251.3204214509784
 30
0.0
 10
122.0347641207669
 20
-249.4836125923092
 30
0.0
 10
122.0347641207669
 20
-249.4836125923092
 30
0.0
 10
122.0347641207669
 20
-243.2572441018763
 30
0.0
 10
122.0347641207669
 20
-243.2572441018763
 30
0.0
 10
122.0347641207669
 20
-243.2572441018763
 30
0.0
 10
122.0347641207669
 20
-243.2572441018763
 30
0.0
 10
122.0347641207669
 20
-243.2572441018763
 30
0.0
 10
122.0347641207669
 20
-243.2572441018763
 30
0.0
 10
122.0347641207669
 20
-235.0579430193457
 30
0.0
 10
122.0347641207669
 20
-235.0579430193457
 30
0.0
 10
122.0347641207669
 20
-234.4841556366657
 30
0.0
 10
121.6169159516985
 20
-234.0180610810654
 30
0.0
 10
121.1017134669497
 20
-234.0180610810654
 30
0.0
 10
121.1017134669497
 20
-234.0180610810654
 30
0.0
 10
117.572834909206
 20
-234.0180610810654
 30
0.0
 10
117.572834909206
 20
-234.0180610810654
 30
0.0
 10
117.572834909206
 20
-234.0180610810654
 30
0.0
 10
117.572834909206
 20
-234.0180610810654
 30
0.0
 10
117.572834909206
 20
-234.0180610810654
 30
0.0
 10
117.572834909206
 20
-234.0180610810654
 30
0.0
 10
115.9126422869473
 20
-234.0180610810654
 30
0.0
 10
115.9126422869473
 20
-234.0180610810654
 30
0.0
 10
114.3067268495367
 20
-234.0180610810654
 30
0.0
 10
113.0066590410321
 20
-232.7636550312425
 30
0.0
 10
113.0066590410321
 20
-231.2163244917632
 30
0.0
 10
113.0066590410321
 20
-231.2163244917632
 30
0.0
 10
113.0066590410321
 20
-231.2163244917632
 30
0.0
 10
113.0066590410321
 20
-231.2163244917632
 30
0.0
 10
113.0066590410321
 20
-231.2163244917632
 30
0.0
 10
113.0066590410321
 20
-230.3875204945588
 30
0.0
 10
113.0066590410321
 20
-230.3875204945588
 30
0.0
 10
113.0066590410321
 20
-229.0564371518551
 30
0.0
 10
113.5658001992293
 20
-227.7882464201661
 30
0.0
 10
114.5626050066779
 20
-226.8586419368152
 30
0.0
 10
114.5626050066779
 20
-226.8586419368152
 30
0.0
 10
114.7710983199038
 20
-226.6501486235892
 30
0.0
 10
114.7710983199038
 20
-226.6501486235892
 30
0.0
 10
114.7710983199038
 20
-226.6501486235892
 30
0.0
 10
114.7710983199038
 20
-226.6501486235892
 30
0.0
 10
114.7710983199038
 20
-226.6501486235892
 30
0.0
 10
119.4217053645083
 20
-221.9969569511347
 30
0.0
 10
122.0347641207669
 20
-215.6508340369895
 30
0.0
 10
122.0347641207669
 20
-209.0057558348716
 30
0.0
 10
122.0347641207669
 20
-209.0057558348716
 30
0.0
 10
122.0347641207669
 20
-78.0228471997583
 30
0.0
 10
122.0347641207669
 20
-78.0228471997583
 30
0.0
 10
122.0347641207669
 20
-78.0228471997583
 30
0.0
 10
122.0347641207669
 20
-78.0228471997583
 30
0.0
 10
122.0347641207669
 20
-78.0228471997583
 30
0.0
 10
122.0347641207669
 20
-78.0228471997583
 30
0.0
 10
122.0347641207669
 20
52.85839940659162
 30
0.0
 10
122.0347641207669
 20
52.85839940659162
 30
0.0
 10
122.0347641207669
 20
59.50347760870989
 30
0.0
 10
119.4217053645083
 20
65.88836994060364
 30
0.0
 10
114.7710983199038
 20
70.60703885192243
 30
0.0
 10
114.7710983199038
 20
70.60703885192243
 30
0.0
 10
114.7710983199038
 20
70.60703885192243
 30
0.0
 10
114.7710983199038
 20
70.60703885192243
 30
0.0
 10
114.7710983199038
 20
70.60703885192243
 30
0.0
 10
114.5626050066779
 20
70.81294753729867
 30
0.0
 10
114.5626050066779
 20
70.81294753729867
 30
0.0
 10
113.5658001992293
 20
71.74513664849939
 30
0.0
 10
113.0066590410321
 20
73.01332738018846
 30
0.0
 10
113.0066590410321
 20
74.34182609504194
 30
0.0
 10
113.0066590410321
 20
74.34182609504194
 30
0.0
 10
113.0066590410321
 20
75.06896806348322
 30
0.0
 10
113.0066590410321
 20
75.06896806348322
 30
0.0
 10
113.0066590410321
 20
75.06896806348322
 30
0.0
 10
113.0066590410321
 20
75.06896806348322
 30
0.0
 10
113.0066590410321
 20
75.06896806348322
 30
0.0
 10
113.0066590410321
 20
76.67488350089389
 30
0.0
 10
114.3067268495367
 20
77.97495130939854
 30
0.0
 10
115.9126422869473
 20
77.97495130939854
 30
0.0
 10
115.9126422869473
 20
77.97495130939854
 30
0.0
 10
117.572834909206
 20
77.97495130939854
 30
0.0
 10
117.572834909206
 20
77.97495130939854
 30
0.0
 10
117.572834909206
 20
77.97495130939854
 30
0.0
 10
117.572834909206
 20
77.97495130939854
 30
0.0
 10
117.572834909206
 20
77.97495130939854
 30
0.0
 10
117.572834909206
 20
77.97495130939854
 30
0.0
 10
121.1017134669497
 20
77.97495130939854
 30
0.0
 10
121.1017134669497
 20
77.97495130939854
 30
0.0
 10
121.6169159516985
 20
77.97495130939854
 30
0.0
 10
122.0347641207669
 20
78.39366102108408
 30
0.0
 10
122.0347641207669
 20
78.9105865910659
 30
0.0
 10
122.0347641207669
 20
78.9105865910659
 30
0.0
 10
122.0347641207669
 20
87.21154970235966
 30
0.0
 10
122.0347641207669
 20
87.21154970235966
 30
0.0
 10
122.0347641207669
 20
87.21154970235966
 30
0.0
 10
122.0347641207669
 20
87.21154970235966
 30
0.0
 10
122.0347641207669
 20
87.21154970235966
 30
0.0
 10
122.0347641207669
 20
87.21154970235966
 30
0.0
 10
122.0347641207669
 20
93.33625616402924
 30
0.0
 10
122.0347641207669
 20
93.33625616402924
 30
0.0
 10
122.0347641207669
 20
95.17306502269832
 30
0.0
 10
120.8018966363602
 20
96.79104205674196
 30
0.0
 10
119.0271188460886
 20
97.27953672037495
 30
0.0
 10
119.0271188460886
 20
97.27953672037495
 30
0.0
 10
118.0914835644212
 20
97.48803003360116
 30
0.0
 10
118.0914835644212
 20
97.48803003360116
 30
0.0
 10
118.0914835644212
 20
97.48803003360116
 30
0.0
 10
118.0914835644212
 20
97.48803003360116
 30
0.0
 10
118.0914835644212
 20
97.48803003360116
 30
0.0
 10
118.0914835644212
 20
97.48803003360116
 30
0.0
 10
117.7813282224321
 20
97.59227669021413
 30
0.0
 10
117.7813282224321
 20
97.59227669021413
 30
0.0
 10
115.5775022090757
 20
98.14280242224505
 30
0.0
 10
114.0439563514625
 20
100.1010887898599
 30
0.0
 10
114.0439563514625
 20
102.3669458716141
 30
0.0
 10
114.0439563514625
 20
102.3669458716141
 30
0.0
 10
114.0439563514625
 20
104.0271384938728
 30
0.0
 10
114.0439563514625
 20
104.0271384938728
 30
0.0
 10
114.0439563514625
 20
104.0271384938728
 30
0.0
 10
114.0439563514625
 20
104.0271384938728
 30
0.0
 10
114.0439563514625
 20
104.0271384938728
 30
0.0
 10
114.0439563514625
 20
107.007214404819
 30
0.0
 10
116.5071066924266
 20
109.4247029871013
 30
0.0
 10
119.545767501304
 20
109.4247029871013
 30
0.0
 10
119.545767501304
 20
109.4247029871013
 30
0.0
 10
253.0202573837302
 20
109.4247029871013
 30
0.0
 10
253.0202573837302
 20
109.4247029871013
 30
0.0
 10
253.0202573837302
 20
109.4247029871013
 30
0.0
 10
253.0202573837302
 20
109.4247029871013
 30
0.0
 10
253.0202573837302
 20
109.4247029871013
 30
0.0
 10
253.0202573837302
 20
109.4247029871013
 30
0.0
 10
386.5989939227692
 20
109.4247029871013
 30
0.0
 10
386.5989939227692
 20
109.4247029871013
 30
0.0
 10
389.5790698337155
 20
109.4247029871013
 30
0.0
 10
391.9939737881478
 20
107.007214404819
 30
0.0
 10
391.9939737881478
 20
104.0271384938728
 30
0.0
 10
391.9939737881478
 20
104.0271384938728
 30
0.0
 10
391.9939737881478
 20
104.0271384938728
 30
0.0
 10
391.9939737881478
 20
104.0271384938728
 30
0.0
 10
391.9939737881478
 20
104.0271384938728
 30
0.0
 10
391.9939737881478
 20
102.3669458716141
 30
0.0
 10
391.9939737881478
 20
102.3669458716141
 30
0.0
 10
391.9939737881478
 20
100.1010887898599
 30
0.0
 10
390.4630125583843
 20
98.14280242224505
 30
0.0
 10
388.259186545028
 20
97.59227669021413
 30
0.0
 10
388.259186545028
 20
97.59227669021413
 30
0.0
 10
388.0506932318018
 20
97.48803003360116
 30
0.0
 10
388.0506932318018
 20
97.48803003360116
 30
0.0
 10
388.0506932318018
 20
97.48803003360116
 30
0.0
 10
388.0506932318018
 20
97.48803003360116
 30
0.0
 10
388.0506932318018
 20
97.48803003360116
 30
0.0
 10
388.0506932318018
 20
97.48803003360116
 30
0.0
 10
387.0133959213717
 20
97.27953672037495
 30
0.0
 10
387.0133959213717
 20
97.27953672037495
 30
0.0
 10
385.2386181311001
 20
96.79104205674196
 30
0.0
 10
384.0031660188431
 20
95.17306502269832
 30
0.0
 10
384.0031660188431
 20
93.33625616402924
 30
0.0
 10
384.0031660188431
 20
93.33625616402924
 30
0.0
 10
384.0031660188431
 20
87.21154970235966
 30
0.0
 10
384.0031660188431
 20
87.21154970235966
 30
0.0
 10
384.0031660188431
 20
87.21154970235966
 30
0.0
 10
384.0031660188431
 20
87.21154970235966
 30
0.0
 10
384.0031660188431
 20
87.21154970235966
 30
0.0
 10
384.0031660188431
 20
87.21154970235966
 30
0.0
 10
384.0031660188431
 20
78.9105865910659
 30
0.0
 10
384.0031660188431
 20
78.9105865910659
 30
0.0
 10
384.0031660188431
 20
78.39366102108408
 30
0.0
 10
384.4675374892103
 20
77.97495130939854
 30
0.0
 10
385.0404633292735
 20
77.97495130939854
 30
0.0
 10
385.0404633292735
 20
77.97495130939854
 30
0.0
 10
388.569341887017
 20
77.97495130939854
 30
0.0
 10
388.569341887017
 20
77.97495130939854
 30
0.0
 10
388.569341887017
 20
77.97495130939854
 30
0.0
 10
388.569341887017
 20
77.97495130939854
 30
0.0
 10
388.569341887017
 20
77.97495130939854
 30
0.0
 10
388.569341887017
 20
77.97495130939854
 30
0.0
 10
390.2295345092761
 20
77.97495130939854
 30
0.0
 10
390.2295345092761
 20
77.97495130939854
 30
0.0
 10
391.7794496766052
 20
77.97495130939854
 30
0.0
 10
393.0338557264281
 20
76.67488350089389
 30
0.0
 10
393.0338557264281
 20
75.06896806348322
 30
0.0
 10
393.0338557264281
 20
75.06896806348322
 30
0.0
 10
393.0338557264281
 20
75.06896806348322
 30
0.0
 10
393.0338557264281
 20
75.06896806348322
 30
0.0
 10
393.0338557264281
 20
75.06896806348322
 30
0.0
 10
393.0338557264281
 20
74.34182609504194
 30
0.0
 10
393.0338557264281
 20
74.34182609504194
 30
0.0
 10
393.0338557264281
 20
73.01332738018846
 30
0.0
 10
392.5091762728965
 20
71.74513664849939
 30
0.0
 10
391.5795717895454
 20
70.81294753729867
 30
0.0
 10
391.5795717895454
 20
70.81294753729867
 30
0.0
 10
391.3736631041696
 20
70.60703885192243
 30
0.0
 10
391.3736631041696
 20
70.60703885192243
 30
0.0
 10
391.3736631041696
 20
70.60703885192243
 30
0.0
 10
391.3736631041696
 20
70.60703885192243
 30
0.0
 10
391.3736631041696
 20
70.60703885192243
 30
0.0
 10
386.6532711076175
 20
65.88836994060364
 30
0.0
 10
384.0031660188431
 20
59.50347760870989
 30
0.0
 10
384.0031660188431
 20
52.85839940659162
 30
0.0
 10
384.0031660188431
 20
52.85839940659162
 30
0.0
 10
384.0031660188431
 20
-78.0228471997583
 30
0.0
 10
384.0031660188431
 20
-78.0228471997583
 30
0.0
 10
384.0031660188431
 20
-78.0228471997583
 30
0.0
 10
384.0031660188431
 20
-78.0228471997583
 30
0.0
 10
384.0031660188431
 20
-78.0228471997583
 30
0.0
 10
384.0031660188431
 20
-78.0228471997583
 30
0.0
 10
384.0031660188431
 20
-209.0057558348716
 30
0.0
 10
384.0031660188431
 20
-209.0057558348716
 30
0.0
 10
384.0031660188431
 20
-215.6508340369895
 30
0.0
 10
386.6532711076175
 20
-221.9969569511347
 30
0.0
 10
391.3736631041696
 20
-226.6501486235892
 30
0.0
 10
391.3736631041696
 20
-226.6501486235892
 30
0.0
 10
391.3736631041696
 20
-226.6501486235892
 30
0.0
 10
391.3736631041696
 20
-226.6501486235892
 30
0.0
  0
SPLINE
  5
30
330
A
100
AcDbEntity
  8
A-001_Pan
100
AcDbSpline
210
0.0
220
0.0
230
1.0
 70
     8
 71
     3
 72
    17
 73
    13
 74
     0
 42
0.0000000001
 43
0.0000000001
 40
0.0
 40
0.0
 40
0.0
 40
0.0
 40
1.0
 40
1.0
 40
1.0
 40
2.0
 40
2.0
 40
2.0
 40
3.0
 40
3.0
 40
3.0
 40
4.0
 40
4.0
 40
4.0
 40
4.0
 10
393.0338557264281
 20
206.9875119802634
 30
0.0
 10
369.121740401679
 20
263.117874996755
 30
0.0
 10
313.9959360761861
 20
299.5680200214168
 30
0.0
 10
253.0202573837302
 20
299.5680200214168
 30
0.0
 10
253.0202573837302
 20
299.5680200214168
 30
0.0
 10
253.0202573837302
 20
299.5680200214168
 30
0.0
 10
253.0202573837302
 20
299.5680200214168
 30
0.0
 10
192.0445786912743
 20
299.5680200214168
 30
0.0
 10
136.9179128231644
 20
263.117874996755
 30
0.0
 10
113.0066590410321
 20
206.9875119802634
 30
0.0
 10
113.0066590410321
 20
206.9875119802634
 30
0.0
 10
113.0066590410321
 20
206.9875119802634
 30
0.0
 10
113.0066590410321
 20
206.9875119802634
 30
0.0
  0
HATCH
  5
2F
330
A
100
AcDbEntity
  8
A-001_Pan
100
AcDbHatch
 10
0.0
 20
0.0
 30
0.0
210
0.0
220
0.0
230
1.0
  2
SOLID
 70
     1
 71
     0
 91
        1
 92
        3
 72
     0
 73
     1
 93
      210
 10
564.3903744623661
 20
-226.6501486235892
 10
564.5988677755918
 20
-226.8586419368152
 10
564.9090231175811
 20
-227.2730439354173
 10
565.2217630874205
 20
-227.6874459340196
 10
565.5327799720261
 20
-228.1018479326219
 10
565.7404117426355
 20
-228.5188345590739
 10
565.8446583992486
 20
-228.9332365576761
 10
565.9489050558617
 20
-229.4518852128913
 10
566.0531517124747
 20
-229.9705338681065
 10
566.0531517124747
 20
-230.3875204945588
 10
566.0531517124747
 20
-231.2163244917631
 10
566.0531517124747
 20
-231.7349731469783
 10
565.8446583992486
 20
-232.2536218021936
 10
565.6361650860225
 20
-232.7722704574088
 10
565.2217630874205
 20
-233.1892570838609
 10
564.8073610888181
 20
-233.6036590824633
 10
564.2887124336026
 20
-233.8121523956892
 10
563.7683406931548
 20
-234.0180610810654
 10
563.2488304953225
 20
-234.0180610810654
 10
561.5886378730636
 20
-234.0180610810654
 10
558.0597593153203
 20
-234.0180610810654
 10
557.851266002094
 20
-234.0180610810654
 10
557.749603973331
 20
-234.1223077376784
 10
557.5411106601048
 20
-234.2265543942914
 10
557.3326173468791
 20
-234.3308010509045
 10
557.2309553181156
 20
-234.5367097362806
 10
557.1267086615029
 20
-234.6409563928936
 10
557.1267086615029
 20
-234.8494497061197
 10
557.1267086615029
 20
-235.0579430193457
 10
557.1267086615029
 20
-243.2572441018763
 10
557.1267086615029
 20
-249.4836125923092
 10
557.1267086615029
 20
-250.1065079041373
 10
557.3326173468791
 20
-250.7294032159656
 10
557.5411106601048
 20
-251.3522985277938
 10
557.9555126587071
 20
-251.8709471830092
 10
558.3724992851594
 20
-252.3895958382244
 10
558.8911479403747
 20
-252.8039978368266
 10
559.4097965955898
 20
-253.1167378066656
 10
560.0326919074181
 20
-253.3252311198918
 10
561.0699892178485
 20
-253.6353864618809
 10
561.3801445598377
 20
-253.6353864618809
 10
562.1072865282789
 20
-253.9455418038701
 10
562.8344284967205
 20
-254.3625284303223
 10
563.4573238085482
 20
-254.8811770855375
 10
564.0802191203769
 20
-255.5040723973657
 10
564.4946211189791
 20
-256.1269677091939
 10
564.8073610888181
 20
-256.8541096776352
 10
565.0132697741943
 20
-257.6829136748396
 10
565.1175164308073
 20
-258.514302299894
 10
565.1175164308073
 20
-260.0702482655397
 10
565.0132697741943
 20
-261.2117922325832
 10
564.7031144322051
 20
-262.1474275142506
 10
564.1844657769898
 20
-263.184724824681
 10
563.4573238085482
 20
-263.9118667931223
 10
562.6259351834943
 20
-264.6364241337138
 10
561.6928845296769
 20
-265.1550727889289
 10
560.6555872192465
 20
-265.467812758768
 10
559.6157052809659
 20
-265.5720594153811
 10
553.5978301037593
 20
-265.5720594153811
 10
548.6146676091333
 20
-265.5720594153811
 10
547.3688769854763
 20
-265.467812758768
 10
546.1239479044366
 20
-265.0534107601659
 10
544.9815423947764
 20
-264.4305154483376
 10
543.9442450843463
 20
-263.7033734798962
 10
543.2171031159047
 20
-262.6660761694657
 10
542.5950693466931
 20
-261.5245322024223
 10
542.1798058054743
 20
-260.2787415787659
 10
542.0755591488613
 20
-259.0329509551091
 10
542.0755591488613
 20
-78.0228471997583
 10
542.0755591488613
 20
102.9898411834425
 10
542.0755591488613
 20
103.6127364952708
 10
542.1798058054743
 20
104.2356318070991
 10
542.3882991187005
 20
104.8559424910775
 10
542.5950693466931
 20
105.4788378029057
 10
542.8027011173025
 20
106.0000710859707
 10
543.2171031159047
 20
106.518719741186
 10
543.5298430857434
 20
107.0373683964013
 10
543.9442450843463
 20
107.5560170516164
 10
544.4628937395615
 20
107.9704190502187
 10
544.9815423947764
 20
108.384821048821
 10
545.5001910499914
 20
108.6975610186603
 10
546.1239479044366
 20
109.0077163606494
 10
546.7459816736483
 20
109.2162096738753
 10
547.3688769854763
 20
109.3204563304882
 10
547.9917722973047
 20
109.4247029871013
 10
548.6146676091333
 20
109.4247029871013
 10
553.5978301037593
 20
109.4247029871013
 10
559.6157052809659
 20
109.4247029871013
 10
560.6555872192465
 20
109.3204563304882
 10
561.6928845296769
 20
109.0077163606494
 10
562.6259351834943
 20
108.4890677054341
 10
563.4573238085482
 20
107.8661723936056
 10
564.1844657769898
 20
107.0373683964013
 10
564.7031144322051
 20
106.101733114734
 10
565.0132697741943
 20
105.0644358043036
 10
565.1175164308073
 20
104.0271384938729
 10
565.1175164308073
 20
102.3669458716142
 10
565.0132697741943
 20
101.639803903173
 10
564.8073610888181
 20
100.8084152781187
 10
564.4946211189791
 20
100.0838579375273
 10
564.0802191203769
 20
99.35671596908594
 10
563.4573238085482
 20
98.73382065725763
 10
562.8344284967205
 20
98.21517200204221
 10
562.1072865282789
 20
97.79818537559037
 10
561.3801445598377
 20
97.59227669021425
 10
561.0699892178485
 20
97.48803003360116
 10
560.0326919074181
 20
97.27953672037507
 10
559.4097965955898
 20
96.96938137838595
 10
558.8911479403747
 20
96.65664140854699
 10
558.3724992851594
 20
96.24223940994466
 10
557.9555126587071
 20
95.82783741134244
 10
557.5411106601048
 20
95.30918875612735
 10
557.3326173468791
 20
94.68629344429894
 10
557.1267086615029
 20
94.06339813247063
 10
557.1267086615029
 20
93.33625616402935
 10
557.1267086615029
 20
87.21154970235966
 10
557.1267086615029
 20
78.91058659106602
 10
557.1267086615029
 20
78.70209327783993
 10
557.1267086615029
 20
78.59784662122672
 10
557.2309553181156
 20
78.38935330800087
 10
557.3326173468791
 20
78.2876912792376
 10
557.5411106601048
 20
78.07919796601163
 10
557.749603973331
 20
77.97495130939876
 10
557.851266002094
 20
77.97495130939876
 10
558.0597593153203
 20
77.97495130939876
 10
561.5886378730636
 20
77.97495130939876
 10
563.2488304953225
 20
77.97495130939876
 10
563.7683406931548
 20
77.87070465278566
 10
564.2887124336026
 20
77.76904262402251
 10
564.8073610888181
 20
77.45630265418355
 10
565.2217630874205
 20
77.14614731219433
 10
565.6361650860225
 20
76.72916068574227
 10
565.8446583992486
 20
76.21051203052684
 10
566.0531517124747
 20
75.69186337531187
 10
566.0531517124747
 20
75.06896806348334
 10
566.0531517124747
 20
74.34182609504216
 10
566.0531517124747
 20
73.82317743982674
 10
565.9489050558617
 20
73.30452878461165
 10
565.8446583992486
 20
72.89012678600943
 10
565.7404117426355
 20
72.37147813079423
 10
565.5327799720261
 20
71.95449150434217
 10
565.2217630874205
 20
71.54008950573985
 10
564.9090231175811
 20
71.12568750713762
 10
564.5988677755918
 20
70.81294753729867
 10
564.3903744623661
 20
70.60703885192243
 10
563.9759724637636
 20
70.08839019670734
 10
563.5615704651617
 20
69.67140357025505
 10
563.1445838387097
 20
69.25700157165284
 10
562.7301818401073
 20
68.73835291643763
 10
562.4200264981181
 20
68.21970426122243
 10
562.0039014142824
 20
67.80271763477037
 10
561.6928845296769
 20
67.28406897955494
 10
561.2784825310744
 20
66.76542032433963
 10
560.9657425612357
 20
66.24677166912454
 10
560.6555872192465
 20
65.72812301390922
 10
560.3428472494073
 20
65.20947435869413
 10
560.0326919074181
 20
64.69082570347893
 10
559.7199519375789
 20
64.17217704826351
 10
559.5140432522026
 20
63.54928173643554
 10
559.2013032823639
 20
63.03063308122012
 10
558.9953945969877
 20
62.40773776939182
 10
558.7869012837614
 20
61.88908911417661
 10
558.5784079705355
 20
61.26619380234831
 10
558.3724992851594
 20
60.74496051928338
 10
558.1640059719332
 20
60.12464983530492
 10
557.9555126587071
 20
59.5017545234765
 10
557.851266002094
 20
58.98052124041123
 10
557.749603973331
 20
58.36021055643289
 10
557.5411106601048
 20
57.73731524460481
 10
557.4368640034921
 20
57.11441993277651
 10
557.3326173468791
 20
56.59577127756131
 10
557.2309553181156
 20
55.97287596573301
 10
557.2309553181156
 20
55.34998065390471
 10
557.1267086615029
 20
54.72708534207652
 10
557.1267086615029
 20
54.1041900302481
 10
557.1267086615029
 20
53.48129471841992
 10
557.1267086615029
 20
52.85839940659162
 10
557.1267086615029
 20
-78.0228471997583
 10
557.1267086615029
 20
-209.0057558348715
 10
557.1267086615029
 20
-209.6286511466997
 10
557.1267086615029
 20
-210.2515464585279
 10
557.1267086615029
 20
-210.7701951137433
 10
557.2309553181156
 20
-211.3930904255714
 10
557.2309553181156
 20
-212.0159857373997
 10
557.3326173468791
 20
-212.638881049228
 10
557.4368640034921
 20
-213.2617763610562
 10
557.5411106601048
 20
-213.8846716728845
 10
557.749603973331
 20
-214.5075669847129
 10
557.851266002094
 20
-215.026215639928
 10
557.9555126587071
 20
-215.6491109517563
 10
558.1640059719332
 20
-216.2720062635846
 10
558.3724992851594
 20
-216.7906549187998
 10
558.5784079705355
 20
-217.4135502306282
 10
558.7869012837614
 20
-217.9321988858433
 10
558.9953945969877
 20
-218.5550941976714
 10
559.2013032823639
 20
-219.0737428528869
 10
559.5140432522026
 20
-219.6966381647151
 10
559.7199519375789
 20
-220.2152868199303
 10
560.0326919074181
 20
-220.7339354751456
 10
560.3428472494073
 20
-221.3568307869738
 10
560.6555872192465
 20
-221.8754794421891
 10
560.9657425612357
 20
-222.3941280974042
 10
561.2784825310744
 20
-222.9127767526196
 10
561.6928845296769
 20
-223.3297633790717
 10
562.0039014142824
 20
-223.8484120342867
 10
562.4200264981181
 20
-224.3670606895021
 10
562.7301818401073
 20
-224.8857093447175
 10
563.1445838387097
 20
-225.3001113433195
 10
563.5615704651617
 20
-225.8187599985349
 10
563.9759724637636
 20
-226.2357466249869
 97
        0
 75
     2
 76
     1
 98
        1
 10
-552.2911957502377
 20
-698.2740847375667
  0
HATCH
  5
2E
330
A
100
AcDbEntity
  8
A-001_Pan
100
AcDbHatch
 10
0.0
 20
0.0
 30
0.0
210
0.0
220
0.0
230
1.0
  2
SOLID
 70
     1
 71
     0
 91
        1
 92
        1
 93
        1
 72
     4
 94
        3
 73
     0
 74
     0
 95
      179
 96
      175
 40
0.0
 40
0.0
 40
0.0
 40
0.0
 40
1.0
 40
1.0
 40
1.0
 40
2.0
 40
2.0
 40
2.0
 40
3.0
 40
3.0
 40
3.0
 40
4.0
 40
4.0
 40
4.0
 40
5.0
 40
5.0
 40
5.0
 40
6.0
 40
6.0
 40
6.0
 40
7.0
 40
7.0
 40
7.0
 40
8.0
 40
8.0
 40
8.0
 40
9.0
 40
9.0
 40
9.0
 40
10.0
 40
10.0
 40
10.0
 40
11.0
 40
11.0
 40
11.0
 40
12.0
 40
12.0
 40
12.0
 40
13.0
 40
13.0
 40
13.0
 40
14.0
 40
14.0
 40
14.0
 40
15.0
 40
15.0
 40
15.0
 40
16.0
 40
16.0
 40
16.0
 40
17.0
 40
17.0
 40
17.0
 40
18.0
 40
18.0
 40
18.0
 40
19.0
 40
19.0
 40
19.0
 40
20.0
 40
20.0
 40
20.0
 40
21.0
 40
21.0
 40
21.0
 40
22.0
 40
22.0
 40
22.0
 40
23.0
 40
23.0
 40
23.0
 40
24.0
 40
24.0
 40
24.0
 40
25.0
 40
25.0
 40
25.0
 40
26.0
 40
26.0
 40
26.0
 40
27.0
 40
27.0
 40
27.0
 40
28.0
 40
28.0
 40
28.0
 40
29.0
 40
29.0
 40
29.0
 40
30.0
 40
30.0
 40
30.0
 40
31.0
 40
31.0
 40
31.0
 40
32.0
 40
32.0
 40
32.0
 40
33.0
 40
33.0
 40
33.0
 40
34.0
 40
34.0
 40
34.0
 40
35.0
 40
35.0
 40
35.0
 40
36.0
 40
36.0
 40
36.0
 40
37.0
 40
37.0
 40
37.0
 40
38.0
 40
38.0
 40
38.0
 40
39.0
 40
39.0
 40
39.0
 40
40.0
 40
40.0
 40
40.0
 40
41.0
 40
41.0
 40
41.0
 40
42.0
 40
42.0
 40
42.0
 40
43.0
 40
43.0
 40
43.0
 40
44.0
 40
44.0
 40
44.0
 40
45.0
 40
45.0
 40
45.0
 40
46.0
 40
46.0
 40
46.0
 40
47.0
 40
47.0
 40
47.0
 40
48.0
 40
48.0
 40
48.0
 40
49.0
 40
49.0
 40
49.0
 40
50.0
 40
50.0
 40
50.0
 40
51.0
 40
51.0
 40
51.0
 40
52.0
 40
52.0
 40
52.0
 40
53.0
 40
53.0
 40
53.0
 40
54.0
 40
54.0
 40
54.0
 40
55.0
 40
55.0
 40
55.0
 40
56.0
 40
56.0
 40
56.0
 40
57.0
 40
57.0
 40
57.0
 40
58.0
 40
58.0
 40
58.0
 40
58.0
 10
564.3903744623661
 20
-226.6501486235892
 10
564.3903744623661
 20
-226.6501486235892
 10
564.5988677755918
 20
-226.8586419368152
 10
564.5988677755918
 20
-226.8586419368152
 10
565.528472258943
 20
-227.7882464201661
 10
566.0531517124747
 20
-229.0564371518551
 10
566.0531517124747
 20
-230.3875204945588
 10
566.0531517124747
 20
-230.3875204945588
 10
566.0531517124747
 20
-231.2163244917631
 10
566.0531517124747
 20
-231.2163244917631
 10
566.0531517124747
 20
-231.2163244917631
 10
566.0531517124747
 20
-231.2163244917631
 10
566.0531517124747
 20
-231.2163244917631
 10
566.0531517124747
 20
-232.7636550312425
 10
564.7970225774185
 20
-234.0180610810654
 10
563.2488304953225
 20
-234.0180610810654
 10
563.2488304953225
 20
-234.0180610810654
 10
561.5886378730636
 20
-234.0180610810654
 10
561.5886378730636
 20
-234.0180610810654
 10
561.5886378730636
 20
-234.0180610810654
 10
561.5886378730636
 20
-234.0180610810654
 10
561.5886378730636
 20
-234.0180610810654
 10
561.5886378730636
 20
-234.0180610810654
 10
558.0597593153203
 20
-234.0180610810654
 10
558.0597593153203
 20
-234.0180610810654
 10
557.5445568305716
 20
-234.0180610810654
 10
557.1267086615029
 20
-234.4841556366657
 10
557.1267086615029
 20
-235.0579430193457
 10
557.1267086615029
 20
-235.0579430193457
 10
557.1267086615029
 20
-243.2572441018763
 10
557.1267086615029
 20
-243.2572441018763
 10
557.1267086615029
 20
-243.2572441018763
 10
557.1267086615029
 20
-243.2572441018763
 10
557.1267086615029
 20
-243.2572441018763
 10
557.1267086615029
 20
-243.2572441018763
 10
557.1267086615029
 20
-249.4836125923092
 10
557.1267086615029
 20
-249.4836125923092
 10
557.1267086615029
 20
-251.3204214509784
 10
558.3173605576948
 20
-252.8961828968068
 10
560.0326919074181
 20
-253.3252311198918
 10
560.0326919074181
 20
-253.3252311198918
 10
561.0699892178485
 20
-253.6353864618809
 10
561.0699892178485
 20
-253.6353864618809
 10
561.0699892178485
 20
-253.6353864618809
 10
561.0699892178485
 20
-253.6353864618809
 10
561.0699892178485
 20
-253.6353864618809
 10
561.0699892178485
 20
-253.6353864618809
 10
561.3801445598377
 20
-253.6353864618809
 10
561.3801445598377
 20
-253.6353864618809
 10
563.5856936584274
 20
-254.2479432623096
 10
565.1175164308073
 20
-256.2484452181396
 10
565.1175164308073
 20
-258.514302299894
 10
565.1175164308073
 20
-258.514302299894
 10
565.1175164308073
 20
-260.0702482655397
 10
565.1175164308073
 20
-260.0702482655397
 10
565.1175164308073
 20
-260.0702482655397
 10
565.1175164308073
 20
-260.0702482655397
 10
565.1175164308073
 20
-260.0702482655397
 10
565.1175164308073
 20
-263.1089090744171
 10
562.6543660898433
 20
-265.5720594153811
 10
559.6157052809659
 20
-265.5720594153811
 10
559.6157052809659
 20
-265.5720594153811
 10
553.5978301037593
 20
-265.5720594153811
 10
553.5978301037593
 20
-265.5720594153811
 10
553.5978301037593
 20
-265.5720594153811
 10
553.5978301037593
 20
-265.5720594153811
 10
553.5978301037593
 20
-265.5720594153811
 10
553.5978301037593
 20
-265.5720594153811
 10
548.6146676091333
 20
-265.5720594153811
 10
548.6146676091333
 20
-265.5720594153811
 10
545.0030809601923
 20
-265.5720594153811
 10
542.0755591488613
 20
-262.6445376040499
 10
542.0755591488613
 20
-259.0329509551091
 10
542.0755591488613
 20
-259.0329509551091
 10
542.0755591488613
 20
-78.0228471997583
 10
542.0755591488613
 20
-78.0228471997583
 10
542.0755591488613
 20
-78.0228471997583
 10
542.0755591488613
 20
-78.0228471997583
 10
542.0755591488613
 20
-78.0228471997583
 10
542.0755591488613
 20
-78.0228471997583
 10
542.0755591488613
 20
102.9898411834425
 10
542.0755591488613
 20
102.9898411834425
 10
542.0755591488613
 20
106.5428429344519
 10
545.0030809601923
 20
109.4247029871013
 10
548.6146676091333
 20
109.4247029871013
 10
548.6146676091333
 20
109.4247029871013
 10
553.5978301037593
 20
109.4247029871013
 10
553.5978301037593
 20
109.4247029871013
 10
553.5978301037593
 20
109.4247029871013
 10
553.5978301037593
 20
109.4247029871013
 10
553.5978301037593
 20
109.4247029871013
 10
553.5978301037593
 20
109.4247029871013
 10
559.6157052809659
 20
109.4247029871013
 10
559.6157052809659
 20
109.4247029871013
 10
562.6543660898433
 20
109.4247029871013
 10
565.1175164308073
 20
107.007214404819
 10
565.1175164308073
 20
104.0271384938729
 10
565.1175164308073
 20
104.0271384938729
 10
565.1175164308073
 20
104.0271384938729
 10
565.1175164308073
 20
104.0271384938729
 10
565.1175164308073
 20
104.0271384938729
 10
565.1175164308073
 20
102.3669458716142
 10
565.1175164308073
 20
102.3669458716142
 10
565.1175164308073
 20
100.1010887898601
 10
563.5856936584274
 20
98.14280242224505
 10
561.3801445598377
 20
97.59227669021425
 10
561.3801445598377
 20
97.59227669021425
 10
561.0699892178485
 20
97.48803003360116
 10
561.0699892178485
 20
97.48803003360116
 10
561.0699892178485
 20
97.48803003360116
 10
561.0699892178485
 20
97.48803003360116
 10
561.0699892178485
 20
97.48803003360116
 10
561.0699892178485
 20
97.48803003360116
 10
560.0326919074181
 20
97.27953672037507
 10
560.0326919074181
 20
97.27953672037507
 10
558.3173605576948
 20
96.79104205674207
 10
557.1267086615029
 20
95.17306502269844
 10
557.1267086615029
 20
93.33625616402935
 10
557.1267086615029
 20
93.33625616402935
 10
557.1267086615029
 20
87.21154970235966
 10
557.1267086615029
 20
87.21154970235966
 10
557.1267086615029
 20
87.21154970235966
 10
557.1267086615029
 20
87.21154970235966
 10
557.1267086615029
 20
87.21154970235966
 10
557.1267086615029
 20
87.21154970235966
 10
557.1267086615029
 20
78.91058659106602
 10
557.1267086615029
 20
78.91058659106602
 10
557.1267086615029
 20
78.39366102108408
 10
557.5445568305716
 20
77.97495130939876
 10
558.0597593153203
 20
77.97495130939876
 10
558.0597593153203
 20
77.97495130939876
 10
561.5886378730636
 20
77.97495130939876
 10
561.5886378730636
 20
77.97495130939876
 10
561.5886378730636
 20
77.97495130939876
 10
561.5886378730636
 20
77.97495130939876
 10
561.5886378730636
 20
77.97495130939876
 10
561.5886378730636
 20
77.97495130939876
 10
563.2488304953225
 20
77.97495130939876
 10
563.2488304953225
 20
77.97495130939876
 10
564.7970225774185
 20
77.97495130939876
 10
566.0531517124747
 20
76.67488350089411
 10
566.0531517124747
 20
75.06896806348334
 10
566.0531517124747
 20
75.06896806348334
 10
566.0531517124747
 20
75.06896806348334
 10
566.0531517124747
 20
75.06896806348334
 10
566.0531517124747
 20
75.06896806348334
 10
566.0531517124747
 20
74.34182609504216
 10
566.0531517124747
 20
74.34182609504216
 10
566.0531517124747
 20
73.01332738018846
 10
565.528472258943
 20
71.74513664849939
 10
564.5988677755918
 20
70.81294753729867
 10
564.5988677755918
 20
70.81294753729867
 10
564.3903744623661
 20
70.60703885192243
 10
564.3903744623661
 20
70.60703885192243
 10
564.3903744623661
 20
70.60703885192243
 10
564.3903744623661
 20
70.60703885192243
 10
564.3903744623661
 20
70.60703885192243
 10
559.7397674177617
 20
65.88836994060364
 10
557.1267086615029
 20
59.50347760870989
 10
557.1267086615029
 20
52.85839940659162
 10
557.1267086615029
 20
52.85839940659162
 10
557.1267086615029
 20
-78.0228471997583
 10
557.1267086615029
 20
-78.0228471997583
 10
557.1267086615029
 20
-78.0228471997583
 10
557.1267086615029
 20
-78.0228471997583
 10
557.1267086615029
 20
-78.0228471997583
 10
557.1267086615029
 20
-78.0228471997583
 10
557.1267086615029
 20
-209.0057558348715
 10
557.1267086615029
 20
-209.0057558348715
 10
557.1267086615029
 20
-215.6508340369895
 10
559.7397674177617
 20
-221.9969569511347
 10
564.3903744623661
 20
-226.6501486235892
 10
564.3903744623661
 20
-226.6501486235892
 10
564.3903744623661
 20
-226.6501486235892
 10
564.3903744623661
 20
-226.6501486235892
 97
        0
 75
     2
 76
     1
 98
        1
 10
-552.2911957502377
 20
-698.2740847375667
  0
SPLINE
  5
2D
330
A
100
AcDbEntity
  8
A-001_Pan
100
AcDbSpline
210
0.0
220
0.0
230
1.0
 70
     9
 71
     3
 72
   179
 73
   175
 74
     0
 42
0.0000000001
 43
0.0000000001
 40
0.0
 40
0.0
 40
0.0
 40
0.0
 40
1.0
 40
1.0
 40
1.0
 40
2.0
 40
2.0
 40
2.0
 40
3.0
 40
3.0
 40
3.0
 40
4.0
 40
4.0
 40
4.0
 40
5.0
 40
5.0
 40
5.0
 40
6.0
 40
6.0
 40
6.0
 40
7.0
 40
7.0
 40
7.0
 40
8.0
 40
8.0
 40
8.0
 40
9.0
 40
9.0
 40
9.0
 40
10.0
 40
10.0
 40
10.0
 40
11.0
 40
11.0
 40
11.0
 40
12.0
 40
12.0
 40
12.0
 40
13.0
 40
13.0
 40
13.0
 40
14.0
 40
14.0
 40
14.0
 40
15.0
 40
15.0
 40
15.0
 40
16.0
 40
16.0
 40
16.0
 40
17.0
 40
17.0
 40
17.0
 40
18.0
 40
18.0
 40
18.0
 40
19.0
 40
19.0
 40
19.0
 40
20.0
 40
20.0
 40
20.0
 40
21.0
 40
21.0
 40
21.0
 40
22.0
 40
22.0
 40
22.0
 40
23.0
 40
23.0
 40
23.0
 40
24.0
 40
24.0
 40
24.0
 40
25.0
 40
25.0
 40
25.0
 40
26.0
 40
26.0
 40
26.0
 40
27.0
 40
27.0
 40
27.0
 40
28.0
 40
28.0
 40
28.0
 40
29.0
 40
29.0
 40
29.0
 40
30.0
 40
30.0
 40
30.0
 40
31.0
 40
31.0
 40
31.0
 40
32.0
 40
32.0
 40
32.0
 40
33.0
 40
33.0
 40
33.0
 40
34.0
 40
34.0
 40
34.0
 40
35.0
 40
35.0
 40
35.0
 40
36.0
 40
36.0
 40
36.0
 40
37.0
 40
37.0
 40
37.0
 40
38.0
 40
38.0
 40
38.0
 40
39.0
 40
39.0
 40
39.0
 40
40.0
 40
40.0
 40
40.0
 40
41.0
 40
41.0
 40
41.0
 40
42.0
 40
42.0
 40
42.0
 40
43.0
 40
43.0
 40
43.0
 40
44.0
 40
44.0
 40
44.0
 40
45.0
 40
45.0
 40
45.0
 40
46.0
 40
46.0
 40
46.0
 40
47.0
 40
47.0
 40
47.0
 40
48.0
 40
48.0
 40
48.0
 40
49.0
 40
49.0
 40
49.0
 40
50.0
 40
50.0
 40
50.0
 40
51.0
 40
51.0
 40
51.0
 40
52.0
 40
52.0
 40
52.0
 40
53.0
 40
53.0
 40
53.0
 40
54.0
 40
54.0
 40
54.0
 40
55.0
 40
55.0
 40
55.0
 40
56.0
 40
56.0
 40
56.0
 40
57.0
 40
57.0
 40
57.0
 40
58.0
 40
58.0
 40
58.0
 40
58.0
 10
564.3903744623659
 20
-226.6501486235892
 30
0.0
 10
564.3903744623659
 20
-226.6501486235892
 30
0.0
 10
564.5988677755916
 20
-226.8586419368152
 30
0.0
 10
564.5988677755916
 20
-226.8586419368152
 30
0.0
 10
565.528472258943
 20
-227.7882464201661
 30
0.0
 10
566.0531517124744
 20
-229.0564371518551
 30
0.0
 10
566.0531517124744
 20
-230.3875204945588
 30
0.0
 10
566.0531517124744
 20
-230.3875204945588
 30
0.0
 10
566.0531517124744
 20
-231.2163244917632
 30
0.0
 10
566.0531517124744
 20
-231.2163244917632
 30
0.0
 10
566.0531517124744
 20
-231.2163244917632
 30
0.0
 10
566.0531517124744
 20
-231.2163244917632
 30
0.0
 10
566.0531517124744
 20
-231.2163244917632
 30
0.0
 10
566.0531517124744
 20
-232.7636550312425
 30
0.0
 10
564.7970225774182
 20
-234.0180610810654
 30
0.0
 10
563.2488304953223
 20
-234.0180610810654
 30
0.0
 10
563.2488304953223
 20
-234.0180610810654
 30
0.0
 10
561.5886378730632
 20
-234.0180610810654
 30
0.0
 10
561.5886378730632
 20
-234.0180610810654
 30
0.0
 10
561.5886378730632
 20
-234.0180610810654
 30
0.0
 10
561.5886378730632
 20
-234.0180610810654
 30
0.0
 10
561.5886378730632
 20
-234.0180610810654
 30
0.0
 10
561.5886378730632
 20
-234.0180610810654
 30
0.0
 10
558.0597593153198
 20
-234.0180610810654
 30
0.0
 10
558.0597593153198
 20
-234.0180610810654
 30
0.0
 10
557.5445568305714
 20
-234.0180610810654
 30
0.0
 10
557.1267086615026
 20
-234.4841556366657
 30
0.0
 10
557.1267086615026
 20
-235.0579430193457
 30
0.0
 10
557.1267086615026
 20
-235.0579430193457
 30
0.0
 10
557.1267086615026
 20
-243.2572441018763
 30
0.0
 10
557.1267086615026
 20
-243.2572441018763
 30
0.0
 10
557.1267086615026
 20
-243.2572441018763
 30
0.0
 10
557.1267086615026
 20
-243.2572441018763
 30
0.0
 10
557.1267086615026
 20
-243.2572441018763
 30
0.0
 10
557.1267086615026
 20
-243.2572441018763
 30
0.0
 10
557.1267086615026
 20
-249.4836125923092
 30
0.0
 10
557.1267086615026
 20
-249.4836125923092
 30
0.0
 10
557.1267086615026
 20
-251.3204214509784
 30
0.0
 10
558.3173605576945
 20
-252.8961828968068
 30
0.0
 10
560.0326919074181
 20
-253.3252311198918
 30
0.0
 10
560.0326919074181
 20
-253.3252311198918
 30
0.0
 10
561.0699892178482
 20
-253.6353864618809
 30
0.0
 10
561.0699892178482
 20
-253.6353864618809
 30
0.0
 10
561.0699892178482
 20
-253.6353864618809
 30
0.0
 10
561.0699892178482
 20
-253.6353864618809
 30
0.0
 10
561.0699892178482
 20
-253.6353864618809
 30
0.0
 10
561.0699892178482
 20
-253.6353864618809
 30
0.0
 10
561.3801445598377
 20
-253.6353864618809
 30
0.0
 10
561.3801445598377
 20
-253.6353864618809
 30
0.0
 10
563.5856936584271
 20
-254.2479432623096
 30
0.0
 10
565.117516430807
 20
-256.2484452181396
 30
0.0
 10
565.117516430807
 20
-258.5143022998941
 30
0.0
 10
565.117516430807
 20
-258.5143022998941
 30
0.0
 10
565.117516430807
 20
-260.0702482655397
 30
0.0
 10
565.117516430807
 20
-260.0702482655397
 30
0.0
 10
565.117516430807
 20
-260.0702482655397
 30
0.0
 10
565.117516430807
 20
-260.0702482655397
 30
0.0
 10
565.117516430807
 20
-260.0702482655397
 30
0.0
 10
565.117516430807
 20
-263.1089090744171
 30
0.0
 10
562.6543660898431
 20
-265.5720594153811
 30
0.0
 10
559.6157052809659
 20
-265.5720594153811
 30
0.0
 10
559.6157052809659
 20
-265.5720594153811
 30
0.0
 10
553.597830103759
 20
-265.5720594153811
 30
0.0
 10
553.597830103759
 20
-265.5720594153811
 30
0.0
 10
553.597830103759
 20
-265.5720594153811
 30
0.0
 10
553.597830103759
 20
-265.5720594153811
 30
0.0
 10
553.597830103759
 20
-265.5720594153811
 30
0.0
 10
553.597830103759
 20
-265.5720594153811
 30
0.0
 10
548.6146676091333
 20
-265.5720594153811
 30
0.0
 10
548.6146676091333
 20
-265.5720594153811
 30
0.0
 10
545.003080960192
 20
-265.5720594153811
 30
0.0
 10
542.075559148861
 20
-262.6445376040499
 30
0.0
 10
542.075559148861
 20
-259.0329509551092
 30
0.0
 10
542.075559148861
 20
-259.0329509551092
 30
0.0
 10
542.075559148861
 20
-78.0228471997583
 30
0.0
 10
542.075559148861
 20
-78.0228471997583
 30
0.0
 10
542.075559148861
 20
-78.0228471997583
 30
0.0
 10
542.075559148861
 20
-78.0228471997583
 30
0.0
 10
542.075559148861
 20
-78.0228471997583
 30
0.0
 10
542.075559148861
 20
-78.0228471997583
 30
0.0
 10
542.075559148861
 20
102.9898411834424
 30
0.0
 10
542.075559148861
 20
102.9898411834424
 30
0.0
 10
542.075559148861
 20
106.5428429344519
 30
0.0
 10
545.003080960192
 20
109.4247029871013
 30
0.0
 10
548.6146676091333
 20
109.4247029871013
 30
0.0
 10
548.6146676091333
 20
109.4247029871013
 30
0.0
 10
553.597830103759
 20
109.4247029871013
 30
0.0
 10
553.597830103759
 20
109.4247029871013
 30
0.0
 10
553.597830103759
 20
109.4247029871013
 30
0.0
 10
553.597830103759
 20
109.4247029871013
 30
0.0
 10
553.597830103759
 20
109.4247029871013
 30
0.0
 10
553.597830103759
 20
109.4247029871013
 30
0.0
 10
559.6157052809659
 20
109.4247029871013
 30
0.0
 10
559.6157052809659
 20
109.4247029871013
 30
0.0
 10
562.6543660898431
 20
109.4247029871013
 30
0.0
 10
565.117516430807
 20
107.007214404819
 30
0.0
 10
565.117516430807
 20
104.0271384938728
 30
0.0
 10
565.117516430807
 20
104.0271384938728
 30
0.0
 10
565.117516430807
 20
104.0271384938728
 30
0.0
 10
565.117516430807
 20
104.0271384938728
 30
0.0
 10
565.117516430807
 20
104.0271384938728
 30
0.0
 10
565.117516430807
 20
102.3669458716141
 30
0.0
 10
565.117516430807
 20
102.3669458716141
 30
0.0
 10
565.117516430807
 20
100.1010887898599
 30
0.0
 10
563.5856936584271
 20
98.14280242224505
 30
0.0
 10
561.3801445598377
 20
97.59227669021413
 30
0.0
 10
561.3801445598377
 20
97.59227669021413
 30
0.0
 10
561.0699892178482
 20
97.48803003360116
 30
0.0
 10
561.0699892178482
 20
97.48803003360116
 30
0.0
 10
561.0699892178482
 20
97.48803003360116
 30
0.0
 10
561.0699892178482
 20
97.48803003360116
 30
0.0
 10
561.0699892178482
 20
97.48803003360116
 30
0.0
 10
561.0699892178482
 20
97.48803003360116
 30
0.0
 10
560.0326919074181
 20
97.27953672037495
 30
0.0
 10
560.0326919074181
 20
97.27953672037495
 30
0.0
 10
558.3173605576945
 20
96.79104205674196
 30
0.0
 10
557.1267086615026
 20
95.17306502269832
 30
0.0
 10
557.1267086615026
 20
93.33625616402924
 30
0.0
 10
557.1267086615026
 20
93.33625616402924
 30
0.0
 10
557.1267086615026
 20
87.21154970235966
 30
0.0
 10
557.1267086615026
 20
87.21154970235966
 30
0.0
 10
557.1267086615026
 20
87.21154970235966
 30
0.0
 10
557.1267086615026
 20
87.21154970235966
 30
0.0
 10
557.1267086615026
 20
87.21154970235966
 30
0.0
 10
557.1267086615026
 20
87.21154970235966
 30
0.0
 10
557.1267086615026
 20
78.9105865910659
 30
0.0
 10
557.1267086615026
 20
78.9105865910659
 30
0.0
 10
557.1267086615026
 20
78.39366102108408
 30
0.0
 10
557.5445568305714
 20
77.97495130939854
 30
0.0
 10
558.0597593153198
 20
77.97495130939854
 30
0.0
 10
558.0597593153198
 20
77.97495130939854
 30
0.0
 10
561.5886378730632
 20
77.97495130939854
 30
0.0
 10
561.5886378730632
 20
77.97495130939854
 30
0.0
 10
561.5886378730632
 20
77.97495130939854
 30
0.0
 10
561.5886378730632
 20
77.97495130939854
 30
0.0
 10
561.5886378730632
 20
77.97495130939854
 30
0.0
 10
561.5886378730632
 20
77.97495130939854
 30
0.0
 10
563.2488304953223
 20
77.97495130939854
 30
0.0
 10
563.2488304953223
 20
77.97495130939854
 30
0.0
 10
564.7970225774182
 20
77.97495130939854
 30
0.0
 10
566.0531517124744
 20
76.67488350089389
 30
0.0
 10
566.0531517124744
 20
75.06896806348322
 30
0.0
 10
566.0531517124744
 20
75.06896806348322
 30
0.0
 10
566.0531517124744
 20
75.06896806348322
 30
0.0
 10
566.0531517124744
 20
75.06896806348322
 30
0.0
 10
566.0531517124744
 20
75.06896806348322
 30
0.0
 10
566.0531517124744
 20
74.34182609504194
 30
0.0
 10
566.0531517124744
 20
74.34182609504194
 30
0.0
 10
566.0531517124744
 20
73.01332738018846
 30
0.0
 10
565.528472258943
 20
71.74513664849939
 30
0.0
 10
564.5988677755916
 20
70.81294753729867
 30
0.0
 10
564.5988677755916
 20
70.81294753729867
 30
0.0
 10
564.3903744623659
 20
70.60703885192243
 30
0.0
 10
564.3903744623659
 20
70.60703885192243
 30
0.0
 10
564.3903744623659
 20
70.60703885192243
 30
0.0
 10
564.3903744623659
 20
70.60703885192243
 30
0.0
 10
564.3903744623659
 20
70.60703885192243
 30
0.0
 10
559.7397674177615
 20
65.88836994060364
 30
0.0
 10
557.1267086615026
 20
59.50347760870989
 30
0.0
 10
557.1267086615026
 20
52.85839940659162
 30
0.0
 10
557.1267086615026
 20
52.85839940659162
 30
0.0
 10
557.1267086615026
 20
-78.0228471997583
 30
0.0
 10
557.1267086615026
 20
-78.0228471997583
 30
0.0
 10
557.1267086615026
 20
-78.0228471997583
 30
0.0
 10
557.1267086615026
 20
-78.0228471997583
 30
0.0
 10
557.1267086615026
 20
-78.0228471997583
 30
0.0
 10
557.1267086615026
 20
-78.0228471997583
 30
0.0
 10
557.1267086615026
 20
-209.0057558348716
 30
0.0
 10
557.1267086615026
 20
-209.0057558348716
 30
0.0
 10
557.1267086615026
 20
-215.6508340369895
 30
0.0
 10
559.7397674177615
 20
-221.9969569511347
 30
0.0
 10
564.3903744623659
 20
-226.6501486235892
 30
0.0
 10
564.3903744623659
 20
-226.6501486235892
 30
0.0
 10
564.3903744623659
 20
-226.6501486235892
 30
0.0
 10
564.3903744623659
 20
-226.6501486235892
 30
0.0
  0
HATCH
  5
2C
330
A
100
AcDbEntity
  8
A-001_Pan
100
AcDbHatch
 10
0.0
 20
0.0
 30
0.0
210
0.0
220
0.0
230
1.0
  2
SOLID
 70
     1
 71
     0
 91
        1
 92
        3
 72
     0
 73
     0
 93
      750
 10
368.0189658523844
 20
200.4484035199922
 10
368.0189658523844
 20
200.6568968332179
 10
367.915580738388
 20
200.7585588619813
 10
367.8130571670081
 20
200.8628055185942
 10
367.8130571670081
 20
201.0712988318204
 10
367.7088105103952
 20
201.1755454884333
 10
367.7088105103952
 20
201.2797921450462
 10
367.6045638537823
 20
201.4857008304225
 10
367.500317197169
 20
201.5899474870355
 10
367.500317197169
 20
201.6941941436485
 10
367.3960705405562
 20
201.9001028290246
 10
367.2918238839433
 20
202.0043494856377
 10
367.2918238839433
 20
202.2128427988639
 10
367.1901618551799
 20
202.3170894554768
 10
367.1901618551799
 20
202.4213361120901
 10
367.0859151985669
 20
202.627244797466
 10
366.9816685419541
 20
202.7314914540792
 10
366.9816685419541
 20
202.8357381106919
 10
366.877421885341
 20
203.0442314239179
 10
366.7731752287278
 20
203.1458934526811
 10
366.7731752287278
 20
203.2501401092942
 10
366.6715131999649
 20
203.4586334225204
 10
366.5672665433518
 20
203.5628800791334
 10
366.5672665433518
 20
203.6645421078963
 10
366.4630198867386
 20
203.8730354211226
 10
366.4630198867386
 20
203.9772820777354
 10
366.3587732301256
 20
204.1857753909616
 10
366.2545265735126
 20
204.2874374197246
 10
366.2545265735126
 20
204.3916840763379
 10
366.1511414595162
 20
204.600177389564
 10
366.0486178881365
 20
204.7044240461765
 10
366.0486178881365
 20
204.8086707027898
 10
365.9443712315234
 20
205.0145793881656
 10
365.8401245749103
 20
205.118826044779
 10
365.8401245749103
 20
205.2230727013922
 10
365.7358779182975
 20
205.4289813867681
 10
365.6316312616843
 20
205.5332280433813
 10
365.6316312616843
 20
205.6374746999943
 10
365.5273846050714
 20
205.8459680132205
 10
365.4257225763083
 20
205.9502146698336
 10
365.4257225763083
 20
206.0527382412132
 10
365.3214759196951
 20
206.2603700118227
 10
365.2172292630821
 20
206.3646166684356
 10
365.2172292630821
 20
206.4688633250487
 10
365.1129826064689
 20
206.6747720104247
 10
365.008735949856
 20
206.7790186670378
 10
365.008735949856
 20
206.8832653236509
 10
364.907073921093
 20
207.0917586368771
 10
364.8028272644798
 20
207.1934206656401
 10
364.8028272644798
 20
207.2976673222528
 10
364.6985806078668
 20
207.5061606354791
 10
364.5943339512538
 20
207.6104072920923
 10
364.5943339512538
 20
207.7146539487053
 10
364.4900872946407
 20
207.9205626340814
 10
364.3867021806444
 20
208.0248092906944
 10
364.2841786092647
 20
208.1290559473074
 10
364.2841786092647
 20
208.3375492605331
 10
364.1799319526516
 20
208.4392112892965
 10
364.0756852960389
 20
208.5434579459097
 10
364.0756852960389
 20
208.7519512591357
 10
363.9714386394258
 20
208.8561979157485
 10
363.8671919828124
 20
208.9578599445115
 10
363.8671919828124
 20
209.1663532577377
 10
363.7629453261995
 20
209.2705999143509
 10
363.6612832974365
 20
209.3748465709641
 10
363.5570366408233
 20
209.5816167989565
 10
363.5570366408233
 20
209.6850019129533
 10
363.4527899842103
 20
209.7892485695662
 10
363.3485433275974
 20
209.9977418827922
 10
363.3485433275974
 20
210.1019885394054
 10
363.2442966709841
 20
210.2036505681683
 10
363.1426346422212
 20
210.3078972247813
 10
363.0383879856082
 20
210.5163905380074
 10
363.0383879856082
 20
210.6206371946202
 10
362.934141328995
 20
210.7222992233837
 10
362.829894672382
 20
210.9307925366095
 10
362.7256480157694
 20
211.0350391932227
 10
362.7256480157694
 20
211.1392858498357
 10
362.6222629017727
 20
211.3460560778287
 10
362.5197393303929
 20
211.4494411918248
 10
362.5197393303929
 20
211.5536878484378
 10
362.4154926737801
 20
211.762181161664
 10
362.3112460171667
 20
211.8664278182771
 10
362.2069993605538
 20
211.9680898470402
 10
362.2069993605538
 20
212.0723365036531
 10
362.102752703941
 20
212.2808298168792
 10
361.9985060473279
 20
212.3850764734924
 10
361.8968440185647
 20
212.4867385022554
 10
361.8968440185647
 20
212.6952318154816
 10
361.7925973619517
 20
212.7994784720945
 10
361.6883507053386
 20
212.9037251287074
 10
361.5841040487255
 20
213.1104953567002
 10
361.5841040487255
 20
213.2138804706965
 10
361.4798573921123
 20
213.3181271273095
 10
361.3781953633495
 20
213.4223737839227
 10
361.2739487067364
 20
213.6308670971489
 10
361.2739487067364
 20
213.7325291259119
 10
361.1697020501232
 20
213.8367757825249
 10
361.0654553935106
 20
214.0452690957511
 10
360.9612087368972
 20
214.149515752364
 10
360.9612087368972
 20
214.2511777811272
 10
360.8578236229009
 20
214.3554244377404
 10
360.7553000515214
 20
214.5639177509661
 10
360.6510533949081
 20
214.6681644075792
 10
360.546806738295
 20
214.7724110641925
 10
360.546806738295
 20
214.9783197495683
 10
360.442560081682
 20
215.0825664061817
 10
360.3383134250693
 20
215.1868130627943
 10
360.2340667684562
 20
215.2910597194075
 10
360.2340667684562
 20
215.4969684047834
 10
360.1324047396929
 20
215.6012150613966
 10
360.02815808308
 20
215.7054617180097
 10
359.923911426467
 20
215.9139550312358
 10
359.8196647698538
 20
216.0156170599989
 10
359.8196647698538
 20
216.119863716612
 10
359.7154181132408
 20
216.2241103732249
 10
359.6137560844778
 20
216.4326036864512
 10
359.5095094278647
 20
216.536850343064
 10
359.4052627712516
 20
216.6393739144438
 10
359.4052627712516
 20
216.7427590284404
 10
359.3010161146384
 20
216.9512523416661
 10
359.1967694580254
 20
217.0554989982793
 10
359.0933843440291
 20
217.1597456548923
 10
358.9908607726492
 20
217.3656543402685
 10
358.9908607726492
 20
217.4699009968814
 10
358.8866141160363
 20
217.5741476534944
 10
358.7823674594234
 20
217.6783943101076
 10
358.6781208028106
 20
217.8843029954835
 10
358.5738741461972
 20
217.9885496520968
 10
357.0179281805516
 20
216.8470056850531
 10
356.4992795253363
 20
216.536850343064
 10
355.9806308701211
 20
216.3283570298378
 10
355.357735558293
 20
216.2241103732249
 10
354.7348402464646
 20
216.2241103732249
 10
354.2161915912495
 20
216.4326036864512
 10
353.6975429360342
 20
216.6393739144438
 10
353.1763096529691
 20
217.0554989982793
 10
352.7619076543667
 20
217.4699009968814
 10
350.4788197202797
 20
220.688624212636
 10
348.0914851295797
 20
223.9047628005404
 10
347.7813297875905
 20
224.4234114557556
 10
347.5728364743644
 20
225.0463067675836
 10
347.5728364743644
 20
225.564955422799
 10
347.5728364743644
 20
226.1878507346273
 10
347.6770831309774
 20
226.7064993898422
 10
347.9872384729666
 20
227.2260095876743
 10
348.2999784428057
 20
227.7463813281228
 10
348.7143804414082
 20
228.1607833267253
 10
350.3745730636668
 20
229.3023272937688
 10
349.8559244084515
 20
229.9252226055971
 10
349.2330290966231
 20
230.6523645740384
 10
348.7143804414082
 20
231.2752598858665
 10
348.0914851295797
 20
231.9998172264578
 10
347.5728364743644
 20
232.6227125382865
 10
346.949941162536
 20
233.2456078501143
 10
346.4312925073211
 20
233.8685031619425
 10
345.8083971954928
 20
234.5956451303839
 10
345.2897485402773
 20
235.2185404422122
 10
344.6668532284491
 20
235.8414357540405
 10
344.043957916621
 20
236.4643310658688
 10
343.4210626047927
 20
237.0872263776969
 10
342.7981672929644
 20
237.7101216895251
 10
342.2795186377492
 20
238.3330170013536
 10
341.6566233259209
 20
238.9533276853319
 10
341.0337280140926
 20
239.5770845397767
 10
340.4108327022645
 20
240.1991183089883
 10
339.7879373904361
 20
240.8220136208168
 10
339.0607954219947
 20
241.3415238186485
 10
338.4404847380164
 20
241.9635575878603
 10
337.8175894261882
 20
242.5864528996882
 10
337.1946941143598
 20
243.1059630975205
 10
336.5717988025316
 20
243.727996866732
 10
335.8446568340904
 20
244.3508921785601
 10
335.2217615222619
 20
244.870402376392
 10
334.598866210434
 20
245.4924361456037
 10
333.8717242419924
 20
246.0110848008191
 10
333.2488289301641
 20
246.5323180838841
 10
332.524271589573
 20
247.1552133957125
 10
331.9013762777447
 20
247.6738620509276
 10
331.1742343093033
 20
248.1925107061428
 10
330.551338997475
 20
248.7111593613579
 10
329.8241970290337
 20
249.3340546731863
 10
329.2013017172053
 20
249.8527033284018
 10
328.4741597487642
 20
250.3713519836167
 10
327.7496024081729
 20
250.8900006388322
 10
327.0224604397316
 20
251.4086492940472
 10
326.3995651279032
 20
251.9281594918791
 10
325.6724231594619
 20
252.3442845757147
 10
324.9452811910209
 20
252.8629332309298
 10
324.2207238504293
 20
253.3815818861452
 10
323.493581881988
 20
253.9002305413605
 10
322.7664399135466
 20
254.3146325399625
 10
322.0392979451053
 20
254.8332811951778
 10
321.314740604514
 20
255.354514478243
 10
320.5875986360727
 20
255.7689164768453
 10
319.8604566676314
 20
256.2875651320604
 10
319.1333146991902
 20
256.7019671306626
 10
318.4087573585987
 20
257.2214773284943
 10
317.6816153901573
 20
257.6376024123299
 10
316.8502267651031
 20
258.0520044109324
 10
316.1230847966617
 20
258.4664064095343
 10
315.3985274560704
 20
258.9859166073666
 10
314.6713854876293
 20
259.4020416912017
 10
313.8399968625745
 20
259.8164436898037
 10
313.1154395219834
 20
260.2308456884061
 10
312.2840508969292
 20
260.6478323148581
 10
311.5569089284876
 20
261.0622343134606
 10
310.8297669600465
 20
261.4766363120626
 10
310.0009629628421
 20
261.7893762819017
 10
309.2738209944006
 20
262.2037782805039
 10
308.4450169971964
 20
262.618180279106
 10
307.717875028755
 20
263.0351669055583
 10
306.8864864037008
 20
263.3453222475475
 10
306.0576824064963
 20
263.7597242461497
 10
305.330540438055
 20
264.0724642159891
 10
304.499151813001
 20
264.4868662145906
 10
303.7720098445594
 20
264.79960618443
 10
302.943205847355
 20
265.2140081830323
 10
302.1118172223008
 20
265.5241635250214
 10
301.2830132250963
 20
265.8369034948605
 10
300.555871256655
 20
266.1470588368496
 10
299.7244826316006
 20
266.4597988066886
 10
298.8956786343962
 20
266.874200805291
 10
298.0642900093419
 20
267.1843561472802
 10
297.2354860121376
 20
267.4970961171192
 10
296.5083440436962
 20
267.7055894303455
 10
295.6769554186418
 20
268.0157447723346
 10
294.8481514214374
 20
268.3284847421733
 10
294.0167627963832
 20
268.6386400841624
 10
293.1853741713288
 20
268.9487954261516
 10
292.3565701741244
 20
269.1572887393779
 10
291.52518154907
 20
269.4700287092169
 10
290.6963775518656
 20
269.6759373945933
 10
289.8649889268113
 20
269.9886773644323
 10
289.0361849296068
 20
270.1945860498085
 10
288.2047963045525
 20
270.5073260196476
 10
287.3734076794982
 20
270.7132347050239
 10
286.5446036822937
 20
270.9217280182496
 10
285.7132150572395
 20
271.2344679880889
 10
284.8844110600351
 20
271.4403766734649
 10
284.0530224349805
 20
271.6488699866911
 10
283.1199717811634
 20
271.857363299917
 10
282.288583156109
 20
272.0632719852935
 10
281.4571945310548
 20
272.2717652985194
 10
280.6283905338503
 20
272.4776739838954
 10
279.7970019087958
 20
272.5819206405087
 10
278.9681979115917
 20
272.7904139537345
 10
278.032562629924
 20
272.9989072669606
 10
277.2037586327197
 20
273.2048159523368
 10
276.3723700076654
 20
273.3090626089497
 10
275.5409813826111
 20
273.5175559221759
 10
274.6079307287939
 20
273.621802578789
 10
273.7765421037394
 20
273.8277112641652
 10
272.9477381065349
 20
273.9319579207781
 10
272.1163494814806
 20
274.0362045773909
 10
271.1832988276633
 20
274.1404512340041
 10
270.3519102026088
 20
274.34635991938
 10
269.5231062054045
 20
274.4506065759932
 10
268.5874709237369
 20
274.5548532326063
 10
267.7586669265328
 20
274.6590998892194
 10
266.9272783014783
 20
274.7633465458324
 10
265.994227647661
 20
274.8658701172121
 10
265.1628390226065
 20
274.9692552312087
 10
264.3340350254024
 20
274.9692552312087
 10
263.3983997437348
 20
275.0735018878215
 10
262.5695957465303
 20
275.1777485444346
 10
261.7382071214761
 20
275.1777485444346
 10
260.8051564676586
 20
275.2819952010477
 10
259.9737678426044
 20
275.2819952010477
 10
259.0407171887867
 20
275.3862418576606
 10
258.2093285637326
 20
275.3862418576606
 10
257.3779399386782
 20
275.3862418576606
 10
256.4448892848607
 20
275.4879038864238
 10
255.6135006598064
 20
275.4879038864238
 10
254.7846966626019
 20
275.4879038864238
 10
253.8490613809346
 20
275.4879038864238
 10
253.0202573837303
 20
275.4879038864238
 10
252.0846221020629
 20
275.4879038864238
 10
251.2558181048583
 20
275.4879038864238
 10
250.5286761364172
 20
275.4879038864238
 10
249.5956254825998
 20
275.4879038864238
 10
248.7642368575454
 20
275.3862418576606
 10
247.8311862037277
 20
275.3862418576606
 10
246.9997975786736
 20
275.3862418576606
 10
246.1684089536192
 20
275.2819952010477
 10
245.2353582998019
 20
275.2819952010477
 10
244.4039696747476
 20
275.1777485444346
 10
243.5751656775432
 20
275.1777485444346
 10
242.6395303958759
 20
275.0735018878215
 10
241.8107263986714
 20
274.9692552312087
 10
240.979337773617
 20
274.9692552312087
 10
240.0462871197996
 20
274.8658701172121
 10
239.2148984947453
 20
274.7633465458324
 10
238.3860944975408
 20
274.6590998892194
 10
237.4504592158735
 20
274.5548532326063
 10
236.6216552186689
 20
274.4506065759932
 10
235.7902665936148
 20
274.34635991938
 10
234.8572159397972
 20
274.1404512340041
 10
234.025827314743
 20
274.0362045773909
 10
233.1944386896886
 20
273.9319579207781
 10
232.2613880358713
 20
273.8277112641652
 10
231.4299994108169
 20
273.621802578789
 10
230.6011954136127
 20
273.5175559221759
 10
229.7698067885583
 20
273.3090626089497
 10
228.8367561347406
 20
273.2048159523368
 10
228.0053675096862
 20
272.9989072669606
 10
227.176563512482
 20
272.7904139537345
 10
226.3451748874274
 20
272.5819206405087
 10
225.5163708902232
 20
272.4776739838954
 10
224.5807356085556
 20
272.2717652985194
 10
223.7519316113514
 20
272.0632719852935
 10
222.920542986297
 20
271.857363299917
 10
222.0891543612429
 20
271.6488699866911
 10
221.2603503640384
 20
271.4403766734649
 10
220.4289617389842
 20
271.2344679880889
 10
219.6001577417794
 20
270.9217280182496
 10
218.7687691167253
 20
270.7132347050239
 10
217.9373804916711
 20
270.5073260196476
 10
217.1085764944665
 20
270.1945860498085
 10
216.2771878694122
 20
269.9886773644323
 10
215.3441372155949
 20
269.6759373945933
 10
214.5127485905405
 20
269.4700287092169
 10
213.7856066220993
 20
269.1572887393779
 10
212.9568026248947
 20
268.9487954261516
 10
212.1254139998405
 20
268.6386400841624
 10
211.2966100026359
 20
268.3284847421733
 10
210.4652213775817
 20
268.0157447723346
 10
209.6364173803771
 20
267.7055894303455
 10
208.805028755323
 20
267.4970961171192
 10
207.9736401302687
 20
267.1843561472802
 10
207.1448361330641
 20
266.874200805291
 10
206.4176941646231
 20
266.4597988066886
 10
205.5863055395686
 20
266.1470588368496
 10
204.7575015423642
 20
265.8369034948605
 10
203.9261129173099
 20
265.5241635250214
 10
203.1989709488686
 20
265.2140081830323
 10
202.3701669516642
 20
264.79960618443
 10
201.5387783266099
 20
264.4868662145906
 10
200.8142209860184
 20
264.0724642159891
 10
199.9828323609643
 20
263.7597242461497
 10
199.1514437359097
 20
263.3453222475475
 10
198.4268863953184
 20
263.0351669055583
 10
197.595497770264
 20
262.618180279106
 10
196.8683558018229
 20
262.2037782805039
 10
196.0395518046183
 20
261.7893762819017
 10
195.312409836177
 20
261.4766363120626
 10
194.5852678677356
 20
261.0622343134606
 10
193.7564638705314
 20
260.6478323148581
 10
193.02932190209
 20
260.2308456884061
 10
192.1979332770358
 20
259.8164436898037
 10
191.4707913085944
 20
259.4020416912017
 10
190.7462339680032
 20
258.9859166073666
 10
189.9148453429489
 20
258.4664064095343
 10
189.1877033745072
 20
258.0520044109324
 10
188.4631460339161
 20
257.6376024123299
 10
187.7360040654748
 20
257.2214773284943
 10
187.0088620970334
 20
256.7019671306626
 10
186.2817201285921
 20
256.2875651320604
 10
185.5545781601511
 20
255.7689164768453
 10
184.7257741629462
 20
255.354514478243
 10
183.9986321945051
 20
254.8332811951778
 10
183.2714902260638
 20
254.3146325399625
 10
182.5469328854726
 20
253.9002305413605
 10
181.9240375736443
 20
253.3815818861452
 10
181.1968956052029
 20
252.8629332309298
 10
180.4697536367616
 20
252.3442845757147
 10
179.7426116683204
 20
251.9281594918791
 10
179.0180543277289
 20
251.4086492940472
 10
178.2909123592877
 20
250.8900006388322
 10
177.6680170474594
 20
250.3713519836167
 10
176.9408750790181
 20
249.8527033284018
 10
176.2137331105767
 20
249.3340546731863
 10
175.5908377987487
 20
248.7111593613579
 10
174.8662804581571
 20
248.1925107061428
 10
174.2433851463288
 20
247.6738620509276
 10
173.5162431778876
 20
247.1552133957125
 10
172.8933478660591
 20
246.5323180838841
 10
172.1662058976179
 20
246.0110848008191
 10
171.5433105857897
 20
245.4924361456037
 10
170.8187532451984
 20
244.870402376392
 10
170.1958579333701
 20
244.3508921785601
 10
169.5729626215418
 20
243.727996866732
 10
168.9500673097135
 20
243.1059630975205
 10
168.2229253412724
 20
242.5864528996882
 10
167.6000300294439
 20
241.9635575878603
 10
166.9771347176157
 20
241.3415238186485
 10
166.3542394057873
 20
240.8220136208168
 10
165.7313440939591
 20
240.1991183089883
 10
165.1084487821307
 20
239.5770845397767
 10
164.4855534703027
 20
238.9533276853319
 10
163.8626581584744
 20
238.3330170013536
 10
163.2397628466462
 20
237.7101216895251
 10
162.6168675348179
 20
237.0872263776969
 10
161.9965568508396
 20
236.4643310658688
 10
161.4753235677745
 20
235.8414357540405
 10
160.8524282559459
 20
235.2185404422122
 10
160.2321175719676
 20
234.5956451303839
 10
159.7108842889028
 20
233.8685031619425
 10
159.0879889770741
 20
233.2456078501143
 10
158.5693403218589
 20
232.6227125382865
 10
157.9464450100307
 20
231.9998172264578
 10
157.4277963548155
 20
231.2752598858665
 10
156.8049010429874
 20
230.6523645740384
 10
156.286252387772
 20
229.9252226055971
 10
155.7676037325568
 20
229.3023272937688
 10
157.3235496982027
 20
228.1607833267253
 10
157.7405363246547
 20
227.7463813281228
 10
158.1549383232569
 20
227.2260095876743
 10
158.363431636483
 20
226.7064993898422
 10
158.5693403218589
 20
226.1878507346273
 10
158.5693403218589
 20
225.564955422799
 10
158.4676782930958
 20
225.0463067675836
 10
158.2591849798698
 20
224.4234114557556
 10
158.0506916666438
 20
223.9047628005404
 10
155.6633570759441
 20
220.688624212636
 10
153.2760224852438
 20
217.4699009968814
 10
152.8616204866416
 20
217.0554989982793
 10
152.4472184880394
 20
216.6393739144438
 10
151.9285698328243
 20
216.4326036864512
 10
151.3056745209958
 20
216.2241103732249
 10
150.7870258657806
 20
216.2241103732249
 10
150.1641305539523
 20
216.3283570298378
 10
149.6454818987372
 20
216.536850343064
 10
149.124248615672
 20
216.8470056850531
 10
147.4640559934132
 20
217.9885496520968
 10
147.3598093368003
 20
217.8843029954835
 10
147.3598093368003
 20
217.6783943101076
 10
147.258147308037
 20
217.5741476534944
 10
147.153900651424
 20
217.4699009968814
 10
147.0496539948112
 20
217.2614076836552
 10
146.945407338198
 20
217.1597456548923
 10
146.945407338198
 20
217.0554989982793
 10
146.8411606815849
 20
216.9512523416661
 10
146.7369140249719
 20
216.7427590284404
 10
146.6352519962088
 20
216.6393739144438
 10
146.5310053395957
 20
216.536850343064
 10
146.5310053395957
 20
216.4326036864512
 10
146.4267586829828
 20
216.2241103732249
 10
146.3225120263697
 20
216.119863716612
 10
146.2182653697567
 20
216.0156170599989
 10
146.1166033409936
 20
215.9139550312358
 10
146.1166033409936
 20
215.7054617180097
 10
146.0123566843805
 20
215.6012150613966
 10
145.9081100277676
 20
215.4969684047834
 10
145.8038633711545
 20
215.2910597194075
 10
145.6996167145416
 20
215.1868130627943
 10
145.6996167145416
 20
215.0825664061817
 10
145.5953700579284
 20
214.9783197495683
 10
145.4937080291653
 20
214.7724110641925
 10
145.3894613725525
 20
214.6681644075792
 10
145.3894613725525
 20
214.5639177509661
 10
145.2852147159392
 20
214.3554244377404
 10
145.1809680593262
 20
214.2511777811272
 10
145.0767214027132
 20
214.149515752364
 10
144.9724747461001
 20
214.0452690957511
 10
144.9724747461001
 20
213.8367757825249
 10
144.870812717337
 20
213.7325291259119
 10
144.766566060724
 20
213.6308670971489
 10
144.6623194041109
 20
213.4223737839227
 10
144.6623194041109
 20
213.3181271273095
 10
144.558072747498
 20
213.2138804706965
 10
144.4538260908849
 20
213.1104953567002
 10
144.3521640621218
 20
212.9037251287074
 10
144.3521640621218
 20
212.7994784720945
 10
144.2479174055088
 20
212.6952318154816
 10
144.1436707488957
 20
212.4867385022554
 10
144.0394240922828
 20
212.3850764734924
 10
144.0394240922828
 20
212.2808298168792
 10
143.9351774356697
 20
212.0723365036531
 10
143.8309307790566
 20
211.9680898470402
 10
143.7292687502936
 20
211.8664278182771
 10
143.7292687502936
 20
211.762181161664
 10
143.6250220936805
 20
211.5536878484378
 10
143.5207754370674
 20
211.4494411918248
 10
143.5207754370674
 20
211.3460560778287
 10
143.4165287804545
 20
211.1392858498357
 10
143.3122821238415
 20
211.0350391932227
 10
143.2080354672284
 20
210.9307925366095
 10
143.2080354672284
 20
210.7222992233837
 10
143.1063734384653
 20
210.6206371946202
 10
143.0021267818523
 20
210.5163905380074
 10
142.8978801252393
 20
210.3078972247813
 10
142.8978801252393
 20
210.2036505681683
 10
142.7936334686262
 20
210.1019885394054
 10
142.6893868120132
 20
209.9977418827922
 10
142.6893868120132
 20
209.7892485695662
 10
142.5877247832501
 20
209.6850019129533
 10
142.483478126637
 20
209.5816167989565
 10
142.379231470024
 20
209.3748465709641
 10
142.379231470024
 20
209.2705999143509
 10
142.274984813411
 20
209.1663532577377
 10
142.1707381567977
 20
208.9578599445115
 10
142.1707381567977
 20
208.8561979157485
 10
142.0664915001849
 20
208.7519512591357
 10
141.9648294714218
 20
208.5434579459097
 10
141.8605828148086
 20
208.4392112892965
 10
141.8605828148086
 20
208.3375492605331
 10
141.7563361581957
 20
208.1290559473074
 10
141.6520895015827
 20
208.0248092906944
 10
141.6520895015827
 20
207.9205626340814
 10
141.5478428449697
 20
207.7146539487053
 10
141.4435961883566
 20
207.6104072920923
 10
141.4435961883566
 20
207.5061606354791
 10
141.3419341595935
 20
207.2976673222528
 10
141.2376875029805
 20
207.1934206656401
 10
141.2376875029805
 20
207.0917586368771
 10
141.1334408463674
 20
206.8832653236509
 10
141.0291941897545
 20
206.7790186670378
 10
141.0291941897545
 20
206.6747720104247
 10
140.9249475331414
 20
206.4688633250487
 10
140.8232855043783
 20
206.3646166684356
 10
140.8232855043783
 20
206.2603700118227
 10
140.7190388477653
 20
206.0527382412132
 10
140.6147921911522
 20
205.9502146698336
 10
140.6147921911522
 20
205.8459680132205
 10
140.510545534539
 20
205.6374746999943
 10
140.4062988779262
 20
205.5332280433813
 10
140.4062988779262
 20
205.4289813867681
 10
140.3020522213132
 20
205.2230727013922
 10
140.2003901925499
 20
205.118826044779
 10
140.2003901925499
 20
205.0145793881656
 10
140.096143535937
 20
204.8086707027898
 10
139.9918968793241
 20
204.7044240461765
 10
139.9918968793241
 20
204.600177389564
 10
139.887650222711
 20
204.3916840763379
 10
139.7834035660979
 20
204.2874374197246
 10
139.7834035660979
 20
204.1857753909616
 10
139.6791569094848
 20
203.9772820777354
 10
139.5774948807218
 20
203.8730354211226
 10
139.5774948807218
 20
203.6645421078963
 10
139.4732482241087
 20
203.5628800791334
 10
139.3690015674956
 20
203.4586334225204
 10
139.3690015674956
 20
203.2501401092942
 10
139.2647549108828
 20
203.1458934526811
 10
139.2647549108828
 20
203.0442314239179
 10
139.1605082542696
 20
202.8357381106919
 10
139.0588462255065
 20
202.7314914540792
 10
139.0588462255065
 20
202.627244797466
 10
138.9545995688936
 20
202.4213361120901
 10
138.8503529122804
 20
202.3170894554768
 10
138.8503529122804
 20
202.2128427988639
 10
138.7461062556673
 20
202.0043494856377
 10
138.6418595990544
 20
201.9001028290246
 10
138.6418595990544
 20
201.6941941436485
 10
138.5376129424416
 20
201.5899474870355
 10
138.5376129424416
 20
201.4857008304225
 10
138.4359509136782
 20
201.2797921450462
 10
138.3317042570652
 20
201.1755454884333
 10
138.3317042570652
 20
201.0712988318204
 10
138.2274576004524
 20
200.8628055185942
 10
138.2274576004524
 20
200.7585588619813
 10
138.1232109438391
 20
200.6568968332179
 10
138.0189642872261
 20
200.4484035199922
 10
123.3848014010368
 20
204.2874374197246
 10
123.7992033996389
 20
205.4289813867681
 10
124.3204366827041
 20
206.4688633250487
 10
124.8390853379194
 20
207.6104072920923
 10
125.3577339931346
 20
208.7519512591357
 10
125.8763826483498
 20
209.7892485695662
 10
126.395031303565
 20
210.9307925366095
 10
126.9136799587803
 20
211.9680898470402
 10
127.4323286139955
 20
213.1104953567002
 10
127.9509772692107
 20
214.149515752364
 10
128.573872581039
 20
215.2910597194075
 10
129.0925212362543
 20
216.3283570298378
 10
129.7154165480824
 20
217.3656543402685
 10
130.2366498311476
 20
218.4038131933155
 10
130.856960515126
 20
219.5444956177424
 10
131.4798558269543
 20
220.5843775560229
 10
132.1027511387826
 20
221.6216748664534
 10
132.725646450611
 20
222.6589721768839
 10
133.348541762439
 20
223.6971310299307
 10
133.9714370742673
 20
224.7361514255945
 10
134.5943323860956
 20
225.7734487360252
 10
135.3214743545368
 20
226.8107460464555
 10
135.9443696663652
 20
227.7463813281228
 10
136.6715116348066
 20
228.7836786385532
 10
137.2944069466347
 20
229.8209759489839
 10
138.0189642872261
 20
230.7548881454181
 10
138.7461062556673
 20
231.7939085410818
 10
139.4732482241087
 20
232.726959194899
 10
140.2003901925499
 20
233.7642565053296
 10
140.9249475331414
 20
234.6998917869968
 10
141.6520895015827
 20
235.6329424408144
 10
142.379231470024
 20
236.6702397512448
 10
143.1063734384653
 20
237.6058750329123
 10
143.9351774356697
 20
238.5389256867296
 10
144.6623194041109
 20
239.4745609683971
 10
145.3894613725525
 20
240.4076116222143
 10
146.2182653697567
 20
241.3415238186485
 10
147.0496539948112
 20
242.2762975576991
 10
147.7767959632523
 20
243.1059630975205
 10
148.6055999604566
 20
244.040736836571
 10
149.4369885855111
 20
244.9737874903883
 10
150.2657925827155
 20
245.8051761154429
 10
151.0971812077698
 20
246.7382267692601
 10
151.9285698328243
 20
247.5696153943146
 10
152.7573738300285
 20
248.502666048132
 10
153.6930091116958
 20
249.3340546731863
 10
154.5218131089003
 20
250.1637202130074
 10
155.3532017339548
 20
250.9942472954449
 10
156.286252387772
 20
251.9281594918791
 10
157.1176410128264
 20
252.7586865743167
 10
158.0506916666438
 20
253.5900751993713
 10
158.8820802916982
 20
254.3146325399625
 10
159.8151309455156
 20
255.1460211650168
 10
160.750766227183
 20
255.9774097900712
 10
161.6838168810004
 20
256.8062137872754
 10
162.6168675348179
 20
257.533355755717
 10
163.5525028164852
 20
258.3621597529216
 10
164.4855534703027
 20
259.0893017213626
 10
165.42118875197
 20
259.8164436898037
 10
166.3542394057873
 20
260.6478323148581
 10
167.2898746874548
 20
261.3723896554499
 10
168.3271719978853
 20
262.0995316238909
 10
169.2602226517027
 20
262.826673592332
 10
170.1958579333701
 20
263.5538155607737
 10
171.2331552438005
 20
264.2792344439816
 10
172.1662058976179
 20
264.9012682131931
 10
173.2035032080483
 20
265.6284101816343
 10
174.2433851463288
 20
266.3555521500757
 10
175.1764358001463
 20
266.978447461904
 10
176.2137331105767
 20
267.7055894303455
 10
177.2536150488571
 20
268.3284847421733
 10
178.2909123592877
 20
268.9487954261516
 10
179.3282096697181
 20
269.5725522805968
 10
180.3655069801484
 20
270.2988327064214
 10
181.4053889184289
 20
270.9217280182496
 10
182.4426862288595
 20
271.4403766734649
 10
183.4799835392899
 20
272.0632719852935
 10
184.5172808497203
 20
272.6861672971214
 10
185.6588248167638
 20
273.3090626089497
 10
186.6987067550442
 20
273.8277112641652
 10
187.7360040654748
 20
274.4506065759932
 10
188.8775480325181
 20
274.9692552312087
 10
189.9148453429489
 20
275.4879038864238
 10
191.0563893099925
 20
276.110799198252
 10
192.0936866204229
 20
276.6303093960839
 10
193.2352305874663
 20
277.1506811365325
 10
194.2751125257465
 20
277.6693297917476
 10
195.4166564927901
 20
278.1879784469628
 10
196.5582004598336
 20
278.6023804455652
 10
197.595497770264
 20
279.1210291007804
 10
198.7370417373076
 20
279.6396777559956
 10
199.8785857043513
 20
280.0566643824476
 10
201.0201296713947
 20
280.4710663810499
 10
202.1616736384382
 20
280.989715036265
 10
203.3032176054816
 20
281.4041170348673
 10
204.3430995437618
 20
281.8211036613196
 10
205.4846435108054
 20
282.2355056599215
 10
206.6261874778489
 20
282.6499076585238
 10
207.8719781015055
 20
283.0643096571259
 10
209.013522068549
 20
283.377049626965
 10
210.1550660355924
 20
283.7914516255676
 10
211.2966100026359
 20
284.2084382520194
 10
212.4381539696793
 20
284.5185935940085
 10
213.5796979367232
 20
284.8287489359977
 10
214.8254885603797
 20
285.2457355624501
 10
215.967032527423
 20
285.5558909044392
 10
217.1085764944665
 20
285.8686308742782
 10
218.2501204615099
 20
286.1787862162675
 10
219.4959110851665
 20
286.3872795294932
 10
220.6374550522101
 20
286.6974348714824
 10
221.8832456758666
 20
287.0101748413219
 10
223.0247896429101
 20
287.2169450693144
 10
224.1663336099537
 20
287.5288234965371
 10
225.4121242336101
 20
287.7373168097628
 10
226.5536682006537
 20
287.9432254951394
 10
227.7994588243103
 20
288.2559654649781
 10
228.9410027913537
 20
288.4618741503544
 10
230.1867934150102
 20
288.6703674635805
 10
231.3283373820539
 20
288.7746141201938
 10
232.5741280057102
 20
288.9813843481861
 10
233.8173340015169
 20
289.1890161187959
 10
234.9588779685604
 20
289.2932627754088
 10
236.2046685922169
 20
289.501756088635
 10
237.3462125592604
 20
289.603418117398
 10
238.592003182917
 20
289.8119114306242
 10
239.8377938065736
 20
289.916158087237
 10
240.979337773617
 20
290.0204047438499
 10
242.2251283972736
 20
290.1220667726134
 10
243.47091902093
 20
290.2263134292261
 10
244.0938143327584
 20
291.6805973661088
 10
244.9252029578127
 20
293.0306346463785
 10
246.0667469248563
 20
294.2747021848017
 10
247.3099529206628
 20
295.3137225804654
 10
248.6599902009323
 20
296.1425265776701
 10
250.114274137815
 20
296.765421889498
 10
251.5659734468475
 20
297.0781618593371
 10
253.2261660691064
 20
297.1798238881003
 10
254.888943319215
 20
297.0781618593371
 10
256.4448892848607
 20
296.765421889498
 10
257.8965885938933
 20
296.1425265776701
 10
259.2466258741631
 20
295.3137225804654
 10
260.4924164978196
 20
294.2747021848017
 10
261.5297138082501
 20
293.0306346463785
 10
262.4653490899173
 20
291.6805973661088
 10
263.0882444017455
 20
290.1220667726134
 10
264.229788368789
 20
290.0204047438499
 10
265.4755789924455
 20
289.916158087237
 10
266.617122959489
 20
289.8119114306242
 10
267.8629135831457
 20
289.7076647740109
 10
269.1061195789524
 20
289.603418117398
 10
270.2476635459957
 20
289.3975094320217
 10
271.4934541696525
 20
289.2932627754088
 10
272.6349981366959
 20
289.0847694621829
 10
273.8807887603523
 20
288.9813843481861
 10
275.1265793840089
 20
288.7746141201938
 10
276.2681233510525
 20
288.5661208069673
 10
277.5139139747088
 20
288.3576274937411
 10
278.6554579417526
 20
288.1517188083653
 10
279.7970019087958
 20
287.9432254951394
 10
281.0427925324524
 20
287.7373168097628
 10
282.1843364994961
 20
287.424576839924
 10
283.4301271231526
 20
287.2169450693144
 10
284.5716710901959
 20
286.9059281847087
 10
285.7132150572395
 20
286.5931882148696
 10
286.9590056808961
 20
286.3872795294932
 10
288.1005496479396
 20
286.0745395596543
 10
289.2420936149832
 20
285.7643842176651
 10
290.4878842386396
 20
285.4525057904427
 10
291.6294282056831
 20
285.1414889058371
 10
292.7709721727266
 20
284.7270869072347
 10
293.9125161397701
 20
284.4143469373953
 10
295.0540601068136
 20
284.1041915954061
 10
296.2998507304701
 20
283.6880665115709
 10
297.4413946975135
 20
283.2728029703523
 10
298.5829386645571
 20
282.962647628363
 10
299.7244826316006
 20
282.5456610019107
 10
300.8660265986442
 20
282.1312590033088
 10
302.0075705656877
 20
281.7168570047064
 10
303.1516991605811
 20
281.2998703782542
 10
304.2932431276246
 20
280.8854683796521
 10
305.330540438055
 20
280.3668197244367
 10
306.4720844050985
 20
279.9524177258346
 10
307.613628372142
 20
279.4337690706194
 10
308.7551723391855
 20
279.0167824441672
 10
309.7924696496158
 20
278.4981337889519
 10
310.9340136166595
 20
277.9794851337367
 10
312.075557583703
 20
277.565083135135
 10
313.1154395219834
 20
277.0464344799193
 10
314.2569834890269
 20
276.5277858247038
 10
315.2942807994572
 20
276.0065525416389
 10
316.4358247665008
 20
275.3862418576606
 10
317.4731220769314
 20
274.8658701172121
 10
318.5104193873618
 20
274.34635991938
 10
319.6519633544052
 20
273.7234646075521
 10
320.6918452926859
 20
273.2048159523368
 10
321.7291426031162
 20
272.5819206405087
 10
322.7664399135466
 20
271.9590253286804
 97
        0
 75
     2
 76
     1
 98
        1
 10
-552.2911957502377
 20
-698.2740847375667
  0
HATCH
  5
2B
330
A
100
AcDbEntity
  8
A-001_Pan
100
AcDbHatch
 10
0.0
 20
0.0
 30
0.0
210
0.0
220
0.0
230
1.0
  2
SOLID
 70
     1
 71
     0
 91
        1
 92
        3
 72
     0
 73
     0
 93
       78
 10
322.7664399135466
 20
271.9590253286804
 10
323.8037372239771
 20
271.3369915594685
 10
324.9452811910209
 20
270.7132347050239
 10
325.9851631293011
 20
270.0929240210455
 10
326.9182137831184
 20
269.4700287092169
 10
327.9555110935488
 20
268.8471333973888
 10
328.9953930318294
 20
268.2242380855606
 10
330.0326903422599
 20
267.6013427737323
 10
331.0699876526902
 20
266.874200805291
 10
332.0030383065077
 20
266.2513054934628
 10
333.042920244788
 20
265.5241635250214
 10
334.0802175552186
 20
264.79960618443
 10
335.013268209036
 20
264.1767108726015
 10
336.0531501473164
 20
263.4495689041606
 10
336.9862008011337
 20
262.7224269357193
 10
337.9192514549512
 20
261.9952849672777
 10
338.9591333932317
 20
261.2707276266865
 10
339.8921840470492
 20
260.5435856582451
 10
340.8252347008665
 20
259.7121970331909
 10
341.7608699825339
 20
258.9859166073666
 10
342.6939206363513
 20
258.2604977241581
 10
343.6295559180189
 20
257.4291090991041
 10
344.5626065718361
 20
256.7019671306626
 10
345.4982418535036
 20
255.8731631334584
 10
346.4312925073211
 20
255.0417745084041
 10
347.2626811323752
 20
254.2129705111995
 10
348.1957317861928
 20
253.4858285427583
 10
349.0271204112469
 20
252.6544399177039
 10
349.9601710650643
 20
251.8256359204994
 10
350.7915596901187
 20
250.9942472954449
 10
351.7246103439363
 20
250.0611966416276
 10
352.5559989689906
 20
249.2298080165732
 10
353.3848029661951
 20
248.3992809341356
 10
354.2161915912495
 20
247.4653687377017
 10
355.0449955884537
 20
246.6348416552638
 10
355.8763842135081
 20
245.8051761154429
 10
356.7051882107127
 20
244.870402376392
 10
357.5365768357667
 20
243.936490179958
 10
358.3679654608213
 20
243.1059630975205
 10
359.1967694580254
 20
242.1720509010863
 10
359.923911426467
 20
241.2390002472688
 10
360.7553000515214
 20
240.3033649656016
 10
361.4798573921123
 20
239.3703143117841
 10
362.3112460171667
 20
238.4346790301165
 10
363.0383879856082
 20
237.5016283762993
 10
363.7629453261995
 20
236.5685777224816
 10
364.4900872946407
 20
235.6329424408144
 10
365.2172292630821
 20
234.5956451303839
 10
365.9443712315234
 20
233.6600098487165
 10
366.6715131999649
 20
232.726959194899
 10
367.3960705405562
 20
231.6896618844687
 10
368.1232125089972
 20
230.7548881454181
 10
368.8503544774387
 20
229.7167292923708
 10
369.473249789267
 20
228.6794319819404
 10
370.2003917577082
 20
227.7463813281228
 10
370.8207024416865
 20
226.7064993898422
 10
371.4444592961314
 20
225.6692020794121
 10
372.1707397219562
 20
224.6319047689815
 10
372.7936350337844
 20
223.5946074585512
 10
373.4165303456127
 20
222.5547255202707
 10
374.0394256574408
 20
221.5174282098401
 10
374.6623209692693
 20
220.4801308994097
 10
375.2852162810977
 20
219.4428335889794
 10
375.8038649363129
 20
218.4038131933155
 10
376.426760248141
 20
217.3656543402685
 10
377.0496555599691
 20
216.3283570298378
 10
377.5683042151846
 20
215.1868130627943
 10
378.0869528703998
 20
214.149515752364
 10
378.7098481822279
 20
213.1104953567002
 10
379.2284968374432
 20
211.9680898470402
 10
379.7471454926585
 20
210.9307925366095
 10
380.2666556904906
 20
209.7892485695662
 10
380.7870274309389
 20
208.7519512591357
 10
381.3056760861542
 20
207.6104072920923
 10
381.8243247413694
 20
206.4688633250487
 10
382.2387267399715
 20
205.4289813867681
 10
382.7573753951869
 20
204.2874374197246
 10
368.0189658523844
 20
200.4484035199922
 97
        0
 75
     2
 76
     1
 98
        1
 10
-552.2911957502377
 20
-698.2740847375667
  0
HATCH
  5
2A
330
A
100
AcDbEntity
  8
A-001_Pan
100
AcDbHatch
 10
0.0
 20
0.0
 30
0.0
210
0.0
220
0.0
230
1.0
  2
SOLID
 70
     1
 71
     0
 91
        1
 92
        1
 93
        1
 72
     4
 94
        3
 73
     0
 74
     0
 95
      107
 96
      103
 40
0.0
 40
0.0
 40
0.0
 40
0.0
 40
1.0
 40
1.0
 40
1.0
 40
2.0
 40
2.0
 40
2.0
 40
3.0
 40
3.0
 40
3.0
 40
4.0
 40
4.0
 40
4.0
 40
5.0
 40
5.0
 40
5.0
 40
6.0
 40
6.0
 40
6.0
 40
7.0
 40
7.0
 40
7.0
 40
8.0
 40
8.0
 40
8.0
 40
9.0
 40
9.0
 40
9.0
 40
10.0
 40
10.0
 40
10.0
 40
11.0
 40
11.0
 40
11.0
 40
12.0
 40
12.0
 40
12.0
 40
13.0
 40
13.0
 40
13.0
 40
14.0
 40
14.0
 40
14.0
 40
15.0
 40
15.0
 40
15.0
 40
16.0
 40
16.0
 40
16.0
 40
17.0
 40
17.0
 40
17.0
 40
18.0
 40
18.0
 40
18.0
 40
19.0
 40
19.0
 40
19.0
 40
20.0
 40
20.0
 40
20.0
 40
21.0
 40
21.0
 40
21.0
 40
22.0
 40
22.0
 40
22.0
 40
23.0
 40
23.0
 40
23.0
 40
24.0
 40
24.0
 40
24.0
 40
25.0
 40
25.0
 40
25.0
 40
26.0
 40
26.0
 40
26.0
 40
27.0
 40
27.0
 40
27.0
 40
28.0
 40
28.0
 40
28.0
 40
29.0
 40
29.0
 40
29.0
 40
30.0
 40
30.0
 40
30.0
 40
31.0
 40
31.0
 40
31.0
 40
32.0
 40
32.0
 40
32.0
 40
33.0
 40
33.0
 40
33.0
 40
34.0
 40
34.0
 40
34.0
 40
34.0
 10
368.0189658523844
 20
200.4484035199922
 10
365.3249220901618
 20
206.5283097655965
 10
362.1665068575717
 20
212.3936918996586
 10
358.5738741461972
 20
217.9885496520968
 10
358.5738741461972
 20
217.9885496520968
 10
358.5738741461972
 20
217.9885496520968
 10
358.5738741461972
 20
217.9885496520968
 10
358.5738741461972
 20
217.9885496520968
 10
357.0179281805516
 20
216.8470056850531
 10
357.0179281805516
 20
216.8470056850531
 10
355.6420446217827
 20
215.8734625282536
 10
353.7363123537829
 20
216.1517407934274
 10
352.7619076543667
 20
217.4699009968814
 10
352.7619076543667
 20
217.4699009968814
 10
350.4788197202797
 20
220.688624212636
 10
350.4788197202797
 20
220.688624212636
 10
350.4788197202797
 20
220.688624212636
 10
350.4788197202797
 20
220.688624212636
 10
350.4788197202797
 20
220.688624212636
 10
350.4788197202797
 20
220.688624212636
 10
348.0914851295797
 20
223.9047628005404
 10
348.0914851295797
 20
223.9047628005404
 10
347.1179419727804
 20
225.280646359309
 10
347.3962202379541
 20
227.1863786273089
 10
348.7143804414082
 20
228.1607833267253
 10
348.7143804414082
 20
228.1607833267253
 10
350.3745730636668
 20
229.3023272937688
 10
350.3745730636668
 20
229.3023272937688
 10
350.3745730636668
 20
229.3023272937688
 10
350.3745730636668
 20
229.3023272937688
 10
350.3745730636668
 20
229.3023272937688
 10
326.4788270486338
 20
258.5163758812994
 10
290.7032698927988
 20
275.4879038864238
 10
253.0202573837303
 20
275.4879038864238
 10
253.0202573837303
 20
275.4879038864238
 10
253.0202573837303
 20
275.4879038864238
 10
253.0202573837303
 20
275.4879038864238
 10
215.3355217894285
 20
275.4879038864238
 10
179.5995955939586
 20
258.5163758812994
 10
155.7676037325568
 20
229.3023272937688
 10
155.7676037325568
 20
229.3023272937688
 10
155.7676037325568
 20
229.3023272937688
 10
155.7676037325568
 20
229.3023272937688
 10
155.7676037325568
 20
229.3023272937688
 10
157.3235496982027
 20
228.1607833267253
 10
157.3235496982027
 20
228.1607833267253
 10
158.7002947995877
 20
227.1863786273089
 10
159.0268194512931
 20
225.280646359309
 10
158.0506916666438
 20
223.9047628005404
 10
158.0506916666438
 20
223.9047628005404
 10
155.6633570759441
 20
220.688624212636
 10
155.6633570759441
 20
220.688624212636
 10
155.6633570759441
 20
220.688624212636
 10
155.6633570759441
 20
220.688624212636
 10
155.6633570759441
 20
220.688624212636
 10
155.6633570759441
 20
220.688624212636
 10
153.2760224852438
 20
217.4699009968814
 10
153.2760224852438
 20
217.4699009968814
 10
152.3024793284444
 20
216.1517407934274
 10
150.4441319043593
 20
215.8734625282536
 10
149.124248615672
 20
216.8470056850531
 10
149.124248615672
 20
216.8470056850531
 10
147.4640559934132
 20
217.9885496520968
 10
147.4640559934132
 20
217.9885496520968
 10
147.4640559934132
 20
217.9885496520968
 10
147.4640559934132
 20
217.9885496520968
 10
147.4640559934132
 20
217.9885496520968
 10
143.8722848246552
 20
212.3936918996586
 10
140.7138695920654
 20
206.5283097655965
 10
138.0189642872261
 20
200.4484035199922
 10
138.0189642872261
 20
200.4484035199922
 10
138.0189642872261
 20
200.4484035199922
 10
138.0189642872261
 20
200.4484035199922
 10
138.0189642872261
 20
200.4484035199922
 10
123.3848014010368
 20
204.2874374197246
 10
123.3848014010368
 20
204.2874374197246
 10
143.9567160010856
 20
253.3307508717637
 10
190.3542320774334
 20
286.5337417743216
 10
243.47091902093
 20
290.2263134292261
 10
243.47091902093
 20
290.2263134292261
 10
243.47091902093
 20
290.2263134292261
 10
243.47091902093
 20
290.2263134292261
 10
244.9002182219302
 20
294.3892873528143
 10
248.8167909571603
 20
297.1798238881003
 10
253.2261660691064
 20
297.1798238881003
 10
253.2261660691064
 20
297.1798238881003
 10
253.2261660691064
 20
297.1798238881003
 10
253.2261660691064
 20
297.1798238881003
 10
257.6837875675843
 20
297.1798238881003
 10
261.6641144564454
 20
294.3324255401165
 10
263.0882444017455
 20
290.1220667726134
 10
263.0882444017455
 20
290.1220667726134
 10
263.0882444017455
 20
290.1220667726134
 10
263.0882444017455
 20
290.1220667726134
 10
315.9507762733347
 20
286.3657409640774
 10
362.1863223377544
 20
253.201519479268
 10
382.7573753951869
 20
204.2874374197246
 10
382.7573753951869
 20
204.2874374197246
 10
382.7573753951869
 20
204.2874374197246
 10
382.7573753951869
 20
204.2874374197246
 10
382.7573753951869
 20
204.2874374197246
 10
368.0189658523844
 20
200.4484035199922
 10
368.0189658523844
 20
200.4484035199922
 97
        0
 75
     2
 76
     1
 98
        1
 10
-552.2911957502377
 20
-698.2740847375667
  0
SPLINE
  5
29
330
A
100
AcDbEntity
  8
A-001_Pan
100
AcDbSpline
210
0.0
220
0.0
230
1.0
 70
     9
 71
     3
 72
   107
 73
   103
 74
     0
 42
0.0000000001
 43
0.0000000001
 40
0.0
 40
0.0
 40
0.0
 40
0.0
 40
1.0
 40
1.0
 40
1.0
 40
2.0
 40
2.0
 40
2.0
 40
3.0
 40
3.0
 40
3.0
 40
4.0
 40
4.0
 40
4.0
 40
5.0
 40
5.0
 40
5.0
 40
6.0
 40
6.0
 40
6.0
 40
7.0
 40
7.0
 40
7.0
 40
8.0
 40
8.0
 40
8.0
 40
9.0
 40
9.0
 40
9.0
 40
10.0
 40
10.0
 40
10.0
 40
11.0
 40
11.0
 40
11.0
 40
12.0
 40
12.0
 40
12.0
 40
13.0
 40
13.0
 40
13.0
 40
14.0
 40
14.0
 40
14.0
 40
15.0
 40
15.0
 40
15.0
 40
16.0
 40
16.0
 40
16.0
 40
17.0
 40
17.0
 40
17.0
 40
18.0
 40
18.0
 40
18.0
 40
19.0
 40
19.0
 40
19.0
 40
20.0
 40
20.0
 40
20.0
 40
21.0
 40
21.0
 40
21.0
 40
22.0
 40
22.0
 40
22.0
 40
23.0
 40
23.0
 40
23.0
 40
24.0
 40
24.0
 40
24.0
 40
25.0
 40
25.0
 40
25.0
 40
26.0
 40
26.0
 40
26.0
 40
27.0
 40
27.0
 40
27.0
 40
28.0
 40
28.0
 40
28.0
 40
29.0
 40
29.0
 40
29.0
 40
30.0
 40
30.0
 40
30.0
 40
31.0
 40
31.0
 40
31.0
 40
32.0
 40
32.0
 40
32.0
 40
33.0
 40
33.0
 40
33.0
 40
34.0
 40
34.0
 40
34.0
 40
34.0
 10
368.0189658523842
 20
200.4484035199922
 30
0.0
 10
365.3249220901616
 20
206.5283097655964
 30
0.0
 10
362.1665068575716
 20
212.3936918996584
 30
0.0
 10
358.5738741461971
 20
217.9885496520966
 30
0.0
 10
358.5738741461971
 20
217.9885496520966
 30
0.0
 10
358.5738741461971
 20
217.9885496520966
 30
0.0
 10
358.5738741461971
 20
217.9885496520966
 30
0.0
 10
358.5738741461971
 20
217.9885496520966
 30
0.0
 10
357.0179281805515
 20
216.847005685053
 30
0.0
 10
357.0179281805515
 20
216.847005685053
 30
0.0
 10
355.6420446217826
 20
215.8734625282536
 30
0.0
 10
353.7363123537826
 20
216.1517407934273
 30
0.0
 10
352.7619076543667
 20
217.4699009968814
 30
0.0
 10
352.7619076543667
 20
217.4699009968814
 30
0.0
 10
350.4788197202796
 20
220.6886242126359
 30
0.0
 10
350.4788197202796
 20
220.6886242126359
 30
0.0
 10
350.4788197202796
 20
220.6886242126359
 30
0.0
 10
350.4788197202796
 20
220.6886242126359
 30
0.0
 10
350.4788197202796
 20
220.6886242126359
 30
0.0
 10
350.4788197202796
 20
220.6886242126359
 30
0.0
 10
348.0914851295797
 20
223.9047628005404
 30
0.0
 10
348.0914851295797
 20
223.9047628005404
 30
0.0
 10
347.1179419727804
 20
225.2806463593089
 30
0.0
 10
347.396220237954
 20
227.1863786273089
 30
0.0
 10
348.714380441408
 20
228.1607833267253
 30
0.0
 10
348.714380441408
 20
228.1607833267253
 30
0.0
 10
350.3745730636667
 20
229.3023272937687
 30
0.0
 10
350.3745730636667
 20
229.3023272937687
 30
0.0
 10
350.3745730636667
 20
229.3023272937687
 30
0.0
 10
350.3745730636667
 20
229.3023272937687
 30
0.0
 10
350.3745730636667
 20
229.3023272937687
 30
0.0
 10
326.4788270486338
 20
258.5163758812992
 30
0.0
 10
290.7032698927988
 20
275.4879038864235
 30
0.0
 10
253.0202573837302
 20
275.4879038864235
 30
0.0
 10
253.0202573837302
 20
275.4879038864235
 30
0.0
 10
253.0202573837302
 20
275.4879038864235
 30
0.0
 10
253.0202573837302
 20
275.4879038864235
 30
0.0
 10
215.3355217894284
 20
275.4879038864235
 30
0.0
 10
179.5995955939585
 20
258.5163758812992
 30
0.0
 10
155.7676037325568
 20
229.3023272937687
 30
0.0
 10
155.7676037325568
 20
229.3023272937687
 30
0.0
 10
155.7676037325568
 20
229.3023272937687
 30
0.0
 10
155.7676037325568
 20
229.3023272937687
 30
0.0
 10
155.7676037325568
 20
229.3023272937687
 30
0.0
 10
157.3235496982024
 20
228.1607833267253
 30
0.0
 10
157.3235496982024
 20
228.1607833267253
 30
0.0
 10
158.7002947995876
 20
227.1863786273089
 30
0.0
 10
159.026819451293
 20
225.2806463593089
 30
0.0
 10
158.0506916666438
 20
223.9047628005404
 30
0.0
 10
158.0506916666438
 20
223.9047628005404
 30
0.0
 10
155.6633570759438
 20
220.6886242126359
 30
0.0
 10
155.6633570759438
 20
220.6886242126359
 30
0.0
 10
155.6633570759438
 20
220.6886242126359
 30
0.0
 10
155.6633570759438
 20
220.6886242126359
 30
0.0
 10
155.6633570759438
 20
220.6886242126359
 30
0.0
 10
155.6633570759438
 20
220.6886242126359
 30
0.0
 10
153.2760224852437
 20
217.4699009968814
 30
0.0
 10
153.2760224852437
 20
217.4699009968814
 30
0.0
 10
152.3024793284444
 20
216.1517407934273
 30
0.0
 10
150.4441319043592
 20
215.8734625282536
 30
0.0
 10
149.1242486156719
 20
216.847005685053
 30
0.0
 10
149.1242486156719
 20
216.847005685053
 30
0.0
 10
147.4640559934131
 20
217.9885496520966
 30
0.0
 10
147.4640559934131
 20
217.9885496520966
 30
0.0
 10
147.4640559934131
 20
217.9885496520966
 30
0.0
 10
147.4640559934131
 20
217.9885496520966
 30
0.0
 10
147.4640559934131
 20
217.9885496520966
 30
0.0
 10
143.8722848246552
 20
212.3936918996584
 30
0.0
 10
140.7138695920653
 20
206.5283097655964
 30
0.0
 10
138.0189642872259
 20
200.4484035199922
 30
0.0
 10
138.0189642872259
 20
200.4484035199922
 30
0.0
 10
138.0189642872259
 20
200.4484035199922
 30
0.0
 10
138.0189642872259
 20
200.4484035199922
 30
0.0
 10
138.0189642872259
 20
200.4484035199922
 30
0.0
 10
123.3848014010367
 20
204.2874374197245
 30
0.0
 10
123.3848014010367
 20
204.2874374197245
 30
0.0
 10
143.9567160010856
 20
253.3307508717637
 30
0.0
 10
190.3542320774334
 20
286.5337417743216
 30
0.0
 10
243.47091902093
 20
290.2263134292259
 30
0.0
 10
243.47091902093
 20
290.2263134292259
 30
0.0
 10
243.47091902093
 20
290.2263134292259
 30
0.0
 10
243.47091902093
 20
290.2263134292259
 30
0.0
 10
244.9002182219301
 20
294.3892873528143
 30
0.0
 10
248.8167909571601
 20
297.1798238881
 30
0.0
 10
253.2261660691063
 20
297.1798238881
 30
0.0
 10
253.2261660691063
 20
297.1798238881
 30
0.0
 10
253.2261660691063
 20
297.1798238881
 30
0.0
 10
253.2261660691063
 20
297.1798238881
 30
0.0
 10
257.6837875675842
 20
297.1798238881
 30
0.0
 10
261.6641144564454
 20
294.3324255401163
 30
0.0
 10
263.0882444017454
 20
290.1220667726132
 30
0.0
 10
263.0882444017454
 20
290.1220667726132
 30
0.0
 10
263.0882444017454
 20
290.1220667726132
 30
0.0
 10
263.0882444017454
 20
290.1220667726132
 30
0.0
 10
315.9507762733347
 20
286.3657409640773
 30
0.0
 10
362.1863223377544
 20
253.201519479268
 30
0.0
 10
382.7573753951867
 20
204.2874374197245
 30
0.0
 10
382.7573753951867
 20
204.2874374197245
 30
0.0
 10
382.7573753951867
 20
204.2874374197245
 30
0.0
 10
382.7573753951867
 20
204.2874374197245
 30
0.0
 10
382.7573753951867
 20
204.2874374197245
 30
0.0
 10
368.0189658523842
 20
200.4484035199922
 30
0.0
 10
368.0189658523842
 20
200.4484035199922
 30
0.0
  0
TEXT
  5
298
330
A
100
AcDbEntity
  8
A-043_Txt025
370
     0
100
AcDbText
 10
113.0066590410321
 20
-345.5720599255228
 30
0.0
 40
20.0
  1
P0001230
  7
helvetica regular
100
AcDbText
  0
DIMENSION
  5
2D7
330
A
100
AcDbEntity
  8
A-031_DimExt
370
     0
100
AcDbDimension
  2
*D18
 10
557.1267052815423
 20
-305.5720599255228
 30
0.0
 11
595.824184273139
 21
-305.5720599255228
 31
0.0
 70
   160
 71
     5
 42
15.05114497563613
  3
DIMEXT
100
AcDbAlignedDimension
 13
542.0755603059062
 23
-305.5312695929035
 33
0.0
 14
557.1267052815423
 24
-305.5312695929035
 34
0.0
100
AcDbRotatedDimension
  0
SPLINE
  5
2E7
330
A
100
AcDbEntity
  8
A-001_Pan
100
AcDbSpline
210
0.0
220
0.0
230
1.0
 70
    24
 71
     3
 72
     8
 73
     4
 74
     0
 42
0.0000000001
 43
0.0000000001
 40
0.0
 40
0.0
 40
0.0
 40
0.0
 40
1.0
 40
1.0
 40
1.0
 40
1.0
 10
391.3736631041696
 20
-226.6501486235892
 30
0.0
 10
391.3736631041696
 20
-226.6501486235892
 30
0.0
 10
391.5795717895454
 20
-226.8586419368152
 30
0.0
 10
391.5795717895454
 20
-226.8586419368152
 30
0.0
  0
SPLINE
  5
2E8
330
A
100
AcDbEntity
  8
A-001_Pan
100
AcDbSpline
210
0.0
220
0.0
230
1.0
 70
     8
 71
     3
 72
     8
 73
     4
 74
     0
 42
0.0000000001
 43
0.0000000001
 40
1.0
 40
1.0
 40
1.0
 40
1.0
 40
2.0
 40
2.0
 40
2.0
 40
2.0
 10
391.5795717895454
 20
-226.8586419368152
 30
0.0
 10
392.5091762728965
 20
-227.7882464201661
 30
0.0
 10
393.0338557264281
 20
-229.0564371518551
 30
0.0
 10
393.0338557264281
 20
-230.3875204945588
 30
0.0
  0
SPLINE
  5
2E9
330
A
100
AcDbEntity
  8
A-001_Pan
100
AcDbSpline
210
0.0
220
0.0
230
1.0
 70
    24
 71
     3
 72
     8
 73
     4
 74
     0
 42
0.0000000001
 43
0.0000000001
 40
2.0
 40
2.0
 40
2.0
 40
2.0
 40
3.0
 40
3.0
 40
3.0
 40
3.0
 10
393.0338557264281
 20
-230.3875204945588
 30
0.0
 10
393.0338557264281
 20
-230.3875204945588
 30
0.0
 10
393.0338557264281
 20
-231.2163244917632
 30
0.0
 10
393.0338557264281
 20
-231.2163244917632
 30
0.0
  0
SPLINE
  5
2EA
330
A
100
AcDbEntity
  8
A-001_Pan
100
AcDbSpline
210
0.0
220
0.0
230
1.0
 70
    25
 71
     3
 72
     8
 73
     4
 74
     0
 42
0.0000000001
 43
0.0000000001
 40
3.0
 40
3.0
 40
3.0
 40
3.0
 40
4.0
 40
4.0
 40
4.0
 40
4.0
 10
393.0338557264281
 20
-231.2163244917632
 30
0.0
 10
393.0338557264281
 20
-231.2163244917632
 30
0.0
 10
393.0338557264281
 20
-231.2163244917632
 30
0.0
 10
393.0338557264281
 20
-231.2163244917632
 30
0.0
  0
SPLINE
  5
2EB
330
A
100
AcDbEntity
  8
A-001_Pan
100
AcDbSpline
210
0.0
220
0.0
230
1.0
 70
     8
 71
     3
 72
     8
 73
     4
 74
     0
 42
0.0000000001
 43
0.0000000001
 40
4.0
 40
4.0
 40
4.0
 40
4.0
 40
5.0
 40
5.0
 40
5.0
 40
5.0
 10
393.0338557264281
 20
-231.2163244917632
 30
0.0
 10
393.0338557264281
 20
-232.7636550312425
 30
0.0
 10
391.7794496766052
 20
-234.0180610810654
 30
0.0
 10
390.2295345092761
 20
-234.0180610810654
 30
0.0
  0
SPLINE
  5
2EC
330
A
100
AcDbEntity
  8
A-001_Pan
100
AcDbSpline
210
0.0
220
0.0
230
1.0
 70
    24
 71
     3
 72
     8
 73
     4
 74
     0
 42
0.0000000001
 43
0.0000000001
 40
5.0
 40
5.0
 40
5.0
 40
5.0
 40
6.0
 40
6.0
 40
6.0
 40
6.0
 10
390.2295345092761
 20
-234.0180610810654
 30
0.0
 10
390.2295345092761
 20
-234.0180610810654
 30
0.0
 10
388.569341887017
 20
-234.0180610810654
 30
0.0
 10
388.569341887017
 20
-234.0180610810654
 30
0.0
  0
SPLINE
  5
2ED
330
A
100
AcDbEntity
  8
A-001_Pan
100
AcDbSpline
210
0.0
220
0.0
230
1.0
 70
    25
 71
     3
 72
     8
 73
     4
 74
     0
 42
0.0000000001
 43
0.0000000001
 40
6.0
 40
6.0
 40
6.0
 40
6.0
 40
7.0
 40
7.0
 40
7.0
 40
7.0
 10
388.569341887017
 20
-234.0180610810654
 30
0.0
 10
388.569341887017
 20
-234.0180610810654
 30
0.0
 10
388.569341887017
 20
-234.0180610810654
 30
0.0
 10
388.569341887017
 20
-234.0180610810654
 30
0.0
  0
SPLINE
  5
2EE
330
A
100
AcDbEntity
  8
A-001_Pan
100
AcDbSpline
210
0.0
220
0.0
230
1.0
 70
    24
 71
     3
 72
     8
 73
     4
 74
     0
 42
0.0000000001
 43
0.0000000001
 40
7.0
 40
7.0
 40
7.0
 40
7.0
 40
8.0
 40
8.0
 40
8.0
 40
8.0
 10
388.569341887017
 20
-234.0180610810654
 30
0.0
 10
388.569341887017
 20
-234.0180610810654
 30
0.0
 10
385.0404633292735
 20
-234.0180610810654
 30
0.0
 10
385.0404633292735
 20
-234.0180610810654
 30
0.0
  0
SPLINE
  5
2EF
330
A
100
AcDbEntity
  8
A-001_Pan
100
AcDbSpline
210
0.0
220
0.0
230
1.0
 70
     8
 71
     3
 72
     8
 73
     4
 74
     0
 42
0.0000000001
 43
0.0000000001
 40
8.0
 40
8.0
 40
8.0
 40
8.0
 40
9.0
 40
9.0
 40
9.0
 40
9.0
 10
385.0404633292735
 20
-234.0180610810654
 30
0.0
 10
384.4675374892103
 20
-234.0180610810654
 30
0.0
 10
384.0031660188431
 20
-234.4841556366657
 30
0.0
 10
384.0031660188431
 20
-235.0579430193457
 30
0.0
  0
SPLINE
  5
2F0
330
A
100
AcDbEntity
  8
A-001_Pan
100
AcDbSpline
210
0.0
220
0.0
230
1.0
 70
    24
 71
     3
 72
     8
 73
     4
 74
     0
 42
0.0000000001
 43
0.0000000001
 40
9.0
 40
9.0
 40
9.0
 40
9.0
 40
10.0
 40
10.0
 40
10.0
 40
10.0
 10
384.0031660188431
 20
-235.0579430193457
 30
0.0
 10
384.0031660188431
 20
-235.0579430193457
 30
0.0
 10
384.0031660188431
 20
-243.2572441018763
 30
0.0
 10
384.0031660188431
 20
-243.2572441018763
 30
0.0
  0
SPLINE
  5
2F1
330
A
100
AcDbEntity
  8
A-001_Pan
100
AcDbSpline
210
0.0
220
0.0
230
1.0
 70
    25
 71
     3
 72
     8
 73
     4
 74
     0
 42
0.0000000001
 43
0.0000000001
 40
10.0
 40
10.0
 40
10.0
 40
10.0
 40
11.0
 40
11.0
 40
11.0
 40
11.0
 10
384.0031660188431
 20
-243.2572441018763
 30
0.0
 10
384.0031660188431
 20
-243.2572441018763
 30
0.0
 10
384.0031660188431
 20
-243.2572441018763
 30
0.0
 10
384.0031660188431
 20
-243.2572441018763
 30
0.0
  0
SPLINE
  5
2F2
330
A
100
AcDbEntity
  8
A-001_Pan
100
AcDbSpline
210
0.0
220
0.0
230
1.0
 70
    24
 71
     3
 72
     8
 73
     4
 74
     0
 42
0.0000000001
 43
0.0000000001
 40
11.0
 40
11.0
 40
11.0
 40
11.0
 40
12.0
 40
12.0
 40
12.0
 40
12.0
 10
384.0031660188431
 20
-243.2572441018763
 30
0.0
 10
384.0031660188431
 20
-243.2572441018763
 30
0.0
 10
384.0031660188431
 20
-249.4836125923092
 30
0.0
 10
384.0031660188431
 20
-249.4836125923092
 30
0.0
  0
SPLINE
  5
2F3
330
A
100
AcDbEntity
  8
A-001_Pan
100
AcDbSpline
210
0.0
220
0.0
230
1.0
 70
     8
 71
     3
 72
     8
 73
     4
 74
     0
 42
0.0000000001
 43
0.0000000001
 40
12.0
 40
12.0
 40
12.0
 40
12.0
 40
13.0
 40
13.0
 40
13.0
 40
13.0
 10
384.0031660188431
 20
-249.4836125923092
 30
0.0
 10
384.0031660188431
 20
-251.3204214509784
 30
0.0
 10
385.2386181311001
 20
-252.8961828968068
 30
0.0
 10
387.0133959213717
 20
-253.3252311198918
 30
0.0
  0
SPLINE
  5
2F4
330
A
100
AcDbEntity
  8
A-001_Pan
100
AcDbSpline
210
0.0
220
0.0
230
1.0
 70
    24
 71
     3
 72
     8
 73
     4
 74
     0
 42
0.0000000001
 43
0.0000000001
 40
13.0
 40
13.0
 40
13.0
 40
13.0
 40
14.0
 40
14.0
 40
14.0
 40
14.0
 10
387.0133959213717
 20
-253.3252311198918
 30
0.0
 10
387.0133959213717
 20
-253.3252311198918
 30
0.0
 10
388.0506932318018
 20
-253.6353864618809
 30
0.0
 10
388.0506932318018
 20
-253.6353864618809
 30
0.0
  0
SPLINE
  5
2F5
330
A
100
AcDbEntity
  8
A-001_Pan
100
AcDbSpline
210
0.0
220
0.0
230
1.0
 70
    25
 71
     3
 72
     8
 73
     4
 74
     0
 42
0.0000000001
 43
0.0000000001
 40
14.0
 40
14.0
 40
14.0
 40
14.0
 40
15.0
 40
15.0
 40
15.0
 40
15.0
 10
388.0506932318018
 20
-253.6353864618809
 30
0.0
 10
388.0506932318018
 20
-253.6353864618809
 30
0.0
 10
388.0506932318018
 20
-253.6353864618809
 30
0.0
 10
388.0506932318018
 20
-253.6353864618809
 30
0.0
  0
SPLINE
  5
2F6
330
A
100
AcDbEntity
  8
A-001_Pan
100
AcDbSpline
210
0.0
220
0.0
230
1.0
 70
    24
 71
     3
 72
     8
 73
     4
 74
     0
 42
0.0000000001
 43
0.0000000001
 40
15.0
 40
15.0
 40
15.0
 40
15.0
 40
16.0
 40
16.0
 40
16.0
 40
16.0
 10
388.0506932318018
 20
-253.6353864618809
 30
0.0
 10
388.0506932318018
 20
-253.6353864618809
 30
0.0
 10
388.259186545028
 20
-253.6353864618809
 30
0.0
 10
388.259186545028
 20
-253.6353864618809
 30
0.0
  0
SPLINE
  5
2F7
330
A
100
AcDbEntity
  8
A-001_Pan
100
AcDbSpline
210
0.0
220
0.0
230
1.0
 70
     8
 71
     3
 72
     8
 73
     4
 74
     0
 42
0.0000000001
 43
0.0000000001
 40
16.0
 40
16.0
 40
16.0
 40
16.0
 40
17.0
 40
17.0
 40
17.0
 40
17.0
 10
388.259186545028
 20
-253.6353864618809
 30
0.0
 10
390.4630125583843
 20
-254.2479432623096
 30
0.0
 10
391.9939737881478
 20
-256.2484452181396
 30
0.0
 10
391.9939737881478
 20
-258.5143022998941
 30
0.0
  0
SPLINE
  5
2F8
330
A
100
AcDbEntity
  8
A-001_Pan
100
AcDbSpline
210
0.0
220
0.0
230
1.0
 70
    24
 71
     3
 72
     8
 73
     4
 74
     0
 42
0.0000000001
 43
0.0000000001
 40
17.0
 40
17.0
 40
17.0
 40
17.0
 40
18.0
 40
18.0
 40
18.0
 40
18.0
 10
391.9939737881478
 20
-258.5143022998941
 30
0.0
 10
391.9939737881478
 20
-258.5143022998941
 30
0.0
 10
391.9939737881478
 20
-260.0702482655397
 30
0.0
 10
391.9939737881478
 20
-260.0702482655397
 30
0.0
  0
SPLINE
  5
2F9
330
A
100
AcDbEntity
  8
A-001_Pan
100
AcDbSpline
210
0.0
220
0.0
230
1.0
 70
    25
 71
     3
 72
     8
 73
     4
 74
     0
 42
0.0000000001
 43
0.0000000001
 40
18.0
 40
18.0
 40
18.0
 40
18.0
 40
19.0
 40
19.0
 40
19.0
 40
19.0
 10
391.9939737881478
 20
-260.0702482655397
 30
0.0
 10
391.9939737881478
 20
-260.0702482655397
 30
0.0
 10
391.9939737881478
 20
-260.0702482655397
 30
0.0
 10
391.9939737881478
 20
-260.0702482655397
 30
0.0
  0
SPLINE
  5
2FA
330
A
100
AcDbEntity
  8
A-001_Pan
100
AcDbSpline
210
0.0
220
0.0
230
1.0
 70
     8
 71
     3
 72
     8
 73
     4
 74
     0
 42
0.0000000001
 43
0.0000000001
 40
19.0
 40
19.0
 40
19.0
 40
19.0
 40
20.0
 40
20.0
 40
20.0
 40
20.0
 10
391.9939737881478
 20
-260.0702482655397
 30
0.0
 10
391.9939737881478
 20
-263.1089090744171
 30
0.0
 10
389.5790698337155
 20
-265.5720594153811
 30
0.0
 10
386.5989939227692
 20
-265.5720594153811
 30
0.0
  0
SPLINE
  5
2FB
330
A
100
AcDbEntity
  8
A-001_Pan
100
AcDbSpline
210
0.0
220
0.0
230
1.0
 70
    24
 71
     3
 72
     8
 73
     4
 74
     0
 42
0.0000000001
 43
0.0000000001
 40
20.0
 40
20.0
 40
20.0
 40
20.0
 40
21.0
 40
21.0
 40
21.0
 40
21.0
 10
386.5989939227692
 20
-265.5720594153811
 30
0.0
 10
386.5989939227692
 20
-265.5720594153811
 30
0.0
 10
253.0202573837302
 20
-265.5720594153811
 30
0.0
 10
253.0202573837302
 20
-265.5720594153811
 30
0.0
  0
SPLINE
  5
2FC
330
A
100
AcDbEntity
  8
A-001_Pan
100
AcDbSpline
210
0.0
220
0.0
230
1.0
 70
    25
 71
     3
 72
     8
 73
     4
 74
     0
 42
0.0000000001
 43
0.0000000001
 40
21.0
 40
21.0
 40
21.0
 40
21.0
 40
22.0
 40
22.0
 40
22.0
 40
22.0
 10
253.0202573837302
 20
-265.5720594153811
 30
0.0
 10
253.0202573837302
 20
-265.5720594153811
 30
0.0
 10
253.0202573837302
 20
-265.5720594153811
 30
0.0
 10
253.0202573837302
 20
-265.5720594153811
 30
0.0
  0
SPLINE
  5
2FD
330
A
100
AcDbEntity
  8
A-001_Pan
100
AcDbSpline
210
0.0
220
0.0
230
1.0
 70
    24
 71
     3
 72
     8
 73
     4
 74
     0
 42
0.0000000001
 43
0.0000000001
 40
22.0
 40
22.0
 40
22.0
 40
22.0
 40
23.0
 40
23.0
 40
23.0
 40
23.0
 10
253.0202573837302
 20
-265.5720594153811
 30
0.0
 10
253.0202573837302
 20
-265.5720594153811
 30
0.0
 10
119.545767501304
 20
-265.5720594153811
 30
0.0
 10
119.545767501304
 20
-265.5720594153811
 30
0.0
  0
SPLINE
  5
2FE
330
A
100
AcDbEntity
  8
A-001_Pan
100
AcDbSpline
210
0.0
220
0.0
230
1.0
 70
     8
 71
     3
 72
     8
 73
     4
 74
     0
 42
0.0000000001
 43
0.0000000001
 40
23.0
 40
23.0
 40
23.0
 40
23.0
 40
24.0
 40
24.0
 40
24.0
 40
24.0
 10
119.545767501304
 20
-265.5720594153811
 30
0.0
 10
116.5071066924266
 20
-265.5720594153811
 30
0.0
 10
114.0439563514625
 20
-263.1089090744171
 30
0.0
 10
114.0439563514625
 20
-260.0702482655397
 30
0.0
  0
SPLINE
  5
2FF
330
A
100
AcDbEntity
  8
A-001_Pan
100
AcDbSpline
210
0.0
220
0.0
230
1.0
 70
    25
 71
     3
 72
     8
 73
     4
 74
     0
 42
0.0000000001
 43
0.0000000001
 40
24.0
 40
24.0
 40
24.0
 40
24.0
 40
25.0
 40
25.0
 40
25.0
 40
25.0
 10
114.0439563514625
 20
-260.0702482655397
 30
0.0
 10
114.0439563514625
 20
-260.0702482655397
 30
0.0
 10
114.0439563514625
 20
-260.0702482655397
 30
0.0
 10
114.0439563514625
 20
-260.0702482655397
 30
0.0
  0
SPLINE
  5
300
330
A
100
AcDbEntity
  8
A-001_Pan
100
AcDbSpline
210
0.0
220
0.0
230
1.0
 70
    24
 71
     3
 72
     8
 73
     4
 74
     0
 42
0.0000000001
 43
0.0000000001
 40
25.0
 40
25.0
 40
25.0
 40
25.0
 40
26.0
 40
26.0
 40
26.0
 40
26.0
 10
114.0439563514625
 20
-260.0702482655397
 30
0.0
 10
114.0439563514625
 20
-260.0702482655397
 30
0.0
 10
114.0439563514625
 20
-258.5143022998941
 30
0.0
 10
114.0439563514625
 20
-258.5143022998941
 30
0.0
  0
SPLINE
  5
301
330
A
100
AcDbEntity
  8
A-001_Pan
100
AcDbSpline
210
0.0
220
0.0
230
1.0
 70
     8
 71
     3
 72
     8
 73
     4
 74
     0
 42
0.0000000001
 43
0.0000000001
 40
26.0
 40
26.0
 40
26.0
 40
26.0
 40
27.0
 40
27.0
 40
27.0
 40
27.0
 10
114.0439563514625
 20
-258.5143022998941
 30
0.0
 10
114.0439563514625
 20
-256.2484452181396
 30
0.0
 10
115.5775022090757
 20
-254.2479432623096
 30
0.0
 10
117.7813282224321
 20
-253.6353864618809
 30
0.0
  0
SPLINE
  5
302
330
A
100
AcDbEntity
  8
A-001_Pan
100
AcDbSpline
210
0.0
220
0.0
230
1.0
 70
    24
 71
     3
 72
     8
 73
     4
 74
     0
 42
0.0000000001
 43
0.0000000001
 40
27.0
 40
27.0
 40
27.0
 40
27.0
 40
28.0
 40
28.0
 40
28.0
 40
28.0
 10
117.7813282224321
 20
-253.6353864618809
 30
0.0
 10
117.7813282224321
 20
-253.6353864618809
 30
0.0
 10
118.0914835644212
 20
-253.6353864618809
 30
0.0
 10
118.0914835644212
 20
-253.6353864618809
 30
0.0
  0
SPLINE
  5
303
330
A
100
AcDbEntity
  8
A-001_Pan
100
AcDbSpline
210
0.0
220
0.0
230
1.0
 70
    25
 71
     3
 72
     8
 73
     4
 74
     0
 42
0.0000000001
 43
0.0000000001
 40
28.0
 40
28.0
 40
28.0
 40
28.0
 40
29.0
 40
29.0
 40
29.0
 40
29.0
 10
118.0914835644212
 20
-253.6353864618809
 30
0.0
 10
118.0914835644212
 20
-253.6353864618809
 30
0.0
 10
118.0914835644212
 20
-253.6353864618809
 30
0.0
 10
118.0914835644212
 20
-253.6353864618809
 30
0.0
  0
SPLINE
  5
304
330
A
100
AcDbEntity
  8
A-001_Pan
100
AcDbSpline
210
0.0
220
0.0
230
1.0
 70
    24
 71
     3
 72
     8
 73
     4
 74
     0
 42
0.0000000001
 43
0.0000000001
 40
29.0
 40
29.0
 40
29.0
 40
29.0
 40
30.0
 40
30.0
 40
30.0
 40
30.0
 10
118.0914835644212
 20
-253.6353864618809
 30
0.0
 10
118.0914835644212
 20
-253.6353864618809
 30
0.0
 10
119.0271188460886
 20
-253.3252311198918
 30
0.0
 10
119.0271188460886
 20
-253.3252311198918
 30
0.0
  0
SPLINE
  5
305
330
A
100
AcDbEntity
  8
A-001_Pan
100
AcDbSpline
210
0.0
220
0.0
230
1.0
 70
     8
 71
     3
 72
     8
 73
     4
 74
     0
 42
0.0000000001
 43
0.0000000001
 40
30.0
 40
30.0
 40
30.0
 40
30.0
 40
31.0
 40
31.0
 40
31.0
 40
31.0
 10
119.0271188460886
 20
-253.3252311198918
 30
0.0
 10
120.8018966363602
 20
-252.8961828968068
 30
0.0
 10
122.0347641207669
 20
-251.3204214509784
 30
0.0
 10
122.0347641207669
 20
-249.4836125923092
 30
0.0
  0
SPLINE
  5
306
330
A
100
AcDbEntity
  8
A-001_Pan
100
AcDbSpline
210
0.0
220
0.0
230
1.0
 70
    24
 71
     3
 72
     8
 73
     4
 74
     0
 42
0.0000000001
 43
0.0000000001
 40
31.0
 40
31.0
 40
31.0
 40
31.0
 40
32.0
 40
32.0
 40
32.0
 40
32.0
 10
122.0347641207669
 20
-249.4836125923092
 30
0.0
 10
122.0347641207669
 20
-249.4836125923092
 30
0.0
 10
122.0347641207669
 20
-243.2572441018763
 30
0.0
 10
122.0347641207669
 20
-243.2572441018763
 30
0.0
  0
SPLINE
  5
307
330
A
100
AcDbEntity
  8
A-001_Pan
100
AcDbSpline
210
0.0
220
0.0
230
1.0
 70
    25
 71
     3
 72
     8
 73
     4
 74
     0
 42
0.0000000001
 43
0.0000000001
 40
32.0
 40
32.0
 40
32.0
 40
32.0
 40
33.0
 40
33.0
 40
33.0
 40
33.0
 10
122.0347641207669
 20
-243.2572441018763
 30
0.0
 10
122.0347641207669
 20
-243.2572441018763
 30
0.0
 10
122.0347641207669
 20
-243.2572441018763
 30
0.0
 10
122.0347641207669
 20
-243.2572441018763
 30
0.0
  0
SPLINE
  5
308
330
A
100
AcDbEntity
  8
A-001_Pan
100
AcDbSpline
210
0.0
220
0.0
230
1.0
 70
    24
 71
     3
 72
     8
 73
     4
 74
     0
 42
0.0000000001
 43
0.0000000001
 40
33.0
 40
33.0
 40
33.0
 40
33.0
 40
34.0
 40
34.0
 40
34.0
 40
34.0
 10
122.0347641207669
 20
-243.2572441018763
 30
0.0
 10
122.0347641207669
 20
-243.2572441018763
 30
0.0
 10
122.0347641207669
 20
-235.0579430193457
 30
0.0
 10
122.0347641207669
 20
-235.0579430193457
 30
0.0
  0
SPLINE
  5
309
330
A
100
AcDbEntity
  8
A-001_Pan
100
AcDbSpline
210
0.0
220
0.0
230
1.0
 70
     8
 71
     3
 72
     8
 73
     4
 74
     0
 42
0.0000000001
 43
0.0000000001
 40
34.0
 40
34.0
 40
34.0
 40
34.0
 40
35.0
 40
35.0
 40
35.0
 40
35.0
 10
122.0347641207669
 20
-235.0579430193457
 30
0.0
 10
122.0347641207669
 20
-234.4841556366657
 30
0.0
 10
121.6169159516985
 20
-234.0180610810654
 30
0.0
 10
121.1017134669497
 20
-234.0180610810654
 30
0.0
  0
SPLINE
  5
30A
330
A
100
AcDbEntity
  8
A-001_Pan
100
AcDbSpline
210
0.0
220
0.0
230
1.0
 70
    24
 71
     3
 72
     8
 73
     4
 74
     0
 42
0.0000000001
 43
0.0000000001
 40
35.0
 40
35.0
 40
35.0
 40
35.0
 40
36.0
 40
36.0
 40
36.0
 40
36.0
 10
121.1017134669497
 20
-234.0180610810654
 30
0.0
 10
121.1017134669497
 20
-234.0180610810654
 30
0.0
 10
117.572834909206
 20
-234.0180610810654
 30
0.0
 10
117.572834909206
 20
-234.0180610810654
 30
0.0
  0
SPLINE
  5
30B
330
A
100
AcDbEntity
  8
A-001_Pan
100
AcDbSpline
210
0.0
220
0.0
230
1.0
 70
    25
 71
     3
 72
     8
 73
     4
 74
     0
 42
0.0000000001
 43
0.0000000001
 40
36.0
 40
36.0
 40
36.0
 40
36.0
 40
37.0
 40
37.0
 40
37.0
 40
37.0
 10
117.572834909206
 20
-234.0180610810654
 30
0.0
 10
117.572834909206
 20
-234.0180610810654
 30
0.0
 10
117.572834909206
 20
-234.0180610810654
 30
0.0
 10
117.572834909206
 20
-234.0180610810654
 30
0.0
  0
SPLINE
  5
30C
330
A
100
AcDbEntity
  8
A-001_Pan
100
AcDbSpline
210
0.0
220
0.0
230
1.0
 70
    24
 71
     3
 72
     8
 73
     4
 74
     0
 42
0.0000000001
 43
0.0000000001
 40
37.0
 40
37.0
 40
37.0
 40
37.0
 40
38.0
 40
38.0
 40
38.0
 40
38.0
 10
117.572834909206
 20
-234.0180610810654
 30
0.0
 10
117.572834909206
 20
-234.0180610810654
 30
0.0
 10
115.9126422869473
 20
-234.0180610810654
 30
0.0
 10
115.9126422869473
 20
-234.0180610810654
 30
0.0
  0
SPLINE
  5
30D
330
A
100
AcDbEntity
  8
A-001_Pan
100
AcDbSpline
210
0.0
220
0.0
230
1.0
 70
     8
 71
     3
 72
     8
 73
     4
 74
     0
 42
0.0000000001
 43
0.0000000001
 40
38.0
 40
38.0
 40
38.0
 40
38.0
 40
39.0
 40
39.0
 40
39.0
 40
39.0
 10
115.9126422869473
 20
-234.0180610810654
 30
0.0
 10
114.3067268495367
 20
-234.0180610810654
 30
0.0
 10
113.0066590410321
 20
-232.7636550312425
 30
0.0
 10
113.0066590410321
 20
-231.2163244917632
 30
0.0
  0
SPLINE
  5
30E
330
A
100
AcDbEntity
  8
A-001_Pan
100
AcDbSpline
210
0.0
220
0.0
230
1.0
 70
    25
 71
     3
 72
     8
 73
     4
 74
     0
 42
0.0000000001
 43
0.0000000001
 40
39.0
 40
39.0
 40
39.0
 40
39.0
 40
40.0
 40
40.0
 40
40.0
 40
40.0
 10
113.0066590410321
 20
-231.2163244917632
 30
0.0
 10
113.0066590410321
 20
-231.2163244917632
 30
0.0
 10
113.0066590410321
 20
-231.2163244917632
 30
0.0
 10
113.0066590410321
 20
-231.2163244917632
 30
0.0
  0
SPLINE
  5
30F
330
A
100
AcDbEntity
  8
A-001_Pan
100
AcDbSpline
210
0.0
220
0.0
230
1.0
 70
    24
 71
     3
 72
     8
 73
     4
 74
     0
 42
0.0000000001
 43
0.0000000001
 40
40.0
 40
40.0
 40
40.0
 40
40.0
 40
41.0
 40
41.0
 40
41.0
 40
41.0
 10
113.0066590410321
 20
-231.2163244917632
 30
0.0
 10
113.0066590410321
 20
-231.2163244917632
 30
0.0
 10
113.0066590410321
 20
-230.3875204945588
 30
0.0
 10
113.0066590410321
 20
-230.3875204945588
 30
0.0
  0
SPLINE
  5
310
330
A
100
AcDbEntity
  8
A-001_Pan
100
AcDbSpline
210
0.0
220
0.0
230
1.0
 70
     8
 71
     3
 72
     8
 73
     4
 74
     0
 42
0.0000000001
 43
0.0000000001
 40
41.0
 40
41.0
 40
41.0
 40
41.0
 40
42.0
 40
42.0
 40
42.0
 40
42.0
 10
113.0066590410321
 20
-230.3875204945588
 30
0.0
 10
113.0066590410321
 20
-229.0564371518551
 30
0.0
 10
113.5658001992293
 20
-227.7882464201661
 30
0.0
 10
114.5626050066779
 20
-226.8586419368152
 30
0.0
  0
SPLINE
  5
311
330
A
100
AcDbEntity
  8
A-001_Pan
100
AcDbSpline
210
0.0
220
0.0
230
1.0
 70
    24
 71
     3
 72
     8
 73
     4
 74
     0
 42
0.0000000001
 43
0.0000000001
 40
42.0
 40
42.0
 40
42.0
 40
42.0
 40
43.0
 40
43.0
 40
43.0
 40
43.0
 10
114.5626050066779
 20
-226.8586419368152
 30
0.0
 10
114.5626050066779
 20
-226.8586419368152
 30
0.0
 10
114.7710983199038
 20
-226.6501486235892
 30
0.0
 10
114.7710983199038
 20
-226.6501486235892
 30
0.0
  0
SPLINE
  5
312
330
A
100
AcDbEntity
  8
A-001_Pan
100
AcDbSpline
210
0.0
220
0.0
230
1.0
 70
    25
 71
     3
 72
     8
 73
     4
 74
     0
 42
0.0000000001
 43
0.0000000001
 40
43.0
 40
43.0
 40
43.0
 40
43.0
 40
44.0
 40
44.0
 40
44.0
 40
44.0
 10
114.7710983199038
 20
-226.6501486235892
 30
0.0
 10
114.7710983199038
 20
-226.6501486235892
 30
0.0
 10
114.7710983199038
 20
-226.6501486235892
 30
0.0
 10
114.7710983199038
 20
-226.6501486235892
 30
0.0
  0
SPLINE
  5
313
330
A
100
AcDbEntity
  8
A-001_Pan
100
AcDbSpline
210
0.0
220
0.0
230
1.0
 70
     8
 71
     3
 72
     8
 73
     4
 74
     0
 42
0.0000000001
 43
0.0000000001
 40
44.0
 40
44.0
 40
44.0
 40
44.0
 40
45.0
 40
45.0
 40
45.0
 40
45.0
 10
114.7710983199038
 20
-226.6501486235892
 30
0.0
 10
119.4217053645083
 20
-221.9969569511347
 30
0.0
 10
122.0347641207669
 20
-215.6508340369895
 30
0.0
 10
122.0347641207669
 20
-209.0057558348716
 30
0.0
  0
SPLINE
  5
314
330
A
100
AcDbEntity
  8
A-001_Pan
100
AcDbSpline
210
0.0
220
0.0
230
1.0
 70
    24
 71
     3
 72
     8
 73
     4
 74
     0
 42
0.0000000001
 43
0.0000000001
 40
45.0
 40
45.0
 40
45.0
 40
45.0
 40
46.0
 40
46.0
 40
46.0
 40
46.0
 10
122.0347641207669
 20
-209.0057558348716
 30
0.0
 10
122.0347641207669
 20
-209.0057558348716
 30
0.0
 10
122.0347641207669
 20
-78.0228471997583
 30
0.0
 10
122.0347641207669
 20
-78.0228471997583
 30
0.0
  0
SPLINE
  5
315
330
A
100
AcDbEntity
  8
A-001_Pan
100
AcDbSpline
210
0.0
220
0.0
230
1.0
 70
    25
 71
     3
 72
     8
 73
     4
 74
     0
 42
0.0000000001
 43
0.0000000001
 40
46.0
 40
46.0
 40
46.0
 40
46.0
 40
47.0
 40
47.0
 40
47.0
 40
47.0
 10
122.0347641207669
 20
-78.0228471997583
 30
0.0
 10
122.0347641207669
 20
-78.0228471997583
 30
0.0
 10
122.0347641207669
 20
-78.0228471997583
 30
0.0
 10
122.0347641207669
 20
-78.0228471997583
 30
0.0
  0
SPLINE
  5
316
330
A
100
AcDbEntity
  8
A-001_Pan
100
AcDbSpline
210
0.0
220
0.0
230
1.0
 70
    24
 71
     3
 72
     8
 73
     4
 74
     0
 42
0.0000000001
 43
0.0000000001
 40
47.0
 40
47.0
 40
47.0
 40
47.0
 40
48.0
 40
48.0
 40
48.0
 40
48.0
 10
122.0347641207669
 20
-78.0228471997583
 30
0.0
 10
122.0347641207669
 20
-78.0228471997583
 30
0.0
 10
122.0347641207669
 20
52.85839940659162
 30
0.0
 10
122.0347641207669
 20
52.85839940659162
 30
0.0
  0
SPLINE
  5
317
330
A
100
AcDbEntity
  8
A-001_Pan
100
AcDbSpline
210
0.0
220
0.0
230
1.0
 70
     8
 71
     3
 72
     8
 73
     4
 74
     0
 42
0.0000000001
 43
0.0000000001
 40
48.0
 40
48.0
 40
48.0
 40
48.0
 40
49.0
 40
49.0
 40
49.0
 40
49.0
 10
122.0347641207669
 20
52.85839940659162
 30
0.0
 10
122.0347641207669
 20
59.50347760870989
 30
0.0
 10
119.4217053645083
 20
65.88836994060364
 30
0.0
 10
114.7710983199038
 20
70.60703885192243
 30
0.0
  0
SPLINE
  5
318
330
A
100
AcDbEntity
  8
A-001_Pan
100
AcDbSpline
210
0.0
220
0.0
230
1.0
 70
    25
 71
     3
 72
     8
 73
     4
 74
     0
 42
0.0000000001
 43
0.0000000001
 40
49.0
 40
49.0
 40
49.0
 40
49.0
 40
50.0
 40
50.0
 40
50.0
 40
50.0
 10
114.7710983199038
 20
70.60703885192243
 30
0.0
 10
114.7710983199038
 20
70.60703885192243
 30
0.0
 10
114.7710983199038
 20
70.60703885192243
 30
0.0
 10
114.7710983199038
 20
70.60703885192243
 30
0.0
  0
SPLINE
  5
319
330
A
100
AcDbEntity
  8
A-001_Pan
100
AcDbSpline
210
0.0
220
0.0
230
1.0
 70
    24
 71
     3
 72
     8
 73
     4
 74
     0
 42
0.0000000001
 43
0.0000000001
 40
50.0
 40
50.0
 40
50.0
 40
50.0
 40
51.0
 40
51.0
 40
51.0
 40
51.0
 10
114.7710983199038
 20
70.60703885192243
 30
0.0
 10
114.7710983199038
 20
70.60703885192243
 30
0.0
 10
114.5626050066779
 20
70.81294753729867
 30
0.0
 10
114.5626050066779
 20
70.81294753729867
 30
0.0
  0
SPLINE
  5
31A
330
A
100
AcDbEntity
  8
A-001_Pan
100
AcDbSpline
210
0.0
220
0.0
230
1.0
 70
     8
 71
     3
 72
     8
 73
     4
 74
     0
 42
0.0000000001
 43
0.0000000001
 40
51.0
 40
51.0
 40
51.0
 40
51.0
 40
52.0
 40
52.0
 40
52.0
 40
52.0
 10
114.5626050066779
 20
70.81294753729867
 30
0.0
 10
113.5658001992293
 20
71.74513664849939
 30
0.0
 10
113.0066590410321
 20
73.01332738018846
 30
0.0
 10
113.0066590410321
 20
74.34182609504194
 30
0.0
  0
SPLINE
  5
31B
330
A
100
AcDbEntity
  8
A-001_Pan
100
AcDbSpline
210
0.0
220
0.0
230
1.0
 70
    24
 71
     3
 72
     8
 73
     4
 74
     0
 42
0.0000000001
 43
0.0000000001
 40
52.0
 40
52.0
 40
52.0
 40
52.0
 40
53.0
 40
53.0
 40
53.0
 40
53.0
 10
113.0066590410321
 20
74.34182609504194
 30
0.0
 10
113.0066590410321
 20
74.34182609504194
 30
0.0
 10
113.0066590410321
 20
75.06896806348322
 30
0.0
 10
113.0066590410321
 20
75.06896806348322
 30
0.0
  0
SPLINE
  5
31C
330
A
100
AcDbEntity
  8
A-001_Pan
100
AcDbSpline
210
0.0
220
0.0
230
1.0
 70
    25
 71
     3
 72
     8
 73
     4
 74
     0
 42
0.0000000001
 43
0.0000000001
 40
53.0
 40
53.0
 40
53.0
 40
53.0
 40
54.0
 40
54.0
 40
54.0
 40
54.0
 10
113.0066590410321
 20
75.06896806348322
 30
0.0
 10
113.0066590410321
 20
75.06896806348322
 30
0.0
 10
113.0066590410321
 20
75.06896806348322
 30
0.0
 10
113.0066590410321
 20
75.06896806348322
 30
0.0
  0
SPLINE
  5
31D
330
A
100
AcDbEntity
  8
A-001_Pan
100
AcDbSpline
210
0.0
220
0.0
230
1.0
 70
     8
 71
     3
 72
     8
 73
     4
 74
     0
 42
0.0000000001
 43
0.0000000001
 40
54.0
 40
54.0
 40
54.0
 40
54.0
 40
55.0
 40
55.0
 40
55.0
 40
55.0
 10
113.0066590410321
 20
75.06896806348322
 30
0.0
 10
113.0066590410321
 20
76.67488350089389
 30
0.0
 10
114.3067268495367
 20
77.97495130939854
 30
0.0
 10
115.9126422869473
 20
77.97495130939854
 30
0.0
  0
SPLINE
  5
31E
330
A
100
AcDbEntity
  8
A-001_Pan
100
AcDbSpline
210
0.0
220
0.0
230
1.0
 70
    24
 71
     3
 72
     8
 73
     4
 74
     0
 42
0.0000000001
 43
0.0000000001
 40
55.0
 40
55.0
 40
55.0
 40
55.0
 40
56.0
 40
56.0
 40
56.0
 40
56.0
 10
115.9126422869473
 20
77.97495130939854
 30
0.0
 10
115.9126422869473
 20
77.97495130939854
 30
0.0
 10
117.572834909206
 20
77.97495130939854
 30
0.0
 10
117.572834909206
 20
77.97495130939854
 30
0.0
  0
SPLINE
  5
31F
330
A
100
AcDbEntity
  8
A-001_Pan
100
AcDbSpline
210
0.0
220
0.0
230
1.0
 70
    25
 71
     3
 72
     8
 73
     4
 74
     0
 42
0.0000000001
 43
0.0000000001
 40
56.0
 40
56.0
 40
56.0
 40
56.0
 40
57.0
 40
57.0
 40
57.0
 40
57.0
 10
117.572834909206
 20
77.97495130939854
 30
0.0
 10
117.572834909206
 20
77.97495130939854
 30
0.0
 10
117.572834909206
 20
77.97495130939854
 30
0.0
 10
117.572834909206
 20
77.97495130939854
 30
0.0
  0
SPLINE
  5
320
330
A
100
AcDbEntity
  8
A-001_Pan
100
AcDbSpline
210
0.0
220
0.0
230
1.0
 70
    24
 71
     3
 72
     8
 73
     4
 74
     0
 42
0.0000000001
 43
0.0000000001
 40
57.0
 40
57.0
 40
57.0
 40
57.0
 40
58.0
 40
58.0
 40
58.0
 40
58.0
 10
117.572834909206
 20
77.97495130939854
 30
0.0
 10
117.572834909206
 20
77.97495130939854
 30
0.0
 10
121.1017134669497
 20
77.97495130939854
 30
0.0
 10
121.1017134669497
 20
77.97495130939854
 30
0.0
  0
SPLINE
  5
321
330
A
100
AcDbEntity
  8
A-001_Pan
100
AcDbSpline
210
0.0
220
0.0
230
1.0
 70
     8
 71
     3
 72
     8
 73
     4
 74
     0
 42
0.0000000001
 43
0.0000000001
 40
58.0
 40
58.0
 40
58.0
 40
58.0
 40
59.0
 40
59.0
 40
59.0
 40
59.0
 10
121.1017134669497
 20
77.97495130939854
 30
0.0
 10
121.6169159516985
 20
77.97495130939854
 30
0.0
 10
122.0347641207669
 20
78.39366102108408
 30
0.0
 10
122.0347641207669
 20
78.9105865910659
 30
0.0
  0
SPLINE
  5
322
330
A
100
AcDbEntity
  8
A-001_Pan
100
AcDbSpline
210
0.0
220
0.0
230
1.0
 70
    24
 71
     3
 72
     8
 73
     4
 74
     0
 42
0.0000000001
 43
0.0000000001
 40
59.0
 40
59.0
 40
59.0
 40
59.0
 40
60.0
 40
60.0
 40
60.0
 40
60.0
 10
122.0347641207669
 20
78.9105865910659
 30
0.0
 10
122.0347641207669
 20
78.9105865910659
 30
0.0
 10
122.0347641207669
 20
87.21154970235966
 30
0.0
 10
122.0347641207669
 20
87.21154970235966
 30
0.0
  0
SPLINE
  5
323
330
A
100
AcDbEntity
  8
A-001_Pan
100
AcDbSpline
210
0.0
220
0.0
230
1.0
 70
    25
 71
     3
 72
     8
 73
     4
 74
     0
 42
0.0000000001
 43
0.0000000001
 40
60.0
 40
60.0
 40
60.0
 40
60.0
 40
61.0
 40
61.0
 40
61.0
 40
61.0
 10
122.0347641207669
 20
87.21154970235966
 30
0.0
 10
122.0347641207669
 20
87.21154970235966
 30
0.0
 10
122.0347641207669
 20
87.21154970235966
 30
0.0
 10
122.0347641207669
 20
87.21154970235966
 30
0.0
  0
SPLINE
  5
324
330
A
100
AcDbEntity
  8
A-001_Pan
100
AcDbSpline
210
0.0
220
0.0
230
1.0
 70
    24
 71
     3
 72
     8
 73
     4
 74
     0
 42
0.0000000001
 43
0.0000000001
 40
61.0
 40
61.0
 40
61.0
 40
61.0
 40
62.0
 40
62.0
 40
62.0
 40
62.0
 10
122.0347641207669
 20
87.21154970235966
 30
0.0
 10
122.0347641207669
 20
87.21154970235966
 30
0.0
 10
122.0347641207669
 20
93.33625616402924
 30
0.0
 10
122.0347641207669
 20
93.33625616402924
 30
0.0
  0
SPLINE
  5
325
330
A
100
AcDbEntity
  8
A-001_Pan
100
AcDbSpline
210
0.0
220
0.0
230
1.0
 70
     8
 71
     3
 72
     8
 73
     4
 74
     0
 42
0.0000000001
 43
0.0000000001
 40
62.0
 40
62.0
 40
62.0
 40
62.0
 40
63.0
 40
63.0
 40
63.0
 40
63.0
 10
122.0347641207669
 20
93.33625616402924
 30
0.0
 10
122.0347641207669
 20
95.17306502269832
 30
0.0
 10
120.8018966363602
 20
96.79104205674196
 30
0.0
 10
119.0271188460886
 20
97.27953672037495
 30
0.0
  0
SPLINE
  5
326
330
A
100
AcDbEntity
  8
A-001_Pan
100
AcDbSpline
210
0.0
220
0.0
230
1.0
 70
    24
 71
     3
 72
     8
 73
     4
 74
     0
 42
0.0000000001
 43
0.0000000001
 40
63.0
 40
63.0
 40
63.0
 40
63.0
 40
64.0
 40
64.0
 40
64.0
 40
64.0
 10
119.0271188460886
 20
97.27953672037495
 30
0.0
 10
119.0271188460886
 20
97.27953672037495
 30
0.0
 10
118.0914835644212
 20
97.48803003360116
 30
0.0
 10
118.0914835644212
 20
97.48803003360116
 30
0.0
  0
SPLINE
  5
327
330
A
100
AcDbEntity
  8
A-001_Pan
100
AcDbSpline
210
0.0
220
0.0
230
1.0
 70
    25
 71
     3
 72
     8
 73
     4
 74
     0
 42
0.0000000001
 43
0.0000000001
 40
64.0
 40
64.0
 40
64.0
 40
64.0
 40
65.0
 40
65.0
 40
65.0
 40
65.0
 10
118.0914835644212
 20
97.48803003360116
 30
0.0
 10
118.0914835644212
 20
97.48803003360116
 30
0.0
 10
118.0914835644212
 20
97.48803003360116
 30
0.0
 10
118.0914835644212
 20
97.48803003360116
 30
0.0
  0
SPLINE
  5
328
330
A
100
AcDbEntity
  8
A-001_Pan
100
AcDbSpline
210
0.0
220
0.0
230
1.0
 70
    24
 71
     3
 72
     8
 73
     4
 74
     0
 42
0.0000000001
 43
0.0000000001
 40
65.0
 40
65.0
 40
65.0
 40
65.0
 40
66.0
 40
66.0
 40
66.0
 40
66.0
 10
118.0914835644212
 20
97.48803003360116
 30
0.0
 10
118.0914835644212
 20
97.48803003360116
 30
0.0
 10
117.7813282224321
 20
97.59227669021413
 30
0.0
 10
117.7813282224321
 20
97.59227669021413
 30
0.0
  0
SPLINE
  5
329
330
A
100
AcDbEntity
  8
A-001_Pan
100
AcDbSpline
210
0.0
220
0.0
230
1.0
 70
     8
 71
     3
 72
     8
 73
     4
 74
     0
 42
0.0000000001
 43
0.0000000001
 40
66.0
 40
66.0
 40
66.0
 40
66.0
 40
67.0
 40
67.0
 40
67.0
 40
67.0
 10
117.7813282224321
 20
97.59227669021413
 30
0.0
 10
115.5775022090757
 20
98.14280242224505
 30
0.0
 10
114.0439563514625
 20
100.1010887898599
 30
0.0
 10
114.0439563514625
 20
102.3669458716141
 30
0.0
  0
SPLINE
  5
32A
330
A
100
AcDbEntity
  8
A-001_Pan
100
AcDbSpline
210
0.0
220
0.0
230
1.0
 70
    24
 71
     3
 72
     8
 73
     4
 74
     0
 42
0.0000000001
 43
0.0000000001
 40
67.0
 40
67.0
 40
67.0
 40
67.0
 40
68.0
 40
68.0
 40
68.0
 40
68.0
 10
114.0439563514625
 20
102.3669458716141
 30
0.0
 10
114.0439563514625
 20
102.3669458716141
 30
0.0
 10
114.0439563514625
 20
104.0271384938728
 30
0.0
 10
114.0439563514625
 20
104.0271384938728
 30
0.0
  0
SPLINE
  5
32B
330
A
100
AcDbEntity
  8
A-001_Pan
100
AcDbSpline
210
0.0
220
0.0
230
1.0
 70
    25
 71
     3
 72
     8
 73
     4
 74
     0
 42
0.0000000001
 43
0.0000000001
 40
68.0
 40
68.0
 40
68.0
 40
68.0
 40
69.0
 40
69.0
 40
69.0
 40
69.0
 10
114.0439563514625
 20
104.0271384938728
 30
0.0
 10
114.0439563514625
 20
104.0271384938728
 30
0.0
 10
114.0439563514625
 20
104.0271384938728
 30
0.0
 10
114.0439563514625
 20
104.0271384938728
 30
0.0
  0
SPLINE
  5
32C
330
A
100
AcDbEntity
  8
A-001_Pan
100
AcDbSpline
210
0.0
220
0.0
230
1.0
 70
     8
 71
     3
 72
     8
 73
     4
 74
     0
 42
0.0000000001
 43
0.0000000001
 40
69.0
 40
69.0
 40
69.0
 40
69.0
 40
70.0
 40
70.0
 40
70.0
 40
70.0
 10
114.0439563514625
 20
104.0271384938728
 30
0.0
 10
114.0439563514625
 20
107.007214404819
 30
0.0
 10
116.5071066924266
 20
109.4247029871013
 30
0.0
 10
119.545767501304
 20
109.4247029871013
 30
0.0
  0
SPLINE
  5
32D
330
A
100
AcDbEntity
  8
A-001_Pan
100
AcDbSpline
210
0.0
220
0.0
230
1.0
 70
    24
 71
     3
 72
     8
 73
     4
 74
     0
 42
0.0000000001
 43
0.0000000001
 40
70.0
 40
70.0
 40
70.0
 40
70.0
 40
71.0
 40
71.0
 40
71.0
 40
71.0
 10
119.545767501304
 20
109.4247029871013
 30
0.0
 10
119.545767501304
 20
109.4247029871013
 30
0.0
 10
253.0202573837302
 20
109.4247029871013
 30
0.0
 10
253.0202573837302
 20
109.4247029871013
 30
0.0
  0
SPLINE
  5
32E
330
A
100
AcDbEntity
  8
A-001_Pan
100
AcDbSpline
210
0.0
220
0.0
230
1.0
 70
    25
 71
     3
 72
     8
 73
     4
 74
     0
 42
0.0000000001
 43
0.0000000001
 40
71.0
 40
71.0
 40
71.0
 40
71.0
 40
72.0
 40
72.0
 40
72.0
 40
72.0
 10
253.0202573837302
 20
109.4247029871013
 30
0.0
 10
253.0202573837302
 20
109.4247029871013
 30
0.0
 10
253.0202573837302
 20
109.4247029871013
 30
0.0
 10
253.0202573837302
 20
109.4247029871013
 30
0.0
  0
SPLINE
  5
32F
330
A
100
AcDbEntity
  8
A-001_Pan
100
AcDbSpline
210
0.0
220
0.0
230
1.0
 70
    24
 71
     3
 72
     8
 73
     4
 74
     0
 42
0.0000000001
 43
0.0000000001
 40
72.0
 40
72.0
 40
72.0
 40
72.0
 40
73.0
 40
73.0
 40
73.0
 40
73.0
 10
253.0202573837302
 20
109.4247029871013
 30
0.0
 10
253.0202573837302
 20
109.4247029871013
 30
0.0
 10
386.5989939227692
 20
109.4247029871013
 30
0.0
 10
386.5989939227692
 20
109.4247029871013
 30
0.0
  0
SPLINE
  5
330
330
A
100
AcDbEntity
  8
A-001_Pan
100
AcDbSpline
210
0.0
220
0.0
230
1.0
 70
     8
 71
     3
 72
     8
 73
     4
 74
     0
 42
0.0000000001
 43
0.0000000001
 40
73.0
 40
73.0
 40
73.0
 40
73.0
 40
74.0
 40
74.0
 40
74.0
 40
74.0
 10
386.5989939227692
 20
109.4247029871013
 30
0.0
 10
389.5790698337155
 20
109.4247029871013
 30
0.0
 10
391.9939737881478
 20
107.007214404819
 30
0.0
 10
391.9939737881478
 20
104.0271384938728
 30
0.0
  0
SPLINE
  5
331
330
A
100
AcDbEntity
  8
A-001_Pan
100
AcDbSpline
210
0.0
220
0.0
230
1.0
 70
    25
 71
     3
 72
     8
 73
     4
 74
     0
 42
0.0000000001
 43
0.0000000001
 40
74.0
 40
74.0
 40
74.0
 40
74.0
 40
75.0
 40
75.0
 40
75.0
 40
75.0
 10
391.9939737881478
 20
104.0271384938728
 30
0.0
 10
391.9939737881478
 20
104.0271384938728
 30
0.0
 10
391.9939737881478
 20
104.0271384938728
 30
0.0
 10
391.9939737881478
 20
104.0271384938728
 30
0.0
  0
SPLINE
  5
332
330
A
100
AcDbEntity
  8
A-001_Pan
100
AcDbSpline
210
0.0
220
0.0
230
1.0
 70
    24
 71
     3
 72
     8
 73
     4
 74
     0
 42
0.0000000001
 43
0.0000000001
 40
75.0
 40
75.0
 40
75.0
 40
75.0
 40
76.0
 40
76.0
 40
76.0
 40
76.0
 10
391.9939737881478
 20
104.0271384938728
 30
0.0
 10
391.9939737881478
 20
104.0271384938728
 30
0.0
 10
391.9939737881478
 20
102.3669458716141
 30
0.0
 10
391.9939737881478
 20
102.3669458716141
 30
0.0
  0
SPLINE
  5
333
330
A
100
AcDbEntity
  8
A-001_Pan
100
AcDbSpline
210
0.0
220
0.0
230
1.0
 70
     8
 71
     3
 72
     8
 73
     4
 74
     0
 42
0.0000000001
 43
0.0000000001
 40
76.0
 40
76.0
 40
76.0
 40
76.0
 40
77.0
 40
77.0
 40
77.0
 40
77.0
 10
391.9939737881478
 20
102.3669458716141
 30
0.0
 10
391.9939737881478
 20
100.1010887898599
 30
0.0
 10
390.4630125583843
 20
98.14280242224505
 30
0.0
 10
388.259186545028
 20
97.59227669021413
 30
0.0
  0
SPLINE
  5
334
330
A
100
AcDbEntity
  8
A-001_Pan
100
AcDbSpline
210
0.0
220
0.0
230
1.0
 70
    24
 71
     3
 72
     8
 73
     4
 74
     0
 42
0.0000000001
 43
0.0000000001
 40
77.0
 40
77.0
 40
77.0
 40
77.0
 40
78.0
 40
78.0
 40
78.0
 40
78.0
 10
388.259186545028
 20
97.59227669021413
 30
0.0
 10
388.259186545028
 20
97.59227669021413
 30
0.0
 10
388.0506932318018
 20
97.48803003360116
 30
0.0
 10
388.0506932318018
 20
97.48803003360116
 30
0.0
  0
SPLINE
  5
335
330
A
100
AcDbEntity
  8
A-001_Pan
100
AcDbSpline
210
0.0
220
0.0
230
1.0
 70
    25
 71
     3
 72
     8
 73
     4
 74
     0
 42
0.0000000001
 43
0.0000000001
 40
78.0
 40
78.0
 40
78.0
 40
78.0
 40
79.0
 40
79.0
 40
79.0
 40
79.0
 10
388.0506932318018
 20
97.48803003360116
 30
0.0
 10
388.0506932318018
 20
97.48803003360116
 30
0.0
 10
388.0506932318018
 20
97.48803003360116
 30
0.0
 10
388.0506932318018
 20
97.48803003360116
 30
0.0
  0
SPLINE
  5
336
330
A
100
AcDbEntity
  8
A-001_Pan
100
AcDbSpline
210
0.0
220
0.0
230
1.0
 70
    24
 71
     3
 72
     8
 73
     4
 74
     0
 42
0.0000000001
 43
0.0000000001
 40
79.0
 40
79.0
 40
79.0
 40
79.0
 40
80.0
 40
80.0
 40
80.0
 40
80.0
 10
388.0506932318018
 20
97.48803003360116
 30
0.0
 10
388.0506932318018
 20
97.48803003360116
 30
0.0
 10
387.0133959213717
 20
97.27953672037495
 30
0.0
 10
387.0133959213717
 20
97.27953672037495
 30
0.0
  0
SPLINE
  5
337
330
A
100
AcDbEntity
  8
A-001_Pan
100
AcDbSpline
210
0.0
220
0.0
230
1.0
 70
     8
 71
     3
 72
     8
 73
     4
 74
     0
 42
0.0000000001
 43
0.0000000001
 40
80.0
 40
80.0
 40
80.0
 40
80.0
 40
81.0
 40
81.0
 40
81.0
 40
81.0
 10
387.0133959213717
 20
97.27953672037495
 30
0.0
 10
385.2386181311001
 20
96.79104205674196
 30
0.0
 10
384.0031660188431
 20
95.17306502269832
 30
0.0
 10
384.0031660188431
 20
93.33625616402924
 30
0.0
  0
SPLINE
  5
338
330
A
100
AcDbEntity
  8
A-001_Pan
100
AcDbSpline
210
0.0
220
0.0
230
1.0
 70
    24
 71
     3
 72
     8
 73
     4
 74
     0
 42
0.0000000001
 43
0.0000000001
 40
81.0
 40
81.0
 40
81.0
 40
81.0
 40
82.0
 40
82.0
 40
82.0
 40
82.0
 10
384.0031660188431
 20
93.33625616402924
 30
0.0
 10
384.0031660188431
 20
93.33625616402924
 30
0.0
 10
384.0031660188431
 20
87.21154970235966
 30
0.0
 10
384.0031660188431
 20
87.21154970235966
 30
0.0
  0
SPLINE
  5
339
330
A
100
AcDbEntity
  8
A-001_Pan
100
AcDbSpline
210
0.0
220
0.0
230
1.0
 70
    25
 71
     3
 72
     8
 73
     4
 74
     0
 42
0.0000000001
 43
0.0000000001
 40
82.0
 40
82.0
 40
82.0
 40
82.0
 40
83.0
 40
83.0
 40
83.0
 40
83.0
 10
384.0031660188431
 20
87.21154970235966
 30
0.0
 10
384.0031660188431
 20
87.21154970235966
 30
0.0
 10
384.0031660188431
 20
87.21154970235966
 30
0.0
 10
384.0031660188431
 20
87.21154970235966
 30
0.0
  0
SPLINE
  5
33A
330
A
100
AcDbEntity
  8
A-001_Pan
100
AcDbSpline
210
0.0
220
0.0
230
1.0
 70
    24
 71
     3
 72
     8
 73
     4
 74
     0
 42
0.0000000001
 43
0.0000000001
 40
83.0
 40
83.0
 40
83.0
 40
83.0
 40
84.0
 40
84.0
 40
84.0
 40
84.0
 10
384.0031660188431
 20
87.21154970235966
 30
0.0
 10
384.0031660188431
 20
87.21154970235966
 30
0.0
 10
384.0031660188431
 20
78.9105865910659
 30
0.0
 10
384.0031660188431
 20
78.9105865910659
 30
0.0
  0
SPLINE
  5
33B
330
A
100
AcDbEntity
  8
A-001_Pan
100
AcDbSpline
210
0.0
220
0.0
230
1.0
 70
     8
 71
     3
 72
     8
 73
     4
 74
     0
 42
0.0000000001
 43
0.0000000001
 40
84.0
 40
84.0
 40
84.0
 40
84.0
 40
85.0
 40
85.0
 40
85.0
 40
85.0
 10
384.0031660188431
 20
78.9105865910659
 30
0.0
 10
384.0031660188431
 20
78.39366102108408
 30
0.0
 10
384.4675374892103
 20
77.97495130939854
 30
0.0
 10
385.0404633292735
 20
77.97495130939854
 30
0.0
  0
SPLINE
  5
33C
330
A
100
AcDbEntity
  8
A-001_Pan
100
AcDbSpline
210
0.0
220
0.0
230
1.0
 70
    24
 71
     3
 72
     8
 73
     4
 74
     0
 42
0.0000000001
 43
0.0000000001
 40
85.0
 40
85.0
 40
85.0
 40
85.0
 40
86.0
 40
86.0
 40
86.0
 40
86.0
 10
385.0404633292735
 20
77.97495130939854
 30
0.0
 10
385.0404633292735
 20
77.97495130939854
 30
0.0
 10
388.569341887017
 20
77.97495130939854
 30
0.0
 10
388.569341887017
 20
77.97495130939854
 30
0.0
  0
SPLINE
  5
33D
330
A
100
AcDbEntity
  8
A-001_Pan
100
AcDbSpline
210
0.0
220
0.0
230
1.0
 70
    25
 71
     3
 72
     8
 73
     4
 74
     0
 42
0.0000000001
 43
0.0000000001
 40
86.0
 40
86.0
 40
86.0
 40
86.0
 40
87.0
 40
87.0
 40
87.0
 40
87.0
 10
388.569341887017
 20
77.97495130939854
 30
0.0
 10
388.569341887017
 20
77.97495130939854
 30
0.0
 10
388.569341887017
 20
77.97495130939854
 30
0.0
 10
388.569341887017
 20
77.97495130939854
 30
0.0
  0
SPLINE
  5
33E
330
A
100
AcDbEntity
  8
A-001_Pan
100
AcDbSpline
210
0.0
220
0.0
230
1.0
 70
    24
 71
     3
 72
     8
 73
     4
 74
     0
 42
0.0000000001
 43
0.0000000001
 40
87.0
 40
87.0
 40
87.0
 40
87.0
 40
88.0
 40
88.0
 40
88.0
 40
88.0
 10
388.569341887017
 20
77.97495130939854
 30
0.0
 10
388.569341887017
 20
77.97495130939854
 30
0.0
 10
390.2295345092761
 20
77.97495130939854
 30
0.0
 10
390.2295345092761
 20
77.97495130939854
 30
0.0
  0
SPLINE
  5
33F
330
A
100
AcDbEntity
  8
A-001_Pan
100
AcDbSpline
210
0.0
220
0.0
230
1.0
 70
     8
 71
     3
 72
     8
 73
     4
 74
     0
 42
0.0000000001
 43
0.0000000001
 40
88.0
 40
88.0
 40
88.0
 40
88.0
 40
89.0
 40
89.0
 40
89.0
 40
89.0
 10
390.2295345092761
 20
77.97495130939854
 30
0.0
 10
391.7794496766052
 20
77.97495130939854
 30
0.0
 10
393.0338557264281
 20
76.67488350089389
 30
0.0
 10
393.0338557264281
 20
75.06896806348322
 30
0.0
  0
SPLINE
  5
340
330
A
100
AcDbEntity
  8
A-001_Pan
100
AcDbSpline
210
0.0
220
0.0
230
1.0
 70
    25
 71
     3
 72
     8
 73
     4
 74
     0
 42
0.0000000001
 43
0.0000000001
 40
89.0
 40
89.0
 40
89.0
 40
89.0
 40
90.0
 40
90.0
 40
90.0
 40
90.0
 10
393.0338557264281
 20
75.06896806348322
 30
0.0
 10
393.0338557264281
 20
75.06896806348322
 30
0.0
 10
393.0338557264281
 20
75.06896806348322
 30
0.0
 10
393.0338557264281
 20
75.06896806348322
 30
0.0
  0
SPLINE
  5
341
330
A
100
AcDbEntity
  8
A-001_Pan
100
AcDbSpline
210
0.0
220
0.0
230
1.0
 70
    24
 71
     3
 72
     8
 73
     4
 74
     0
 42
0.0000000001
 43
0.0000000001
 40
90.0
 40
90.0
 40
90.0
 40
90.0
 40
91.0
 40
91.0
 40
91.0
 40
91.0
 10
393.0338557264281
 20
75.06896806348322
 30
0.0
 10
393.0338557264281
 20
75.06896806348322
 30
0.0
 10
393.0338557264281
 20
74.34182609504194
 30
0.0
 10
393.0338557264281
 20
74.34182609504194
 30
0.0
  0
SPLINE
  5
342
330
A
100
AcDbEntity
  8
A-001_Pan
100
AcDbSpline
210
0.0
220
0.0
230
1.0
 70
     8
 71
     3
 72
     8
 73
     4
 74
     0
 42
0.0000000001
 43
0.0000000001
 40
91.0
 40
91.0
 40
91.0
 40
91.0
 40
92.0
 40
92.0
 40
92.0
 40
92.0
 10
393.0338557264281
 20
74.34182609504194
 30
0.0
 10
393.0338557264281
 20
73.01332738018846
 30
0.0
 10
392.5091762728965
 20
71.74513664849939
 30
0.0
 10
391.5795717895454
 20
70.81294753729867
 30
0.0
  0
SPLINE
  5
343
330
A
100
AcDbEntity
  8
A-001_Pan
100
AcDbSpline
210
0.0
220
0.0
230
1.0
 70
    24
 71
     3
 72
     8
 73
     4
 74
     0
 42
0.0000000001
 43
0.0000000001
 40
92.0
 40
92.0
 40
92.0
 40
92.0
 40
93.0
 40
93.0
 40
93.0
 40
93.0
 10
391.5795717895454
 20
70.81294753729867
 30
0.0
 10
391.5795717895454
 20
70.81294753729867
 30
0.0
 10
391.3736631041696
 20
70.60703885192243
 30
0.0
 10
391.3736631041696
 20
70.60703885192243
 30
0.0
  0
SPLINE
  5
344
330
A
100
AcDbEntity
  8
A-001_Pan
100
AcDbSpline
210
0.0
220
0.0
230
1.0
 70
    25
 71
     3
 72
     8
 73
     4
 74
     0
 42
0.0000000001
 43
0.0000000001
 40
93.0
 40
93.0
 40
93.0
 40
93.0
 40
94.0
 40
94.0
 40
94.0
 40
94.0
 10
391.3736631041696
 20
70.60703885192243
 30
0.0
 10
391.3736631041696
 20
70.60703885192243
 30
0.0
 10
391.3736631041696
 20
70.60703885192243
 30
0.0
 10
391.3736631041696
 20
70.60703885192243
 30
0.0
  0
SPLINE
  5
345
330
A
100
AcDbEntity
  8
A-001_Pan
100
AcDbSpline
210
0.0
220
0.0
230
1.0
 70
     8
 71
     3
 72
     8
 73
     4
 74
     0
 42
0.0000000001
 43
0.0000000001
 40
94.0
 40
94.0
 40
94.0
 40
94.0
 40
95.0
 40
95.0
 40
95.0
 40
95.0
 10
391.3736631041696
 20
70.60703885192243
 30
0.0
 10
386.6532711076175
 20
65.88836994060364
 30
0.0
 10
384.0031660188431
 20
59.50347760870989
 30
0.0
 10
384.0031660188431
 20
52.85839940659162
 30
0.0
  0
SPLINE
  5
346
330
A
100
AcDbEntity
  8
A-001_Pan
100
AcDbSpline
210
0.0
220
0.0
230
1.0
 70
    24
 71
     3
 72
     8
 73
     4
 74
     0
 42
0.0000000001
 43
0.0000000001
 40
95.0
 40
95.0
 40
95.0
 40
95.0
 40
96.0
 40
96.0
 40
96.0
 40
96.0
 10
384.0031660188431
 20
52.85839940659162
 30
0.0
 10
384.0031660188431
 20
52.85839940659162
 30
0.0
 10
384.0031660188431
 20
-78.0228471997583
 30
0.0
 10
384.0031660188431
 20
-78.0228471997583
 30
0.0
  0
SPLINE
  5
347
330
A
100
AcDbEntity
  8
A-001_Pan
100
AcDbSpline
210
0.0
220
0.0
230
1.0
 70
    25
 71
     3
 72
     8
 73
     4
 74
     0
 42
0.0000000001
 43
0.0000000001
 40
96.0
 40
96.0
 40
96.0
 40
96.0
 40
97.0
 40
97.0
 40
97.0
 40
97.0
 10
384.0031660188431
 20
-78.0228471997583
 30
0.0
 10
384.0031660188431
 20
-78.0228471997583
 30
0.0
 10
384.0031660188431
 20
-78.0228471997583
 30
0.0
 10
384.0031660188431
 20
-78.0228471997583
 30
0.0
  0
SPLINE
  5
348
330
A
100
AcDbEntity
  8
A-001_Pan
100
AcDbSpline
210
0.0
220
0.0
230
1.0
 70
    24
 71
     3
 72
     8
 73
     4
 74
     0
 42
0.0000000001
 43
0.0000000001
 40
97.0
 40
97.0
 40
97.0
 40
97.0
 40
98.0
 40
98.0
 40
98.0
 40
98.0
 10
384.0031660188431
 20
-78.0228471997583
 30
0.0
 10
384.0031660188431
 20
-78.0228471997583
 30
0.0
 10
384.0031660188431
 20
-209.0057558348716
 30
0.0
 10
384.0031660188431
 20
-209.0057558348716
 30
0.0
  0
SPLINE
  5
349
330
A
100
AcDbEntity
  8
A-001_Pan
100
AcDbSpline
210
0.0
220
0.0
230
1.0
 70
     8
 71
     3
 72
     8
 73
     4
 74
     0
 42
0.0000000001
 43
0.0000000001
 40
98.0
 40
98.0
 40
98.0
 40
98.0
 40
99.0
 40
99.0
 40
99.0
 40
99.0
 10
384.0031660188431
 20
-209.0057558348716
 30
0.0
 10
384.0031660188431
 20
-215.6508340369895
 30
0.0
 10
386.6532711076175
 20
-221.9969569511347
 30
0.0
 10
391.3736631041696
 20
-226.6501486235892
 30
0.0
  0
DIMENSION
  5
360
330
A
100
AcDbEntity
  8
A-031_DimExt
370
     0
100
AcDbDimension
  2
*D19
 10
138.0189659999988
 20
154.4687354086561
 30
0.0
 11
253.0189659261915
 21
169.6368026355469
 31
0.0
 70
    32
 71
     5
 42
229.9999998523854
  3
DIMEXT
100
AcDbAlignedDimension
 13
368.0189658523842
 23
200.4484035199922
 33
0.0
 14
138.0189659999988
 24
200.4484035199922
 34
0.0
100
AcDbRotatedDimension
  0
DIMENSION
  5
36B
330
A
100
AcDbEntity
  8
A-031_DimExt
370
     0
100
AcDbDimension
  2
*D20
 10
21.04731847455804
 20
109.4247029871013
 30
0.0
 11
5.879251247667254
 21
-78.07367821413986
 31
0.0
 70
    32
 71
     5
 42
374.9967624024824
  3
DIMEXT
100
AcDbAlignedDimension
 13
119.545767501304
 23
-265.5720594153811
 33
0.0
 14
119.545767501304
 24
109.4247029871013
 34
0.0
 50
90.0
100
AcDbRotatedDimension
  0
DIMENSION
  5
376
330
A
100
AcDbEntity
  8
A-031_DimExt
370
     0
100
AcDbDimension
  2
*D21
 10
71.07451869838425
 20
78.91058619380856
 30
0.0
 11
55.90645147149348
 21
-78.07368015919087
 31
0.0
 70
    32
 71
     5
 42
313.9685327059989
  3
DIMEXT
100
AcDbAlignedDimension
 13
77.25005506297769
 23
-235.0579465121903
 33
0.0
 14
77.25005506297769
 24
78.91058619380856
 34
0.0
 50
90.0
100
AcDbRotatedDimension
  0
SPLINE
  5
390
330
A
100
AcDbEntity
  8
A-001_Pan
100
AcDbSpline
210
0.0
220
0.0
230
1.0
 70
     8
 71
     3
 72
     8
 73
     4
 74
     0
 42
0.0000000001
 43
0.0000000001
 40
0.0
 40
0.0
 40
0.0
 40
0.0
 40
1.0
 40
1.0
 40
1.0
 40
1.0
 10
262.9839977451325
 20
-214.1948270148737
 30
0.0
 10
262.8091045939555
 20
-219.5803299114692
 30
0.0
 10
258.4031756524756
 20
-223.8484120342869
 30
0.0
 10
253.0202573837302
 20
-223.8484120342869
 30
0.0
  0
SPLINE
  5
391
330
A
100
AcDbEntity
  8
A-001_Pan
100
AcDbSpline
210
0.0
220
0.0
230
1.0
 70
    25
 71
     3
 72
     8
 73
     4
 74
     0
 42
0.0000000001
 43
0.0000000001
 40
1.0
 40
1.0
 40
1.0
 40
1.0
 40
2.0
 40
2.0
 40
2.0
 40
2.0
 10
253.0202573837302
 20
-223.8484120342869
 30
0.0
 10
253.0202573837302
 20
-223.8484120342869
 30
0.0
 10
253.0202573837302
 20
-223.8484120342869
 30
0.0
 10
253.0202573837302
 20
-223.8484120342869
 30
0.0
  0
SPLINE
  5
392
330
A
100
AcDbEntity
  8
A-001_Pan
100
AcDbSpline
210
0.0
220
0.0
230
1.0
 70
     8
 71
     3
 72
     8
 73
     4
 74
     0
 42
0.0000000001
 43
0.0000000001
 40
2.0
 40
2.0
 40
2.0
 40
2.0
 40
3.0
 40
3.0
 40
3.0
 40
3.0
 10
253.0202573837302
 20
-223.8484120342869
 30
0.0
 10
247.6933393850659
 20
-223.8484120342869
 30
0.0
 10
243.2874104435865
 20
-219.5803299114692
 30
0.0
 10
243.056517022328
 20
-214.1948270148737
 30
0.0
  0
SPLINE
  5
393
330
A
100
AcDbEntity
  8
A-001_Pan
100
AcDbSpline
210
0.0
220
0.0
230
1.0
 70
    25
 71
     3
 72
     8
 73
     4
 74
     0
 42
0.0000000001
 43
0.0000000001
 40
3.0
 40
3.0
 40
3.0
 40
3.0
 40
4.0
 40
4.0
 40
4.0
 40
4.0
 10
243.056517022328
 20
-214.1948270148737
 30
0.0
 10
243.056517022328
 20
-214.1948270148737
 30
0.0
 10
243.056517022328
 20
-214.1948270148737
 30
0.0
 10
243.056517022328
 20
-214.1948270148737
 30
0.0
  0
SPLINE
  5
394
330
A
100
AcDbEntity
  8
A-001_Pan
100
AcDbSpline
210
0.0
220
0.0
230
1.0
 70
    24
 71
     3
 72
     8
 73
     4
 74
     0
 42
0.0000000001
 43
0.0000000001
 40
4.0
 40
4.0
 40
4.0
 40
4.0
 40
5.0
 40
5.0
 40
5.0
 40
5.0
 10
243.056517022328
 20
-214.1948270148737
 30
0.0
 10
243.056517022328
 20
-214.1948270148737
 30
0.0
 10
243.056517022328
 20
58.15171724320681
 30
0.0
 10
243.056517022328
 20
58.15171724320681
 30
0.0
  0
SPLINE
  5
395
330
A
100
AcDbEntity
  8
A-001_Pan
100
AcDbSpline
210
0.0
220
0.0
230
1.0
 70
     8
 71
     3
 72
     8
 73
     4
 74
     0
 42
0.0000000001
 43
0.0000000001
 40
5.0
 40
5.0
 40
5.0
 40
5.0
 40
6.0
 40
6.0
 40
6.0
 40
6.0
 10
243.056517022328
 20
58.15171724320681
 30
0.0
 10
243.056517022328
 20
63.65525147828157
 30
0.0
 10
247.5167231486553
 20
68.11545760460922
 30
0.0
 10
253.0202573837302
 20
68.11545760460922
 30
0.0
  0
SPLINE
  5
396
330
A
100
AcDbEntity
  8
A-001_Pan
100
AcDbSpline
210
0.0
220
0.0
230
1.0
 70
    25
 71
     3
 72
     8
 73
     4
 74
     0
 42
0.0000000001
 43
0.0000000001
 40
6.0
 40
6.0
 40
6.0
 40
6.0
 40
7.0
 40
7.0
 40
7.0
 40
7.0
 10
253.0202573837302
 20
68.11545760460922
 30
0.0
 10
253.0202573837302
 20
68.11545760460922
 30
0.0
 10
253.0202573837302
 20
68.11545760460922
 30
0.0
 10
253.0202573837302
 20
68.11545760460922
 30
0.0
  0
SPLINE
  5
397
330
A
100
AcDbEntity
  8
A-001_Pan
100
AcDbSpline
210
0.0
220
0.0
230
1.0
 70
     8
 71
     3
 72
     8
 73
     4
 74
     0
 42
0.0000000001
 43
0.0000000001
 40
7.0
 40
7.0
 40
7.0
 40
7.0
 40
8.0
 40
8.0
 40
8.0
 40
8.0
 10
253.0202573837302
 20
68.11545760460922
 30
0.0
 10
258.5237916188048
 20
68.11545760460922
 30
0.0
 10
262.9839977451325
 20
63.65525147828157
 30
0.0
 10
262.9839977451325
 20
58.15171724320681
 30
0.0
  0
SPLINE
  5
398
330
A
100
AcDbEntity
  8
A-001_Pan
100
AcDbSpline
210
0.0
220
0.0
230
1.0
 70
    24
 71
     3
 72
     8
 73
     4
 74
     0
 42
0.0000000001
 43
0.0000000001
 40
8.0
 40
8.0
 40
8.0
 40
8.0
 40
9.0
 40
9.0
 40
9.0
 40
9.0
 10
262.9839977451325
 20
58.15171724320681
 30
0.0
 10
262.9839977451325
 20
58.15171724320681
 30
0.0
 10
262.9839977451325
 20
-214.1948270148737
 30
0.0
 10
262.9839977451325
 20
-214.1948270148737
 30
0.0
  0
CIRCLE
  5
39A
330
A
100
AcDbEntity
  8
A-001_Pan
100
AcDbCircle
 10
253.0202573837302
 20
47.97494933612699
 30
0.0
 40
2.75
  0
ELLIPSE
  5
39D
330
A
100
AcDbEntity
  8
A-001_Pan
100
AcDbEllipse
 10
253.0202573837302
 20
47.97494933612699
 30
0.0
 11
0.0
 21
-5.599999999999997
 31
0.0
210
0.0
220
0.0
230
1.0
 40
0.9821428571428572
 41
0.0
 42
6.283185307179586
  0
ENDSEC
  0
SECTION
  2
OBJECTS
  0
DICTIONARY
  5
19
330
0
100
AcDbDictionary
281
     1
  3
ACAD_2007HEADERVARS_RT
350
3C0
  3
ACAD_COLOR
350
243
  3
ACAD_GROUP
350
1A
  3
ACAD_LAYOUT
350
1E
  3
ACAD_MATERIAL
350
219
  3
ACAD_MLEADERSTYLE
350
25C
  3
ACAD_MLINESTYLE
350
1B
  3
ACAD_PLOTSETTINGS
350
22
  3
ACAD_PLOTSTYLENAME
350
1F
  3
ACAD_SCALELIST
350
246
  3
ACAD_TABLESTYLE
350
244
  3
ACAD_VISUALSTYLE
350
232
  3
ACAD_WIPEOUT_VARS
350
23
  3
ACDB_RECOMPOSE_DATA
350
3BE
  3
AcDbVariableDictionary
350
3B5
  3
AEC_LAYERKEY_STYLES
350
3A1
  3
AEC_PROPERTY_SET_DEFS
350
294
  3
AEC_VARS
350
39F
  3
DWGPROPS
350
3BF
  0
DICTIONARY
  5
28B
330
2
100
AcDbDictionary
280
     1
281
     1
  3
ACAD_LAYERFILTERS
360
3A3
  3
ACAD_LAYERSTATES
360
28C
  3
ACLYDICTIONARY
360
3A2
  0
DICTIONARY
  5
381
330
14
100
AcDbDictionary
280
     1
281
     1
  3
ADSK_XREC_LAYER_RECONCILED
360
382
  0
DICTIONARY
  5
27F
330
27E
100
AcDbDictionary
280
     1
281
     1
  3
ADSK_XREC_LAYER_RECONCILED
360
383
  0
DICTIONARY
  5
281
330
280
100
AcDbDictionary
280
     1
281
     1
  3
ADSK_XREC_LAYER_RECONCILED
360
384
  0
DICTIONARY
  5
283
330
282
100
AcDbDictionary
280
     1
281
     1
  3
ADSK_XREC_LAYER_RECONCILED
360
385
  0
DICTIONARY
  5
34A
330
A
100
AcDbDictionary
280
     1
281
     1
  3
ACAD_SORTENTS
360
34B
  0
DICTIONARY
  5
3CC
330
266
100
AcDbDictionary
280
     1
281
     1
  3
AcDbBlockTableRecordData
360
3CD
  0
DICTIONARY
  5
3CF
330
26D
100
AcDbDictionary
280
     1
281
     1
  3
AcDbBlockTableRecordData
360
3D0
  0
DICTIONARY
  5
3C0
102
{ACAD_REACTORS
330
19
102
}
330
19
100
AcDbDictionary
281
     1
  3
DIMFXL
350
3C1
  3
DIMJOGANG
350
3C2
  0
DICTIONARY
  5
243
102
{ACAD_REACTORS
330
19
102
}
330
19
100
AcDbDictionary
281
     1
  0
DICTIONARY
  5
1A
102
{ACAD_REACTORS
330
19
102
}
330
19
100
AcDbDictionary
281
     1
  0
DICTIONARY
  5
1E
102
{ACAD_REACTORS
330
19
102
}
330
19
100
AcDbDictionary
281
     1
  3
Layout1
350
21
  3
Model
350
20
  0
DICTIONARY
  5
219
102
{ACAD_REACTORS
330
19
102
}
330
19
100
AcDbDictionary
281
     1
  3
ByBlock
350
222
  3
ByLayer
350
21A
  3
Global
350
22A
  0
DICTIONARY
  5
25C
102
{ACAD_REACTORS
330
19
102
}
330
19
100
AcDbDictionary
281
     1
  3
Standard
350
25D
  0
DICTIONARY
  5
1B
102
{ACAD_REACTORS
330
19
102
}
330
19
100
AcDbDictionary
281
     1
  3
Standard
350
1C
  0
DICTIONARY
  5
22
102
{ACAD_REACTORS
330
19
102
}
330
19
100
AcDbDictionary
281
     1
  0
ACDBDICTIONARYWDFLT
  5
1F
102
{ACAD_REACTORS
330
19
102
}
330
19
100
AcDbDictionary
281
     1
  3
Normal
350
1D
100
AcDbDictionaryWithDefault
340
1D
  0
DICTIONARY
  5
246
102
{ACAD_REACTORS
330
19
102
}
330
19
100
AcDbDictionary
281
     1
  3
A0
350
247
  3
A1
350
248
  3
A2
350
249
  3
A3
350
24A
  3
A4
350
24B
  3
A5
350
24C
  3
A6
350
24D
  3
A7
350
24E
  3
A8
350
24F
  3
A9
350
250
  3
B0
350
251
  3
B1
350
252
  3
B2
350
253
  3
B3
350
254
  3
B4
350
255
  3
B5
350
256
  3
B6
350
257
  3
B7
350
258
  3
B8
350
259
  3
B9
350
25A
  3
C0
350
25B
  0
DICTIONARY
  5
244
102
{ACAD_REACTORS
330
19
102
}
330
19
100
AcDbDictionary
281
     1
  3
Standard
350
245
  0
DICTIONARY
  5
232
102
{ACAD_REACTORS
330
19
102
}
330
19
100
AcDbDictionary
281
     1
  3
2dWireframe
350
238
  3
3D Hidden
350
23A
  3
3dWireframe
350
239
  3
Basic
350
237
  3
Brighten
350
23E
  3
ColorChange
350
242
  3
Conceptual
350
23B
  3
Dim
350
23D
  3
Facepattern
350
241
  3
Flat
350
233
  3
FlatWithEdges
350
234
  3
Gouraud
350
235
  3
GouraudWithEdges
350
236
  3
Linepattern
350
240
  3
Realistic
350
23C
  3
Thicken
350
23F
  0
WIPEOUTVARIABLES
  5
23
330
19
100
AcDbWipeoutVariables
 70
     1
  0
XRECORD
  5
3BE
102
{ACAD_REACTORS
330
19
102
}
330
19
100
AcDbXrecord
280
     1
 90
        1
330
245
  0
DICTIONARY
  5
3B5
102
{ACAD_REACTORS
330
19
102
}
330
19
100
AcDbDictionary
281
     1
  3
CANNOSCALE
350
3B8
  3
CMLEADERSTYLE
350
3B7
  3
CTABLESTYLE
350
3B6
  3
DIMASSOC
350
3BB
  3
INDEXCTL
350
3BA
  3
SORTENTS
350
3B9
  0
DICTIONARY
  5
3A1
102
{ACAD_REACTORS
330
19
102
}
330
19
100
AcDbDictionary
281
     1
  0
DICTIONARY
  5
294
102
{ACAD_REACTORS
330
19
102
}
330
19
100
AcDbDictionary
281
     1
  0
DICTIONARY
  5
39F
102
{ACAD_REACTORS
330
19
102
}
330
19
100
AcDbDictionary
281
     1
  3
AEC_VARS_DWG_SETUP
350
3A0
  0
XRECORD
  5
3BF
102
{ACAD_REACTORS
330
19
102
}
330
19
100
AcDbXrecord
280
     1
  1
DWGPROPS COOKIE
  2

  3

  4

  6

  7

  8
Admin
  9

300
=
301
=
302
=
303
=
304
=
305
=
306
=
307
=
308
=
309
=
 40
0.0188339120370371
 41
2454446.69073603
 42
2454446.709568137
  1

 90
        0
  0
DICTIONARY
  5
3A3
102
{ACAD_REACTORS
330
28B
102
}
330
28B
100
AcDbDictionary
281
     1
  0
DICTIONARY
  5
28C
102
{ACAD_REACTORS
330
28B
102
}
330
28B
100
AcDbDictionary
281
     1
  0
DICTIONARY
  5
3A2
102
{ACAD_REACTORS
330
28B
102
}
330
28B
100
AcDbDictionary
281
     1
1001
ACAD
1000
<All
  0
XRECORD
  5
382
102
{ACAD_REACTORS
330
381
102
}
330
381
100
AcDbXrecord
280
     1
290
     1
  0
XRECORD
  5
383
102
{ACAD_REACTORS
330
27F
102
}
330
27F
100
AcDbXrecord
280
     1
290
     1
  0
XRECORD
  5
384
102
{ACAD_REACTORS
330
281
102
}
330
281
100
AcDbXrecord
280
     1
290
     1
  0
XRECORD
  5
385
102
{ACAD_REACTORS
330
283
102
}
330
283
100
AcDbXrecord
280
     1
290
     1
  0
SORTENTSTABLE
  5
34B
102
{ACAD_REACTORS
330
34A
102
}
330
34A
100
AcDbSortentsTable
330
A
331
2EC
  5
2EC
331
309
  5
309
331
36
  5
36
331
2FD
  5
2FD
331
32B
  5
32A
331
33C
  5
33B
331
31A
  5
319
331
2EA
  5
2EA
331
307
  5
307
331
34
  5
34
331
2FB
  5
2FB
331
329
  5
328
331
33A
  5
339
331
318
  5
317
331
2E8
  5
2E8
331
305
  5
305
331
32
  5
32
331
349
  5
348
331
327
  5
326
331
397
  5
397
331
2F9
  5
2F9
331
2D7
  5
2D7
331
94
  5
94
331
2E
  5
2F
331
338
  5
337
331
316
  5
29
331
303
  5
303
331
347
  5
346
331
325
  5
324
331
30
  5
31
331
395
  5
395
331
2F7
  5
2F7
331
4E
  5
4E
331
314
  5
314
331
92
  5
92
331
A0
  5
A0
331
336
  5
335
331
2C
  5
2D
331
301
  5
301
331
9F
  5
9F
331
345
  5
344
331
323
  5
322
331
393
  5
393
331
312
  5
312
331
2F5
  5
2F5
331
360
  5
349
331
334
  5
333
331
2A
  5
2B
331
391
  5
391
331
310
  5
310
331
2F3
  5
2F3
331
9D
  5
9D
331
343
  5
342
331
321
  5
320
331
332
  5
331
331
30E
  5
30E
331
2F1
  5
2F1
331
9B
  5
9B
331
341
  5
340
331
330
  5
32F
331
31F
  5
31E
331
30C
  5
30C
331
2EF
  5
2EF
331
36B
  5
360
331
32E
  5
32D
331
33F
  5
33E
331
31D
  5
31C
331
2ED
  5
2ED
331
30A
  5
30A
331
37
  5
37
331
2FE
  5
2FE
331
298
  5
298
331
32C
  5
32B
331
33D
  5
33C
331
31B
  5
31A
331
2EB
  5
2EB
331
308
  5
308
331
35
  5
35
331
2FC
  5
2FC
331
32A
  5
329
331
33B
  5
33A
331
319
  5
318
331
2E9
  5
2E9
331
306
  5
306
331
33
  5
33
331
376
  5
36B
331
328
  5
327
331
398
  5
398
331
2FA
  5
2FA
331
339
  5
338
331
317
  5
316
331
2F
  5
30
331
304
  5
304
331
31
  5
376
331
348
  5
347
331
326
  5
325
331
396
  5
396
331
2F8
  5
2F8
331
315
  5
315
331
93
  5
93
331
A1
  5
A1
331
2E7
  5
2E7
331
337
  5
336
331
2D
  5
2E
331
302
  5
302
331
346
  5
345
331
324
  5
323
331
394
  5
394
331
313
  5
313
331
2F6
  5
2F6
331
335
  5
334
331
2B
  5
2C
331
300
  5
300
331
9E
  5
9E
331
344
  5
343
331
322
  5
321
331
392
  5
392
331
311
  5
311
331
2F4
  5
2F4
331
333
  5
332
331
29
  5
2A
331
390
  5
390
331
30F
  5
30F
331
2F2
  5
2F2
331
9C
  5
9C
331
342
  5
341
331
320
  5
31F
331
331
  5
330
331
30D
  5
30D
331
2F0
  5
2F0
331
9A
  5
9A
331
340
  5
33F
331
32F
  5
32E
331
31E
  5
31D
331
30B
  5
30B
331
2EE
  5
2EE
331
2FF
  5
2FF
331
32D
  5
32C
331
33E
  5
33D
331
31C
  5
31B
  0
DICTIONARY
  5
3CD
102
{ACAD_REACTORS
330
3CC
102
}
330
3CC
100
AcDbDictionary
280
     1
281
     1
  3
Edit
360
3CE
  0
DICTIONARY
  5
3D0
102
{ACAD_REACTORS
330
3CF
102
}
330
3CF
100
AcDbDictionary
280
     1
281
     1
  3
Edit
360
3D1
  0
XRECORD
  5
3C1
102
{ACAD_REACTORS
330
3C0
102
}
330
3C0
100
AcDbXrecord
280
     1
 40
0.2
  0
XRECORD
  5
3C2
102
{ACAD_REACTORS
330
3C0
102
}
330
3C0
100
AcDbXrecord
280
     1
 40
1.570796326794896
  0
LAYOUT
  5
21
102
{ACAD_XDICTIONARY
360
3C5
102
}
102
{ACAD_REACTORS
330
1E
102
}
330
1E
100
AcDbPlotSettings
  1

  2

  4

  6

 40
0.0
 41
0.0
 42
0.0
 43
0.0
 44
0.0
 45
0.0
 46
0.0
 47
0.0
 48
0.0
 49
0.0
140
0.0
141
0.0
142
1.0
143
1.0
 70
     0
 72
     0
 73
     0
 74
     0
  7

 75
     0
147
1.0
148
0.0
149
0.0
100
AcDbLayout
  1
Layout1
 70
     0
 71
     1
 10
0.0
 20
0.0
 11
12.0
 21
9.0
 12
0.0
 22
0.0
 32
0.0
 14
1.000000000000000E+20
 24
1.000000000000000E+20
 34
1.000000000000000E+20
 15
-1.000000000000000E+20
 25
-1.000000000000000E+20
 35
-1.000000000000000E+20
146
0.0
 13
0.0
 23
0.0
 33
0.0
 16
1.0
 26
0.0
 36
0.0
 17
0.0
 27
1.0
 37
0.0
 76
     0
330
B
  0
LAYOUT
  5
20
102
{ACAD_XDICTIONARY
360
3C3
102
}
102
{ACAD_REACTORS
330
1E
102
}
330
1E
100
AcDbPlotSettings
  1

  2
HP LaserJet 1100
  4
A4
  6

 40
6.011333465576171
 41
4.233341693878173
 42
6.011322021484375
 43
4.23333740234375
 44
209.9733276367187
 45
296.9259948730469
 46
0.0
 47
0.0
 48
0.0
 49
0.0
140
0.0
141
0.0
142
1.0
143
1.0
 70
 11264
 72
     1
 73
     1
 74
     0
  7

 75
     0
147
1.0
148
127.0360178793484
149
193.2196436113485
100
AcDbLayout
  1
Model
 70
     0
 71
     0
 10
0.0
 20
0.0
 11
0.0
 21
0.0
 12
0.0
 22
0.0
 32
0.0
 14
0.0
 24
0.0
 34
0.0
 15
0.0
 25
0.0
 35
0.0
146
0.0
 13
0.0
 23
0.0
 33
0.0
 16
0.0
 26
0.0
 36
0.0
 17
0.0
 27
0.0
 37
0.0
 76
     0
330
A
331
15
1001
ACAD_PSEXT
1000
HP LaserJet 1100
1000
HP LaserJet 1100
1000
LPT1:
1000

1070
     0
  0
MATERIAL
  5
222
102
{ACAD_XDICTIONARY
360
223
102
}
102
{ACAD_REACTORS
330
219
102
}
330
219
100
AcDbMaterial
  1
ByBlock
 72
     0
 43
0.0208333333333333
 43
0.0
 43
0.0
 43
0.0
 43
0.0
 43
0.0208333333333333
 43
0.0
 43
0.0
 43
0.0
 43
0.0
 43
1.0
 43
0.0
 43
0.0
 43
0.0
 43
0.0
 43
1.0
 77
     0
 47
0.0208333333333333
 47
0.0
 47
0.0
 47
0.0
 47
0.0
 47
0.0208333333333333
 47
0.0
 47
0.0
 47
0.0
 47
0.0
 47
1.0
 47
0.0
 47
0.0
 47
0.0
 47
0.0
 47
1.0
171
     0
 49
0.0208333333333333
 49
0.0
 49
0.0
 49
0.0
 49
0.0
 49
0.0208333333333333
 49
0.0
 49
0.0
 49
0.0
 49
0.0
 49
1.0
 49
0.0
 49
0.0
 49
0.0
 49
0.0
 49
1.0
175
     0
142
0.0208333333333333
142
0.0
142
0.0
142
0.0
142
0.0
142
0.0208333333333333
142
0.0
142
0.0
142
0.0
142
0.0
142
1.0
142
0.0
142
0.0
142
0.0
142
0.0
142
1.0
179
     0
144
0.0208333333333333
144
0.0
144
0.0
144
0.0
144
0.0
144
0.0208333333333333
144
0.0
144
0.0
144
0.0
144
0.0
144
1.0
144
0.0
144
0.0
144
0.0
144
0.0
144
1.0
147
0.0208333333333333
147
0.0
147
0.0
147
0.0
147
0.0
147
0.0208333333333333
147
0.0
147
0.0
147
0.0
147
0.0
147
1.0
147
0.0
147
0.0
147
0.0
147
0.0
147
1.0
  0
MATERIAL
  5
21A
102
{ACAD_XDICTIONARY
360
21B
102
}
102
{ACAD_REACTORS
330
219
102
}
330
219
100
AcDbMaterial
  1
ByLayer
 72
     0
 43
0.0208333333333333
 43
0.0
 43
0.0
 43
0.0
 43
0.0
 43
0.0208333333333333
 43
0.0
 43
0.0
 43
0.0
 43
0.0
 43
1.0
 43
0.0
 43
0.0
 43
0.0
 43
0.0
 43
1.0
 77
     0
 47
0.0208333333333333
 47
0.0
 47
0.0
 47
0.0
 47
0.0
 47
0.0208333333333333
 47
0.0
 47
0.0
 47
0.0
 47
0.0
 47
1.0
 47
0.0
 47
0.0
 47
0.0
 47
0.0
 47
1.0
171
     0
 49
0.0208333333333333
 49
0.0
 49
0.0
 49
0.0
 49
0.0
 49
0.0208333333333333
 49
0.0
 49
0.0
 49
0.0
 49
0.0
 49
1.0
 49
0.0
 49
0.0
 49
0.0
 49
0.0
 49
1.0
175
     0
142
0.0208333333333333
142
0.0
142
0.0
142
0.0
142
0.0
142
0.0208333333333333
142
0.0
142
0.0
142
0.0
142
0.0
142
1.0
142
0.0
142
0.0
142
0.0
142
0.0
142
1.0
179
     0
144
0.0208333333333333
144
0.0
144
0.0
144
0.0
144
0.0
144
0.0208333333333333
144
0.0
144
0.0
144
0.0
144
0.0
144
1.0
144
0.0
144
0.0
144
0.0
144
0.0
144
1.0
147
0.0208333333333333
147
0.0
147
0.0
147
0.0
147
0.0
147
0.0208333333333333
147
0.0
147
0.0
147
0.0
147
0.0
147
1.0
147
0.0
147
0.0
147
0.0
147
0.0
147
1.0
  0
MATERIAL
  5
22A
102
{ACAD_XDICTIONARY
360
22B
102
}
102
{ACAD_REACTORS
330
219
102
}
330
219
100
AcDbMaterial
  1
Global
 72
     0
 43
0.0208333333333333
 43
0.0
 43
0.0
 43
0.0
 43
0.0
 43
0.0208333333333333
 43
0.0
 43
0.0
 43
0.0
 43
0.0
 43
1.0
 43
0.0
 43
0.0
 43
0.0
 43
0.0
 43
1.0
 77
     0
 47
0.0208333333333333
 47
0.0
 47
0.0
 47
0.0
 47
0.0
 47
0.0208333333333333
 47
0.0
 47
0.0
 47
0.0
 47
0.0
 47
1.0
 47
0.0
 47
0.0
 47
0.0
 47
0.0
 47
1.0
171
     0
 49
0.0208333333333333
 49
0.0
 49
0.0
 49
0.0
 49
0.0
 49
0.0208333333333333
 49
0.0
 49
0.0
 49
0.0
 49
0.0
 49
1.0
 49
0.0
 49
0.0
 49
0.0
 49
0.0
 49
1.0
175
     0
142
0.0208333333333333
142
0.0
142
0.0
142
0.0
142
0.0
142
0.0208333333333333
142
0.0
142
0.0
142
0.0
142
0.0
142
1.0
142
0.0
142
0.0
142
0.0
142
0.0
142
1.0
179
     0
144
0.0208333333333333
144
0.0
144
0.0
144
0.0
144
0.0
144
0.0208333333333333
144
0.0
144
0.0
144
0.0
144
0.0
144
1.0
144
0.0
144
0.0
144
0.0
144
0.0
144
1.0
147
0.0208333333333333
147
0.0
147
0.0
147
0.0
147
0.0
147
0.0208333333333333
147
0.0
147
0.0
147
0.0
147
0.0
147
1.0
147
0.0
147
0.0
147
0.0
147
0.0
147
1.0
  0
MLEADERSTYLE
  5
25D
102
{ACAD_REACTORS
330
25C
102
}
330
25C
100
AcDbMLeaderStyle
170
     2
171
     1
172
     0
 90
        2
 40
0.0
 41
0.0
173
     1
 91
-1056964608
340
11
 92
       -2
290
     1
 42
2.0
291
     1
 43
0.36
  3
Standard
 44
4.0
300

342
17
174
     1
178
     6
175
     1
176
     0
 93
-1056964608
 45
4.0
292
     0
297
     0
 46
4.0
 94
-1056964608
 47
1.0
 49
1.0
140
1.0
293
     1
141
0.0
294
     1
177
     0
142
1.0
295
     0
296
     0
143
0.125
1001
ACAD_MLEADERVER
1070
     2
  0
MLINESTYLE
  5
1C
102
{ACAD_REACTORS
330
1B
102
}
330
1B
100
AcDbMlineStyle
  2
STANDARD
 70
     0
  3

 62
     0
 51
90.0
 52
90.0
 71
     2
 49
0.5
 62
   256
  6
BYLAYER
 49
-0.5
 62
   256
  6
BYLAYER
  0
ACDBPLACEHOLDER
  5
1D
102
{ACAD_REACTORS
330
1F
102
}
330
1F
  0
SCALE
  5
247
102
{ACAD_REACTORS
330
246
102
}
330
246
100
AcDbScale
 70
     0
300
1:1
140
1.0
141
1.0
290
     1
  0
SCALE
  5
248
102
{ACAD_REACTORS
330
246
102
}
330
246
100
AcDbScale
 70
     0
300
1:2
140
1.0
141
2.0
290
     0
  0
SCALE
  5
249
102
{ACAD_REACTORS
330
246
102
}
330
246
100
AcDbScale
 70
     0
300
1:2.5
140
1.0
141
2.5
290
     0
  0
SCALE
  5
24A
102
{ACAD_REACTORS
330
246
102
}
330
246
100
AcDbScale
 70
     0
300
1:5
140
1.0
141
5.0
290
     0
  0
SCALE
  5
24B
102
{ACAD_REACTORS
330
246
102
}
330
246
100
AcDbScale
 70
     0
300
1:7.5
140
1.0
141
7.5
290
     0
  0
SCALE
  5
24C
102
{ACAD_REACTORS
330
246
102
}
330
246
100
AcDbScale
 70
     0
300
1:10
140
1.0
141
10.0
290
     0
  0
SCALE
  5
24D
102
{ACAD_REACTORS
330
246
102
}
330
246
100
AcDbScale
 70
     0
300
1:20
140
1.0
141
20.0
290
     0
  0
SCALE
  5
24E
102
{ACAD_REACTORS
330
246
102
}
330
246
100
AcDbScale
 70
     0
300
1:25
140
1.0
141
25.0
290
     0
  0
SCALE
  5
24F
102
{ACAD_REACTORS
330
246
102
}
330
246
100
AcDbScale
 70
     0
300
1:50
140
1.0
141
50.0
290
     0
  0
SCALE
  5
250
102
{ACAD_REACTORS
330
246
102
}
330
246
100
AcDbScale
 70
     0
300
1:75
140
1.0
141
75.0
290
     0
  0
SCALE
  5
251
102
{ACAD_REACTORS
330
246
102
}
330
246
100
AcDbScale
 70
     0
300
1:100
140
1.0
141
100.0
290
     0
  0
SCALE
  5
252
102
{ACAD_REACTORS
330
246
102
}
330
246
100
AcDbScale
 70
     0
300
1:150
140
1.0
141
150.0
290
     0
  0
SCALE
  5
253
102
{ACAD_REACTORS
330
246
102
}
330
246
100
AcDbScale
 70
     0
300
1:200
140
1.0
141
200.0
290
     0
  0
SCALE
  5
254
102
{ACAD_REACTORS
330
246
102
}
330
246
100
AcDbScale
 70
     0
300
1:250
140
1.0
141
250.0
290
     0
  0
SCALE
  5
255
102
{ACAD_REACTORS
330
246
102
}
330
246
100
AcDbScale
 70
     0
300
1:500
140
1.0
141
500.0
290
     0
  0
SCALE
  5
256
102
{ACAD_REACTORS
330
246
102
}
330
246
100
AcDbScale
 70
     0
300
1:750
140
1.0
141
750.0
290
     0
  0
SCALE
  5
257
102
{ACAD_REACTORS
330
246
102
}
330
246
100
AcDbScale
 70
     0
300
1:1000
140
1.0
141
1000.0
290
     0
  0
SCALE
  5
258
102
{ACAD_REACTORS
330
246
102
}
330
246
100
AcDbScale
 70
     0
300
1:1250
140
1.0
141
1250.0
290
     0
  0
SCALE
  5
259
102
{ACAD_REACTORS
330
246
102
}
330
246
100
AcDbScale
 70
     0
300
1:2000
140
1.0
141
2000.0
290
     0
  0
SCALE
  5
25A
102
{ACAD_REACTORS
330
246
102
}
330
246
100
AcDbScale
 70
     0
300
1:2500
140
1.0
141
2500.0
290
     0
  0
SCALE
  5
25B
102
{ACAD_REACTORS
330
246
102
}
330
246
100
AcDbScale
 70
     0
300
1:5000
140
1.0
141
5000.0
290
     0
  0
TABLESTYLE
  5
245
102
{ACAD_XDICTIONARY
360
3BC
102
}
102
{ACAD_REACTORS
330
244
102
}
330
244
100
AcDbTableStyle
  3
Standard
 70
     0
 71
     0
 40
1.5
 41
1.5
280
     0
281
     0
  7
Standard
140
4.5
170
     2
 62
     0
 63
     7
283
     0
274
    -2
284
     1
 64
     0
275
    -2
285
     1
 65
     0
276
    -2
286
     1
 66
     0
277
    -2
287
     1
 67
     0
278
    -2
288
     1
 68
     0
279
    -2
289
     1
 69
     0
  7
Standard
140
6.0
170
     5
 62
     0
 63
     7
283
     0
274
    -2
284
     1
 64
     0
275
    -2
285
     1
 65
     0
276
    -2
286
     1
 66
     0
277
    -2
287
     1
 67
     0
278
    -2
288
     1
 68
     0
279
    -2
289
     1
 69
     0
  7
Standard
140
4.5
170
     5
 62
     0
 63
     7
283
     0
274
    -2
284
     1
 64
     0
275
    -2
285
     1
 65
     0
276
    -2
286
     1
 66
     0
277
    -2
287
     1
 67
     0
278
    -2
288
     1
 68
     0
279
    -2
289
     1
 69
     0
  0
VISUALSTYLE
  5
238
102
{ACAD_REACTORS
330
232
102
}
330
232
100
AcDbVisualStyle
  2
2dWireframe
 70
     4
 71
     0
 72
     2
 73
     0
 90
        0
 40
-0.6
 41
-30.0
 62
     5
 63
     7
 74
     1
 91
        4
 64
     7
 65
   257
 75
     1
175
     1
 42
1.0
 92
        0
 66
   257
 43
1.0
 76
     1
 77
     6
 78
     2
 67
     7
 79
     5
170
     0
171
     0
290
     0
174
     0
 93
        1
 44
0.0
173
     0
291
     0
 45
0.0
1001
ACAD
1000
AcDbSavedByObjectVersion
1070
     0
  0
VISUALSTYLE
  5
23A
102
{ACAD_REACTORS
330
232
102
}
330
232
100
AcDbVisualStyle
  2
3D Hidden
 70
     6
 71
     1
 72
     2
 73
     2
 90
        0
 40
-0.6
 41
-30.0
 62
     5
 63
     7
 74
     2
 91
        2
 64
     7
 65
   257
 75
     2
175
     1
 42
40.0
 92
        0
 66
   257
 43
1.0
 76
     1
 77
     6
 78
     2
 67
     7
 79
     3
170
     0
171
     0
290
     0
174
     0
 93
        1
 44
0.0
173
     0
291
     0
 45
0.0
1001
ACAD
1000
AcDbSavedByObjectVersion
1070
     0
  0
VISUALSTYLE
  5
239
102
{ACAD_REACTORS
330
232
102
}
330
232
100
AcDbVisualStyle
  2
3dWireframe
 70
     5
 71
     0
 72
     2
 73
     0
 90
        0
 40
-0.6
 41
-30.0
 62
     5
 63
     7
 74
     1
 91
        4
 64
     7
 65
   257
 75
     1
175
     1
 42
1.0
 92
        0
 66
   257
 43
1.0
 76
     1
 77
     6
 78
     2
 67
     7
 79
     5
170
     0
171
     0
290
     0
174
     0
 93
        1
 44
0.0
173
     0
291
     0
 45
0.0
1001
ACAD
1000
AcDbSavedByObjectVersion
1070
     0
  0
VISUALSTYLE
  5
237
102
{ACAD_REACTORS
330
232
102
}
330
232
100
AcDbVisualStyle
  2
Basic
 70
     7
 71
     1
 72
     0
 73
     1
 90
        0
 40
-0.6
 41
-30.0
 62
     5
 63
     7
 74
     0
 91
        4
 64
     7
 65
   257
 75
     1
175
     1
 42
1.0
 92
        8
 66
     7
 43
1.0
 76
     1
 77
     6
 78
     2
 67
     7
 79
     5
170
     0
171
     0
290
     0
174
     0
 93
        1
 44
0.0
173
     0
291
     1
 45
0.0
1001
ACAD
1000
AcDbSavedByObjectVersion
1070
     0
  0
VISUALSTYLE
  5
23E
102
{ACAD_REACTORS
330
232
102
}
330
232
100
AcDbVisualStyle
  2
Brighten
 70
    12
 71
     2
 72
     2
 73
     0
 90
        0
 40
-0.6
 41
-30.0
 62
     5
 63
     7
 74
     1
 91
        4
 64
     7
 65
   257
 75
     1
175
     1
 42
1.0
 92
        8
 66
     7
 43
1.0
 76
     1
 77
     6
 78
     2
 67
     7
 79
     5
170
     0
171
     0
290
     0
174
     0
 93
        1
 44
50.0
173
     0
291
     1
 45
0.0
1001
ACAD
1000
AcDbSavedByObjectVersion
1070
     0
  0
VISUALSTYLE
  5
242
102
{ACAD_REACTORS
330
232
102
}
330
232
100
AcDbVisualStyle
  2
ColorChange
 70
    16
 71
     2
 72
     2
 73
     3
 90
        0
 40
-0.6
 41
-30.0
 62
     5
 63
     8
 74
     1
 91
        4
 64
     7
 65
   257
 75
     1
175
     1
 42
1.0
 92
        8
 66
     8
 43
1.0
 76
     1
 77
     6
 78
     2
 67
     7
 79
     5
170
     0
171
     0
290
     0
174
     0
 93
        1
 44
0.0
173
     0
291
     1
 45
0.0
1001
ACAD
1000
AcDbSavedByObjectVersion
1070
     0
  0
VISUALSTYLE
  5
23B
102
{ACAD_REACTORS
330
232
102
}
330
232
100
AcDbVisualStyle
  2
Conceptual
 70
     9
 71
     3
 72
     2
 73
     0
 90
        0
 40
-0.6
 41
-30.0
 62
     5
 63
     7
 74
     2
 91
        2
 64
     7
 65
   257
 75
     1
175
     1
 42
40.0
 92
        8
 66
     7
 43
1.0
 76
     1
 77
     6
 78
     2
 67
     7
 79
     3
170
     0
171
     0
290
     0
174
     0
 93
        1
 44
0.0
173
     0
291
     0
 45
0.0
1001
ACAD
1000
AcDbSavedByObjectVersion
1070
     0
  0
VISUALSTYLE
  5
23D
102
{ACAD_REACTORS
330
232
102
}
330
232
100
AcDbVisualStyle
  2
Dim
 70
    11
 71
     2
 72
     2
 73
     0
 90
        0
 40
-0.6
 41
-30.0
 62
     5
 63
     7
 74
     1
 91
        4
 64
     7
 65
   257
 75
     1
175
     1
 42
1.0
 92
        8
 66
     7
 43
1.0
 76
     1
 77
     6
 78
     2
 67
     7
 79
     5
170
     0
171
     0
290
     0
174
     0
 93
        1
 44
-50.0
173
     0
291
     1
 45
0.0
1001
ACAD
1000
AcDbSavedByObjectVersion
1070
     0
  0
VISUALSTYLE
  5
241
102
{ACAD_REACTORS
330
232
102
}
330
232
100
AcDbVisualStyle
  2
Facepattern
 70
    15
 71
     2
 72
     2
 73
     0
 90
        0
 40
-0.6
 41
-30.0
 62
     5
 63
     7
 74
     1
 91
        4
 64
     7
 65
   257
 75
     1
175
     1
 42
1.0
 92
        8
 66
     7
 43
1.0
 76
     1
 77
     6
 78
     2
 67
     7
 79
     5
170
     0
171
     0
290
     0
174
     0
 93
        1
 44
0.0
173
     0
291
     1
 45
0.0
1001
ACAD
1000
AcDbSavedByObjectVersion
1070
     0
  0
VISUALSTYLE
  5
233
102
{ACAD_REACTORS
330
232
102
}
330
232
100
AcDbVisualStyle
  2
Flat
 70
     0
 71
     2
 72
     1
 73
     1
 90
        2
 40
-0.6
 41
30.0
 62
     5
 63
     7
 74
     0
 91
        4
 64
     7
 65
   257
 75
     1
175
     1
 42
1.0
 92
        8
 66
     7
 43
1.0
 76
     1
 77
     6
 78
     2
 67
     7
 79
     5
170
     0
171
     0
290
     0
174
     0
 93
       13
 44
0.0
173
     0
291
     1
 45
0.0
1001
ACAD
1000
AcDbSavedByObjectVersion
1070
     0
  0
VISUALSTYLE
  5
234
102
{ACAD_REACTORS
330
232
102
}
330
232
100
AcDbVisualStyle
  2
FlatWithEdges
 70
     1
 71
     2
 72
     1
 73
     1
 90
        2
 40
-0.6
 41
30.0
 62
     5
 63
     7
 74
     1
 91
        4
 64
     7
 65
   257
 75
     1
175
     1
 42
1.0
 92
        0
 66
   257
 43
1.0
 76
     1
 77
     6
 78
     2
 67
     7
 79
     5
170
     0
171
     0
290
     0
174
     0
 93
       13
 44
0.0
173
     0
291
     1
 45
0.0
1001
ACAD
1000
AcDbSavedByObjectVersion
1070
     0
  0
VISUALSTYLE
  5
235
102
{ACAD_REACTORS
330
232
102
}
330
232
100
AcDbVisualStyle
  2
Gouraud
 70
     2
 71
     2
 72
     2
 73
     1
 90
        2
 40
-0.6
 41
30.0
 62
     5
 63
     7
 74
     0
 91
        4
 64
     7
 65
   257
 75
     1
175
     1
 42
1.0
 92
        0
 66
     7
 43
1.0
 76
     1
 77
     6
 78
     2
 67
     7
 79
     5
170
     0
171
     0
290
     0
174
     0
 93
       13
 44
0.0
173
     0
291
     1
 45
0.0
1001
ACAD
1000
AcDbSavedByObjectVersion
1070
     0
  0
VISUALSTYLE
  5
236
102
{ACAD_REACTORS
330
232
102
}
330
232
100
AcDbVisualStyle
  2
GouraudWithEdges
 70
     3
 71
     2
 72
     2
 73
     1
 90
        2
 40
-0.6
 41
30.0
 62
     5
 63
     7
 74
     1
 91
        4
 64
     7
 65
   257
 75
     1
175
     1
 42
1.0
 92
        0
 66
   257
 43
1.0
 76
     1
 77
     6
 78
     2
 67
     7
 79
     5
170
     0
171
     0
290
     0
174
     0
 93
       13
 44
0.0
173
     0
291
     1
 45
0.0
1001
ACAD
1000
AcDbSavedByObjectVersion
1070
     0
  0
VISUALSTYLE
  5
240
102
{ACAD_REACTORS
330
232
102
}
330
232
100
AcDbVisualStyle
  2
Linepattern
 70
    14
 71
     2
 72
     2
 73
     0
 90
        0
 40
-0.6
 41
-30.0
 62
     5
 63
     7
 74
     1
 91
        4
 64
     7
 65
   257
 75
     7
175
     7
 42
1.0
 92
        8
 66
     7
 43
1.0
 76
     1
 77
     6
 78
     2
 67
     7
 79
     5
170
     0
171
     0
290
     0
174
     0
 93
        1
 44
0.0
173
     0
291
     1
 45
0.0
1001
ACAD
1000
AcDbSavedByObjectVersion
1070
     0
  0
VISUALSTYLE
  5
23C
102
{ACAD_REACTORS
330
232
102
}
330
232
100
AcDbVisualStyle
  2
Realistic
 70
     8
 71
     2
 72
     2
 73
     0
 90
        0
 40
-0.6
 41
-30.0
 62
     5
 63
     7
 74
     1
 91
        0
 64
     7
 65
   257
 75
     1
175
     1
 42
1.0
 92
        8
 66
     8
 43
1.0
 76
     1
 77
     6
 78
     2
 67
     7
 79
     5
170
     0
171
     0
290
     0
174
     0
 93
       13
 44
0.0
173
     0
291
     0
 45
0.0
1001
ACAD
1000
AcDbSavedByObjectVersion
1070
     0
  0
VISUALSTYLE
  5
23F
102
{ACAD_REACTORS
330
232
102
}
330
232
100
AcDbVisualStyle
  2
Thicken
 70
    13
 71
     2
 72
     2
 73
     0
 90
        0
 40
-0.6
 41
-30.0
 62
     5
 63
     7
 74
     1
 91
        4
 64
     7
 65
   257
 75
     1
175
     1
 42
1.0
 92
       12
 66
     7
 43
1.0
 76
     1
 77
     6
 78
     2
 67
     7
 79
     5
170
     0
171
     0
290
     0
174
     0
 93
        1
 44
0.0
173
     0
291
     1
 45
0.0
1001
ACAD
1000
AcDbSavedByObjectVersion
1070
     0
  0
DICTIONARYVAR
  5
3B8
102
{ACAD_REACTORS
330
3B5
102
}
330
3B5
100
DictionaryVariables
280
     0
  1
1:1
  0
DICTIONARYVAR
  5
3B7
102
{ACAD_REACTORS
330
3B5
102
}
330
3B5
100
DictionaryVariables
280
     0
  1
STANDARD
  0
DICTIONARYVAR
  5
3B6
102
{ACAD_REACTORS
330
3B5
102
}
330
3B5
100
DictionaryVariables
280
     0
  1
STANDARD
  0
DICTIONARYVAR
  5
3BB
102
{ACAD_REACTORS
330
3B5
102
}
330
3B5
100
DictionaryVariables
280
     0
  1
1
  0
DICTIONARYVAR
  5
3BA
102
{ACAD_REACTORS
330
3B5
102
}
330
3B5
100
DictionaryVariables
280
     0
  1
0
  0
DICTIONARYVAR
  5
3B9
102
{ACAD_REACTORS
330
3B5
102
}
330
3B5
100
DictionaryVariables
280
     0
  1
127
  0
XRECORD
  5
3CE
102
{ACAD_REACTORS
330
3CD
102
}
330
3CD
100
AcDbXrecord
280
     1
1070
     0
1070
     1
1070
     1
  0
XRECORD
  5
3D1
102
{ACAD_REACTORS
330
3D0
102
}
330
3D0
100
AcDbXrecord
280
     1
1070
     0
1070
     1
1070
     1
  0
DICTIONARY
  5
3C5
330
21
100
AcDbDictionary
280
     1
281
     1
  3
ACAD_XREC_ROUNDTRIP
360
3C6
  0
DICTIONARY
  5
3C3
330
20
100
AcDbDictionary
280
     1
281
     1
  3
ACAD_XREC_ROUNDTRIP
360
3C4
  0
DICTIONARY
  5
223
330
222
100
AcDbDictionary
280
     1
281
     1
  3
ACAD_XREC_ROUNDTRIP
360
3C9
  3
BUMPTILE
360
225
  3
DIFFUSETILE
360
224
  3
OPACITYTILE
360
228
  3
REFLECTIONTILE
360
227
  3
REFRACTIONTILE
360
229
  3
SPECULARTILE
360
226
  0
DICTIONARY
  5
21B
330
21A
100
AcDbDictionary
280
     1
281
     1
  3
ACAD_XREC_ROUNDTRIP
360
3C8
  3
BUMPTILE
360
21D
  3
DIFFUSETILE
360
21C
  3
OPACITYTILE
360
220
  3
REFLECTIONTILE
360
21F
  3
REFRACTIONTILE
360
221
  3
SPECULARTILE
360
21E
  0
DICTIONARY
  5
22B
330
22A
100
AcDbDictionary
280
     1
281
     1
  3
ACAD_XREC_ROUNDTRIP
360
3CA
  3
BUMPTILE
360
22D
  3
DIFFUSETILE
360
22C
  3
OPACITYTILE
360
230
  3
REFLECTIONTILE
360
22F
  3
REFRACTIONTILE
360
231
  3
SPECULARTILE
360
22E
  0
DICTIONARY
  5
3BC
330
245
100
AcDbDictionary
280
     1
281
     1
  3
ACAD_ROUNDTRIP_2008_TABLESTYLE_CELLSTYLEMAP
360
3BD
  3
ACAD_XREC_ROUNDTRIP
360
3CB
  0
XRECORD
  5
3C6
102
{ACAD_REACTORS
330
3C5
102
}
330
3C5
100
AcDbXrecord
280
     1
102
SHADEPLOT
 70
     0
102
SHADEPLOTRESLEVEL
 70
     2
102
SHADEPLOTCUSTOMDPI
 70
   300
  0
XRECORD
  5
3C4
102
{ACAD_REACTORS
330
3C3
102
}
330
3C3
100
AcDbXrecord
280
     1
102
SHADEPLOT
 70
     0
102
SHADEPLOTRESLEVEL
 70
     2
102
SHADEPLOTCUSTOMDPI
 70
   300
  0
XRECORD
  5
3C9
102
{ACAD_REACTORS
330
223
102
}
330
223
100
AcDbXrecord
280
     1
102
MATERIAL
148
0.0
149
0.0
149
0.0
 93
        0
 94
      127
282
     0
 72
     0
 77
     0
171
     0
175
     0
179
     0
273
     0
  0
XRECORD
  5
225
102
{ACAD_REACTORS
330
223
102
}
330
223
100
AcDbXrecord
280
     1
270
     1
271
     1
  0
XRECORD
  5
224
102
{ACAD_REACTORS
330
223
102
}
330
223
100
AcDbXrecord
280
     1
270
     1
271
     1
  0
XRECORD
  5
228
102
{ACAD_REACTORS
330
223
102
}
330
223
100
AcDbXrecord
280
     1
270
     1
271
     1
  0
XRECORD
  5
227
102
{ACAD_REACTORS
330
223
102
}
330
223
100
AcDbXrecord
280
     1
270
     1
271
     1
  0
XRECORD
  5
229
102
{ACAD_REACTORS
330
223
102
}
330
223
100
AcDbXrecord
280
     1
270
     1
271
     1
  0
XRECORD
  5
226
102
{ACAD_REACTORS
330
223
102
}
330
223
100
AcDbXrecord
280
     1
270
     1
271
     1
  0
XRECORD
  5
3C8
102
{ACAD_REACTORS
330
21B
102
}
330
21B
100
AcDbXrecord
280
     1
102
MATERIAL
148
0.0
149
0.0
149
0.0
 93
        0
 94
      127
282
     0
 72
     0
 77
     0
171
     0
175
     0
179
     0
273
     0
  0
XRECORD
  5
21D
102
{ACAD_REACTORS
330
21B
102
}
330
21B
100
AcDbXrecord
280
     1
270
     1
271
     1
  0
XRECORD
  5
21C
102
{ACAD_REACTORS
330
21B
102
}
330
21B
100
AcDbXrecord
280
     1
270
     1
271
     1
  0
XRECORD
  5
220
102
{ACAD_REACTORS
330
21B
102
}
330
21B
100
AcDbXrecord
280
     1
270
     1
271
     1
  0
XRECORD
  5
21F
102
{ACAD_REACTORS
330
21B
102
}
330
21B
100
AcDbXrecord
280
     1
270
     1
271
     1
  0
XRECORD
  5
221
102
{ACAD_REACTORS
330
21B
102
}
330
21B
100
AcDbXrecord
280
     1
270
     1
271
     1
  0
XRECORD
  5
21E
102
{ACAD_REACTORS
330
21B
102
}
330
21B
100
AcDbXrecord
280
     1
270
     1
271
     1
  0
XRECORD
  5
3CA
102
{ACAD_REACTORS
330
22B
102
}
330
22B
100
AcDbXrecord
280
     1
102
MATERIAL
148
0.0
149
0.0
149
0.0
 93
        0
 94
      127
282
     0
 72
     0
 77
     0
171
     0
175
     0
179
     0
273
     0
  0
XRECORD
  5
22D
102
{ACAD_REACTORS
330
22B
102
}
330
22B
100
AcDbXrecord
280
     1
270
     1
271
     1
  0
XRECORD
  5
22C
102
{ACAD_REACTORS
330
22B
102
}
330
22B
100
AcDbXrecord
280
     1
270
     1
271
     1
  0
XRECORD
  5
230
102
{ACAD_REACTORS
330
22B
102
}
330
22B
100
AcDbXrecord
280
     1
270
     1
271
     1
  0
XRECORD
  5
22F
102
{ACAD_REACTORS
330
22B
102
}
330
22B
100
AcDbXrecord
280
     1
270
     1
271
     1
  0
XRECORD
  5
231
102
{ACAD_REACTORS
330
22B
102
}
330
22B
100
AcDbXrecord
280
     1
270
     1
271
     1
  0
XRECORD
  5
22E
102
{ACAD_REACTORS
330
22B
102
}
330
22B
100
AcDbXrecord
280
     1
270
     1
271
     1
  0
CELLSTYLEMAP
  5
3BD
102
{ACAD_REACTORS
330
3BC
102
}
330
3BC
100
AcDbCellStyleMap
 90
        3
300
CELLSTYLE
  1
TABLEFORMAT_BEGIN
 90
        5
170
     1
 91
        0
 92
    32768
 62
   257
 93
        1
300
CONTENTFORMAT
  1
CONTENTFORMAT_BEGIN
 90
        0
 91
        0
 92
      512
 93
        0
300

 40
0.0
140
1.0
 94
        5
 62
     0
340
17
144
6.0
309
CONTENTFORMAT_END
171
     1
301
MARGIN
  1
CELLMARGIN_BEGIN
 40
1.5
 40
1.5
 40
1.5
 40
1.5
 40
4.5
 40
4.5
309
CELLMARGIN_END
 94
        6
 95
        1
302
GRIDFORMAT
  1
GRIDFORMAT_BEGIN
 90
        0
 91
        1
 62
     0
 92
       -2
340
0
 93
        0
 40
1.125
309
GRIDFORMAT_END
 95
        2
302
GRIDFORMAT
  1
GRIDFORMAT_BEGIN
 90
        0
 91
        1
 62
     0
 92
       -2
340
0
 93
        0
 40
1.125
309
GRIDFORMAT_END
 95
        4
302
GRIDFORMAT
  1
GRIDFORMAT_BEGIN
 90
        0
 91
        1
 62
     0
 92
       -2
340
0
 93
        0
 40
1.125
309
GRIDFORMAT_END
 95
        8
302
GRIDFORMAT
  1
GRIDFORMAT_BEGIN
 90
        0
 91
        1
 62
     0
 92
       -2
340
0
 93
        0
 40
1.125
309
GRIDFORMAT_END
 95
       16
302
GRIDFORMAT
  1
GRIDFORMAT_BEGIN
 90
        0
 91
        1
 62
     0
 92
       -2
340
0
 93
        0
 40
1.125
309
GRIDFORMAT_END
 95
       32
302
GRIDFORMAT
  1
GRIDFORMAT_BEGIN
 90
        0
 91
        1
 62
     0
 92
       -2
340
0
 93
        0
 40
1.125
309
GRIDFORMAT_END
309
TABLEFORMAT_END
  1
CELLSTYLE_BEGIN
 90
        1
 91
        1
300
_TITLE
309
CELLSTYLE_END
300
CELLSTYLE
  1
TABLEFORMAT_BEGIN
 90
        5
170
     1
 91
        0
 92
        0
 62
   257
 93
        1
300
CONTENTFORMAT
  1
CONTENTFORMAT_BEGIN
 90
        0
 91
        0
 92
      512
 93
        0
300

 40
0.0
140
1.0
 94
        5
 62
     0
340
17
144
4.5
309
CONTENTFORMAT_END
171
     1
301
MARGIN
  1
CELLMARGIN_BEGIN
 40
1.5
 40
1.5
 40
1.5
 40
1.5
 40
4.5
 40
4.5
309
CELLMARGIN_END
 94
        6
 95
        1
302
GRIDFORMAT
  1
GRIDFORMAT_BEGIN
 90
        0
 91
        1
 62
     0
 92
       -2
340
0
 93
        0
 40
1.125
309
GRIDFORMAT_END
 95
        2
302
GRIDFORMAT
  1
GRIDFORMAT_BEGIN
 90
        0
 91
        1
 62
     0
 92
       -2
340
0
 93
        0
 40
1.125
309
GRIDFORMAT_END
 95
        4
302
GRIDFORMAT
  1
GRIDFORMAT_BEGIN
 90
        0
 91
        1
 62
     0
 92
       -2
340
0
 93
        0
 40
1.125
309
GRIDFORMAT_END
 95
        8
302
GRIDFORMAT
  1
GRIDFORMAT_BEGIN
 90
        0
 91
        1
 62
     0
 92
       -2
340
0
 93
        0
 40
1.125
309
GRIDFORMAT_END
 95
       16
302
GRIDFORMAT
  1
GRIDFORMAT_BEGIN
 90
        0
 91
        1
 62
     0
 92
       -2
340
0
 93
        0
 40
1.125
309
GRIDFORMAT_END
 95
       32
302
GRIDFORMAT
  1
GRIDFORMAT_BEGIN
 90
        0
 91
        1
 62
     0
 92
       -2
340
0
 93
        0
 40
1.125
309
GRIDFORMAT_END
309
TABLEFORMAT_END
  1
CELLSTYLE_BEGIN
 90
        2
 91
        1
300
_HEADER
309
CELLSTYLE_END
300
CELLSTYLE
  1
TABLEFORMAT_BEGIN
 90
        5
170
     1
 91
        0
 92
        0
 62
   257
 93
        1
300
CONTENTFORMAT
  1
CONTENTFORMAT_BEGIN
 90
        0
 91
        0
 92
      512
 93
        0
300

 40
0.0
140
1.0
 94
        2
 62
     0
340
17
144
4.5
309
CONTENTFORMAT_END
171
     1
301
MARGIN
  1
CELLMARGIN_BEGIN
 40
1.5
 40
1.5
 40
1.5
 40
1.5
 40
4.5
 40
4.5
309
CELLMARGIN_END
 94
        6
 95
        1
302
GRIDFORMAT
  1
GRIDFORMAT_BEGIN
 90
        0
 91
        1
 62
     0
 92
       -2
340
0
 93
        0
 40
1.125
309
GRIDFORMAT_END
 95
        2
302
GRIDFORMAT
  1
GRIDFORMAT_BEGIN
 90
        0
 91
        1
 62
     0
 92
       -2
340
0
 93
        0
 40
1.125
309
GRIDFORMAT_END
 95
        4
302
GRIDFORMAT
  1
GRIDFORMAT_BEGIN
 90
        0
 91
        1
 62
     0
 92
       -2
340
0
 93
        0
 40
1.125
309
GRIDFORMAT_END
 95
        8
302
GRIDFORMAT
  1
GRIDFORMAT_BEGIN
 90
        0
 91
        1
 62
     0
 92
       -2
340
0
 93
        0
 40
1.125
309
GRIDFORMAT_END
 95
       16
302
GRIDFORMAT
  1
GRIDFORMAT_BEGIN
 90
        0
 91
        1
 62
     0
 92
       -2
340
0
 93
        0
 40
1.125
309
GRIDFORMAT_END
 95
       32
302
GRIDFORMAT
  1
GRIDFORMAT_BEGIN
 90
        0
 91
        1
 62
     0
 92
       -2
340
0
 93
        0
 40
1.125
309
GRIDFORMAT_END
309
TABLEFORMAT_END
  1
CELLSTYLE_BEGIN
 90
        3
 91
        2
300
_DATA
309
CELLSTYLE_END
  0
XRECORD
  5
3CB
102
{ACAD_REACTORS
330
3BC
102
}
330
3BC
100
AcDbXrecord
280
     1
102
ACAD_ROUNDTRIP_PRE2007_TABLESTYLE
 90
      512
 91
        0
  1

 92
      512
 93
        0
  2

 94
      512
 95
        0
  3

  0
ENDSEC
  0
EOF
