  0
SECTION
  2
HEADER
  9
$ACADVER
  1
AC1015
  9
$ACADMAINTVER
 70
    20
  9
$DWGCODEPAGE
  3
ANSI_1252
  9
$INSBASE
 10
0.0
 20
0.0
 30
0.0
  9
$EXTMIN
 10
75.01872046755716
 20
-27.49513528831881
 30
-0.0000000349181948
  9
$EXTMAX
 10
634.0677733174484
 20
488.5767602024174
 30
0.0000000814935746
  9
$LIMMIN
 10
112.990175
 20
62.38981800000001
  9
$LIMMAX
 10
230.270355
 20
176.648132
  9
$ORTHOMODE
 70
     1
  9
$REGENMODE
 70
     1
  9
$FILLMODE
 70
     1
  9
$QTEXTMODE
 70
     0
  9
$MIRRTEXT
 70
     1
  9
$LTSCALE
 40
1.0
  9
$ATTMODE
 70
     1
  9
$TEXTSIZE
 40
0.0
  9
$TRACEWID
 40
0.05
  9
$TEXTSTYLE
  7
Standard
  9
$CLAYER
  8
A-031_DimExt
  9
$CELTYPE
  6
ByLayer
  9
$CECOLOR
 62
   256
  9
$CELTSCALE
 40
1.0
  9
$DISPSILH
 70
     0
  9
$DIMSCALE
 40
1.0
  9
$DIMASZ
 40
0.2
  9
$DIMEXO
 40
0.5
  9
$DIMDLI
 40
0.5
  9
$DIMRND
 40
0.0
  9
$DIMDLE
 40
0.0
  9
$DIMEXE
 40
0.2
  9
$DIMTP
 40
0.0
  9
$DIMTM
 40
0.0
  9
$DIMTXT
 40
0.4
  9
$DIMCEN
 40
0.1
  9
$DIMTSZ
 40
0.0
  9
$DIMTOL
 70
     0
  9
$DIMLIM
 70
     0
  9
$DIMTIH
 70
     0
  9
$DIMTOH
 70
     0
  9
$DIMSE1
 70
     1
  9
$DIMSE2
 70
     1
  9
$DIMTAD
 70
     1
  9
$DIMZIN
 70
     1
  9
$DIMBLK
  1

  9
$DIMASO
 70
     1
  9
$DIMSHO
 70
     1
  9
$DIMPOST
  1

  9
$DIMAPOST
  1
m
  9
$DIMALT
 70
     0
  9
$DIMALTD
 70
     2
  9
$DIMALTF
 40
0.01
  9
$DIMLFAC
 40
1.0
  9
$DIMTOFL
 70
     1
  9
$DIMTVP
 40
0.0
  9
$DIMTIX
 70
     1
  9
$DIMSOXD
 70
     0
  9
$DIMSAH
 70
     1
  9
$DIMBLK1
  1
DIML
  9
$DIMBLK2
  1
DIMR
  9
$DIMSTYLE
  2
DIMEXT
  9
$DIMCLRD
 70
     0
  9
$DIMCLRE
 70
     0
  9
$DIMCLRT
 70
     0
  9
$DIMTFAC
 40
1.0
  9
$DIMGAP
 40
0.1
  9
$DIMJUST
 70
     0
  9
$DIMSD1
 70
     0
  9
$DIMSD2
 70
     0
  9
$DIMTOLJ
 70
     1
  9
$DIMTZIN
 70
     0
  9
$DIMALTZ
 70
     8
  9
$DIMALTTZ
 70
     0
  9
$DIMUPT
 70
     0
  9
$DIMDEC
 70
     0
  9
$DIMTDEC
 70
     0
  9
$DIMALTU
 70
     2
  9
$DIMALTTD
 70
     2
  9
$DIMTXSTY
  7
helvetica regular
  9
$DIMAUNIT
 70
     1
  9
$DIMADEC
 70
     0
  9
$DIMALTRND
 40
0.0
  9
$DIMAZIN
 70
     0
  9
$DIMDSEP
 70
    46
  9
$DIMATFIT
 70
     3
  9
$DIMFRAC
 70
     1
  9
$DIMLDRBLK
  1

  9
$DIMLUNIT
 70
     2
  9
$DIMLWD
 70
    -2
  9
$DIMLWE
 70
    -2
  9
$DIMTMOVE
 70
     0
  9
$LUNITS
 70
     2
  9
$LUPREC
 70
     3
  9
$SKETCHINC
 40
0.1
  9
$FILLETRAD
 40
0.0
  9
$AUNITS
 70
     0
  9
$AUPREC
 70
     2
  9
$MENU
  1
acad
  9
$ELEVATION
 40
0.0
  9
$PELEVATION
 40
0.0
  9
$THICKNESS
 40
0.0
  9
$LIMCHECK
 70
     0
  9
$CHAMFERA
 40
0.0
  9
$CHAMFERB
 40
0.0
  9
$CHAMFERC
 40
0.0
  9
$CHAMFERD
 40
0.0
  9
$SKPOLY
 70
     0
  9
$TDCREATE
 40
2454497.403540220
  9
$TDUCREATE
 40
2454497.361873553
  9
$TDUPDATE
 40
2454497.407937095
  9
$TDUUPDATE
 40
2454497.366270428
  9
$TDINDWG
 40
0.0043983333
  9
$TDUSRTIMER
 40
0.0043981481
  9
$USRTIMER
 70
     1
  9
$ANGBASE
 50
0.0
  9
$ANGDIR
 70
     0
  9
$PDMODE
 70
     0
  9
$PDSIZE
 40
0.0
  9
$PLINEWID
 40
0.0
  9
$SPLFRAME
 70
     0
  9
$SPLINETYPE
 70
     6
  9
$SPLINESEGS
 70
     8
  9
$HANDSEED
  5
341
  9
$SURFTAB1
 70
     6
  9
$SURFTAB2
 70
     6
  9
$SURFTYPE
 70
     6
  9
$SURFU
 70
     6
  9
$SURFV
 70
     6
  9
$UCSBASE
  2

  9
$UCSNAME
  2

  9
$UCSORG
 10
0.0
 20
0.0
 30
0.0
  9
$UCSXDIR
 10
1.0
 20
0.0
 30
0.0
  9
$UCSYDIR
 10
0.0
 20
1.0
 30
0.0
  9
$UCSORTHOREF
  2

  9
$UCSORTHOVIEW
 70
     0
  9
$UCSORGTOP
 10
0.0
 20
0.0
 30
0.0
  9
$UCSORGBOTTOM
 10
0.0
 20
0.0
 30
0.0
  9
$UCSORGLEFT
 10
0.0
 20
0.0
 30
0.0
  9
$UCSORGRIGHT
 10
0.0
 20
0.0
 30
0.0
  9
$UCSORGFRONT
 10
0.0
 20
0.0
 30
0.0
  9
$UCSORGBACK
 10
0.0
 20
0.0
 30
0.0
  9
$PUCSBASE
  2

  9
$PUCSNAME
  2

  9
$PUCSORG
 10
0.0
 20
0.0
 30
0.0
  9
$PUCSXDIR
 10
1.0
 20
0.0
 30
0.0
  9
$PUCSYDIR
 10
0.0
 20
1.0
 30
0.0
  9
$PUCSORTHOREF
  2

  9
$PUCSORTHOVIEW
 70
     0
  9
$PUCSORGTOP
 10
0.0
 20
0.0
 30
0.0
  9
$PUCSORGBOTTOM
 10
0.0
 20
0.0
 30
0.0
  9
$PUCSORGLEFT
 10
0.0
 20
0.0
 30
0.0
  9
$PUCSORGRIGHT
 10
0.0
 20
0.0
 30
0.0
  9
$PUCSORGFRONT
 10
0.0
 20
0.0
 30
0.0
  9
$PUCSORGBACK
 10
0.0
 20
0.0
 30
0.0
  9
$USERI1
 70
     0
  9
$USERI2
 70
     0
  9
$USERI3
 70
     0
  9
$USERI4
 70
     0
  9
$USERI5
 70
     0
  9
$USERR1
 40
0.0
  9
$USERR2
 40
0.0
  9
$USERR3
 40
0.0
  9
$USERR4
 40
0.0
  9
$USERR5
 40
0.0
  9
$WORLDVIEW
 70
     1
  9
$SHADEDGE
 70
     3
  9
$SHADEDIF
 70
    70
  9
$TILEMODE
 70
     1
  9
$MAXACTVP
 70
    16
  9
$PINSBASE
 10
0.0
 20
0.0
 30
0.0
  9
$PLIMCHECK
 70
     0
  9
$PEXTMIN
 10
1.000000000000000E+20
 20
1.000000000000000E+20
 30
1.000000000000000E+20
  9
$PEXTMAX
 10
-1.000000000000000E+20
 20
-1.000000000000000E+20
 30
-1.000000000000000E+20
  9
$PLIMMIN
 10
0.0
 20
0.0
  9
$PLIMMAX
 10
12.0
 20
9.0
  9
$UNITMODE
 70
     0
  9
$VISRETAIN
 70
     0
  9
$PLINEGEN
 70
     1
  9
$PSLTSCALE
 70
     0
  9
$TREEDEPTH
 70
  3020
  9
$CMLSTYLE
  2
Standard
  9
$CMLJUST
 70
     0
  9
$CMLSCALE
 40
1.0
  9
$PROXYGRAPHICS
 70
     0
  9
$MEASUREMENT
 70
     1
  9
$CELWEIGHT
370
     0
  9
$ENDCAPS
280
     0
  9
$JOINSTYLE
280
     0
  9
$LWDISPLAY
290
     0
  9
$INSUNITS
 70
     4
  9
$HYPERLINKBASE
  1

  9
$STYLESHEET
  1

  9
$XEDIT
290
     1
  9
$CEPSNTYPE
380
     0
  9
$PSTYLEMODE
290
     1
  9
$FINGERPRINTGUID
  2

  9
$VERSIONGUID
  2
{0842DBF8-69B2-448A-9420-F6473A5A0CF9}
  9
$EXTNAMES
290
     1
  9
$PSVPSCALE
 40
0.0
  9
$OLESTARTUP
290
     0
  0
ENDSEC
  0
SECTION
  2
CLASSES
  0
CLASS
  1
IMAGE
  2
AcDbRasterImage
  3
ISM
 90
    34943
280
     0
281
     1
  0
CLASS
  1
DICTIONARYVAR
  2
AcDbDictionaryVar
  3
ObjectDBX Classes
 90
        0
280
     0
281
     0
  0
CLASS
  1
RASTERVARIABLES
  2
AcDbRasterVariables
  3
ISM
 90
    32768
280
     0
281
     0
  0
CLASS
  1
IMAGEDEF
  2
AcDbRasterImageDef
  3
ISM
 90
    32768
280
     0
281
     0
  0
CLASS
  1
IMAGEDEF_REACTOR
  2
AcDbRasterImageDefReactor
  3
ISM
 90
    32769
280
     0
281
     0
  0
CLASS
  1
IDBUFFER
  2
AcDbIdBuffer
  3
ObjectDBX Classes
 90
    32768
280
     0
281
     0
  0
CLASS
  1
SPATIAL_FILTER
  2
AcDbSpatialFilter
  3
ObjectDBX Classes
 90
    32768
280
     0
281
     0
  0
CLASS
  1
SORTENTSTABLE
  2
AcDbSortentsTable
  3
ObjectDBX Classes
 90
        0
280
     0
281
     0
  0
CLASS
  1
LAYER_INDEX
  2
AcDbLayerIndex
  3
ObjectDBX Classes
 90
    32768
280
     0
281
     0
  0
CLASS
  1
SPATIAL_INDEX
  2
AcDbSpatialIndex
  3
ObjectDBX Classes
 90
    32768
280
     0
281
     0
  0
CLASS
  1
OBJECT_PTR
  2
CAseDLPNTableRecord
  3
"ASE-LPNTableRecord"
 90
    32769
280
     0
281
     0
  0
CLASS
  1
LAYOUT
  2
AcDbLayout
  3
ObjectDBX Classes
 90
        0
280
     0
281
     0
  0
CLASS
  1
PLOTSETTINGS
  2
AcDbPlotSettings
  3
ObjectDBX Classes
 90
    32768
280
     0
281
     0
  0
CLASS
  1
ACDBDICTIONARYWDFLT
  2
AcDbDictionaryWithDefault
  3
ObjectDBX Classes
 90
        0
280
     0
281
     0
  0
CLASS
  1
ACDBPLACEHOLDER
  2
AcDbPlaceHolder
  3
ObjectDBX Classes
 90
        0
280
     0
281
     0
  0
CLASS
  1
VBA_PROJECT
  2
AcDbVbaProject
  3
acad
 90
    32768
280
     0
281
     0
  0
CLASS
  1
WIPEOUT
  2
AcDbWipeout
  3
"WipeOut|Product Desc: Object Enabler for WipeOut entity                        |Company: Autodesk, Inc.                        |WEB Address: www.autodesk.com"
 90
    34943
280
     0
281
     1
  0
CLASS
  1
WIPEOUTVARIABLES
  2
AcDbWipeoutVariables
  3
"WipeOut|Product Desc:     WipeOut Dbx Application|Company:          Autodesk, Inc.|WEB Address:      www.autodesk.com"
 90
        0
280
     0
281
     0
  0
CLASS
  1
RTEXT
  2
RText
  3
RText|AutoCAD Express Tool|expresstools@autodesk.com
 90
    32768
280
     0
281
     1
  0
CLASS
  1
ARCALIGNEDTEXT
  2
AcDbArcAlignedText
  3
ATEXT|AutoCAD Express Tool|expresstools@autodesk.com
 90
    32768
280
     0
281
     1
  0
CLASS
  1
MATERIAL
  2
AcDbMaterial
  3
ObjectDBX Classes
 90
     1153
280
     0
281
     0
  0
CLASS
  1
VISUALSTYLE
  2
AcDbVisualStyle
  3
ObjectDBX Classes
 90
     4095
280
     0
281
     0
  0
CLASS
  1
TABLESTYLE
  2
AcDbTableStyle
  3
ObjectDBX Classes
 90
     4095
280
     0
281
     0
  0
CLASS
  1
SCALE
  2
AcDbScale
  3
ObjectDBX Classes
 90
     1153
280
     0
281
     0
  0
CLASS
  1
MLEADERSTYLE
  2
AcDbMLeaderStyle
  3
ACDB_MLEADERSTYLE_CLASS
 90
     4095
280
     0
281
     0
  0
CLASS
  1
AEC_VARS_DWG_SETUP
  2
AecDbVarsDwgSetup
  3
AecBase50|Product Desc: Autodesk Architectural Desktop 2007 |Company: Autodesk,Inc. |WEB Address: www.autodesk.com
 90
      129
280
     0
281
     0
  0
CLASS
  1
CELLSTYLEMAP
  2
AcDbCellStyleMap
  3
ObjectDBX Classes
 90
     1152
280
     0
281
     0
  0
ENDSEC
  0
SECTION
  2
TABLES
  0
TABLE
  2
VPORT
  5
7
330
0
100
AcDbSymbolTable
 70
     1
  0
VPORT
  5
15
330
7
100
AcDbSymbolTableRecord
100
AcDbViewportTableRecord
  2
*ACTIVE
 70
     0
 10
0.0
 20
0.0
 11
1.0
 21
1.0
 12
354.5293113083553
 22
230.5333186298342
 13
0.0
 23
0.0
 14
1.0
 24
1.0
 15
0.0
 25
0.0
 16
0.0
 26
0.0
 36
1.0
 17
0.0
 27
0.0
 37
0.0
 40
520.0400307063862
 41
1.514877102199223
 42
50.0
 43
0.0
 44
0.0
 50
0.0
 51
0.0
 71
     0
 72
   100
 73
     1
 74
     1
 75
     0
 76
     0
 77
     0
 78
     0
281
     0
 65
     0
110
0.0
120
0.0
130
0.0
111
1.0
121
0.0
131
0.0
112
0.0
122
1.0
132
0.0
 79
     0
146
0.0
  0
ENDTAB
  0
TABLE
  2
LTYPE
  5
4
330
0
100
AcDbSymbolTable
 70
     4
  0
LTYPE
  5
11
330
4
100
AcDbSymbolTableRecord
100
AcDbLinetypeTableRecord
  2
ByBlock
 70
     0
  3

 72
    65
 73
     0
 40
0.0
  0
LTYPE
  5
12
330
4
100
AcDbSymbolTableRecord
100
AcDbLinetypeTableRecord
  2
ByLayer
 70
     0
  3

 72
    65
 73
     0
 40
0.0
  0
LTYPE
  5
13
330
4
100
AcDbSymbolTableRecord
100
AcDbLinetypeTableRecord
  2
Continuous
 70
     0
  3
Solid line
 72
    65
 73
     0
 40
0.0
  0
LTYPE
  5
299
330
4
100
AcDbSymbolTableRecord
100
AcDbLinetypeTableRecord
  2
HIDDEN
 70
     0
  3
Hidden __ __ __ __ __ __ __ __ __ __ __ __ __ __
 72
    65
 73
     2
 40
9.524999999999998
 49
6.349999999999999
 74
     0
 49
-3.174999999999999
 74
     0
  0
ENDTAB
  0
TABLE
  2
LAYER
  5
2
102
{ACAD_XDICTIONARY
360
275
102
}
330
0
100
AcDbSymbolTable
 70
     6
  0
LAYER
  5
14
102
{ACAD_XDICTIONARY
360
30C
102
}
330
2
100
AcDbSymbolTableRecord
100
AcDbLayerTableRecord
  2
0
 70
     0
 62
     7
  6
Continuous
370
    -3
390
1D
  0
LAYER
  5
268
102
{ACAD_XDICTIONARY
360
269
102
}
330
2
100
AcDbSymbolTableRecord
100
AcDbLayerTableRecord
  2
A-001_Pan
 70
     0
 62
     7
  6
Continuous
370
     9
390
1D
  0
LAYER
  5
26A
102
{ACAD_XDICTIONARY
360
26B
102
}
330
2
100
AcDbSymbolTableRecord
100
AcDbLayerTableRecord
  2
A-043_Txt025
 70
     0
 62
     7
  6
Continuous
370
     9
390
1D
1001
AcAecLayerStandard
1000

1000

  0
LAYER
  5
26C
102
{ACAD_XDICTIONARY
360
26D
102
}
330
2
100
AcDbSymbolTableRecord
100
AcDbLayerTableRecord
  2
A-031_DimExt
 70
     0
 62
     7
  6
Continuous
370
     9
390
1D
1001
AcAecLayerStandard
1000

1000

  0
LAYER
  5
26E
330
2
100
AcDbSymbolTableRecord
100
AcDbLayerTableRecord
  2
Defpoints
 70
     0
 62
     7
  6
Continuous
290
     0
370
     9
390
1D
  0
ENDTAB
  0
TABLE
  2
STYLE
  5
3
330
0
100
AcDbSymbolTable
 70
     8
  0
STYLE
  5
17
330
3
100
AcDbSymbolTableRecord
100
AcDbTextStyleTableRecord
  2
Standard
 70
     0
 40
0.0
 41
1.0
 50
0.0
 71
     0
 42
0.0
  3
txt
  4

  0
STYLE
  5
26F
330
3
100
AcDbSymbolTableRecord
100
AcDbTextStyleTableRecord
  2
helvetica regular
 70
     0
 40
0.0
 41
1.0
 50
0.0
 71
     0
 42
20.0
  3
LTe50259.ttf
  4

1001
ACAD
1000
HelveticaNeue LT 55 Roman
1071
        2
  0
ENDTAB
  0
TABLE
  2
VIEW
  5
5
330
0
100
AcDbSymbolTable
 70
     0
  0
ENDTAB
  0
TABLE
  2
UCS
  5
6
330
0
100
AcDbSymbolTable
 70
     0
  0
ENDTAB
  0
TABLE
  2
APPID
  5
8
330
0
100
AcDbSymbolTable
 70
     9
  0
APPID
  5
16
330
8
100
AcDbSymbolTableRecord
100
AcDbRegAppTableRecord
  2
ACAD
 70
     0
  0
APPID
  5
24A
330
8
100
AcDbSymbolTableRecord
100
AcDbRegAppTableRecord
  2
ACAD_MLEADERVER
 70
     0
  0
APPID
  5
24F
330
8
100
AcDbSymbolTableRecord
100
AcDbRegAppTableRecord
  2
ACAD_EXEMPT_FROM_CAD_STANDARDS
 70
     0
  0
APPID
  5
271
330
8
100
AcDbSymbolTableRecord
100
AcDbRegAppTableRecord
  2
AcAecLayerStandard
 70
     0
  0
APPID
  5
272
330
8
100
AcDbSymbolTableRecord
100
AcDbRegAppTableRecord
  2
ACAD_DSTYLE_DIMJOGGED_JOGANGLE_SYMBOL
 70
     0
  0
APPID
  5
273
330
8
100
AcDbSymbolTableRecord
100
AcDbRegAppTableRecord
  2
ACAD_DSTYLE_DIMJAG
 70
     0
  0
APPID
  5
274
330
8
100
AcDbSymbolTableRecord
100
AcDbRegAppTableRecord
  2
ACAD_DSTYLE_DIMTALN
 70
     0
  0
APPID
  5
311
330
8
100
AcDbSymbolTableRecord
100
AcDbRegAppTableRecord
  2
ACAD_PSEXT
 70
     0
  0
APPID
  5
340
330
8
100
AcDbSymbolTableRecord
100
AcDbRegAppTableRecord
  2
ACAD_DSTYLE_DIMEXT_LENGTH
 70
     0
  0
ENDTAB
  0
TABLE
  2
DIMSTYLE
  5
9
330
0
100
AcDbSymbolTable
 70
     4
100
AcDbDimStyleTable
 71
     2
340
270
340
18
  0
DIMSTYLE
105
18
330
9
100
AcDbSymbolTableRecord
100
AcDbDimStyleTableRecord
  2
Standard
 70
     0
340
17
  0
DIMSTYLE
105
270
102
{ACAD_REACTORS
330
27A
330
29A
330
2A5
330
2B0
330
2BB
330
2CB
330
2DD
330
2E8
102
}
330
9
100
AcDbSymbolTableRecord
100
AcDbDimStyleTableRecord
  2
DIMEXT
 70
     0
  4
m
 40
50.0
 41
0.2
 42
0.5
 43
0.5
 44
0.2
 73
     0
 74
     0
 75
     1
 76
     1
 77
     1
 78
     1
140
0.4
141
0.1
143
0.01
147
0.1
172
     1
173
     1
174
     1
271
     0
272
     0
275
     1
276
     1
285
     8
340
26F
343
250
344
257
1001
ACAD_DSTYLE_DIMJAG
1070
   388
1040
1.5
1001
ACAD_DSTYLE_DIMTALN
1070
   392
1070
     0
1001
ACAD_DSTYLE_DIMEXT_LENGTH
1070
   378
1040
0.2
1001
ACAD_DSTYLE_DIMJOGGED_JOGANGLE_SYMBOL
1070
   384
1040
1.570796326794896
  0
ENDTAB
  0
TABLE
  2
BLOCK_RECORD
  5
1
330
0
100
AcDbSymbolTable
 70
    36
  0
BLOCK_RECORD
  5
A
102
{ACAD_XDICTIONARY
360
2C8
102
}
330
1
100
AcDbSymbolTableRecord
100
AcDbBlockTableRecord
  2
*MODEL_SPACE
340
20
  0
BLOCK_RECORD
  5
B
330
1
100
AcDbSymbolTableRecord
100
AcDbBlockTableRecord
  2
*PAPER_SPACE
340
21
  0
BLOCK_RECORD
  5
250
102
{ACAD_XDICTIONARY
360
33A
102
}
330
1
100
AcDbSymbolTableRecord
100
AcDbBlockTableRecord
  2
DIML
340
0
310
2800000020000000200000000100080000000000000400000000000000000000000000000000000000000000000080000080000000808000800000008000800080800000C0C0C000C0DCC000F0CAA6000020400000206000002080000020A0000020C0000020E00000400000004020000040400000406000004080000040A0
310
000040C0000040E00000600000006020000060400000606000006080000060A0000060C0000060E00000800000008020000080400000806000008080000080A0000080C0000080E00000A0000000A0200000A0400000A0600000A0800000A0A00000A0C00000A0E00000C0000000C0200000C0400000C0600000C0800000C0
310
A00000C0C00000C0E00000E0000000E0200000E0400000E0600000E0800000E0A00000E0C00000E0E00040000000400020004000400040006000400080004000A0004000C0004000E00040200000402020004020400040206000402080004020A0004020C0004020E000404000004040200040404000404060004040800040
310
40A0004040C0004040E00040600000406020004060400040606000406080004060A0004060C0004060E00040800000408020004080400040806000408080004080A0004080C0004080E00040A0000040A0200040A0400040A0600040A0800040A0A00040A0C00040A0E00040C0000040C0200040C0400040C0600040C08000
310
40C0A00040C0C00040C0E00040E0000040E0200040E0400040E0600040E0800040E0A00040E0C00040E0E00080000000800020008000400080006000800080008000A0008000C0008000E00080200000802020008020400080206000802080008020A0008020C0008020E00080400000804020008040400080406000804080
310
008040A0008040C0008040E00080600000806020008060400080606000806080008060A0008060C0008060E00080800000808020008080400080806000808080008080A0008080C0008080E00080A0000080A0200080A0400080A0600080A0800080A0A00080A0C00080A0E00080C0000080C0200080C0400080C0600080C0
310
800080C0A00080C0C00080C0E00080E0000080E0200080E0400080E0600080E0800080E0A00080E0C00080E0E000C0000000C0002000C0004000C0006000C0008000C000A000C000C000C000E000C0200000C0202000C0204000C0206000C0208000C020A000C020C000C020E000C0400000C0402000C0404000C0406000C0
310
408000C040A000C040C000C040E000C0600000C0602000C0604000C0606000C0608000C060A000C060C000C060E000C0800000C0802000C0804000C0806000C0808000C080A000C080C000C080E000C0A00000C0A02000C0A04000C0A06000C0A08000C0A0A000C0A0C000C0A0E000C0C00000C0C02000C0C04000C0C06000
310
C0C08000C0C0A000F0FBFF00A4A0A000808080000000FF0000FF000000FFFF00FF000000FF00FF00FFFF0000FFFFFF00000000000000000000000000000000000000000000000000000000000000000000000000000000000000000000000000FF000000000000000000000000000000000000000000000000000000000000
310
00FF00000000000000000000000000000000000000000000000000000000000000FF00000000000000000000000000000000000000000000000000000000000000FF00000000000000000000000000000000000000000000000000000000000000FF0000000000000000000000000000000000000000000000000000000000
310
0000FF00000000000000000000000000000000000000000000000000000000000000FF00000000000000000000000000000000000000000000000000000000000000FF0000000000000000000000000000000000000000000000000000000000FFFFFFFF000000000000000000000000000000000000000000000000000000
310
00FFFFFFFF0000000000000000000000000000000000000000FFFFFFFFFFFFFFFFFFFFFFFFFFFFFFFFFFFFFFFF0000000000000000000000000000000000000000FFFFFFFF0000000000000000000000000000000000000000000000000000000000FFFF000000000000000000000000000000000000000000000000000000
310
00000000FF00000000000000000000000000000000000000000000000000000000000000FF00000000000000000000000000000000000000000000000000000000000000FF00000000000000000000000000000000000000000000000000000000000000FF0000000000000000000000000000000000000000000000000000
310
0000000000FF00000000000000000000000000000000000000000000000000000000000000FF00000000000000000000000000000000000000000000000000000000000000FF00000000000000000000000000000000000000000000000000000000000000FF00000000000000000000000000000000000000000000000000
310
000000000000FF00000000000000000000000000000000000000000000000000000000000000FF00000000000000000000000000000000000000000000000000000000000000FF00000000000000000000000000000000000000000000000000000000000000FF000000000000000000000000000000000000000000000000
310
00000000000000FF00000000000000000000000000000000000000000000000000000000000000FF00000000000000000000000000000000000000000000000000000000000000FF00000000000000000000000000000000000000000000000000000000000000FF0000000000000000000000000000000000000000000000
310
0000000000000000FF0000000000000000000000000000000000000000000000000000000000000000000000000000000000000000000000
102
{BLKREFS
331
261
331
28F
331
29F
331
2AA
331
2B5
331
2C0
331
2D0
331
2E2
331
302
102
}
1001
ACAD
1000
DesignCenter Data
1002
{
1070
     1
1070
     4
1002
}
  0
BLOCK_RECORD
  5
257
102
{ACAD_XDICTIONARY
360
33D
102
}
330
1
100
AcDbSymbolTableRecord
100
AcDbBlockTableRecord
  2
DIMR
340
0
310
2800000020000000200000000100080000000000000400000000000000000000000000000000000000000000000080000080000000808000800000008000800080800000C0C0C000C0DCC000F0CAA6000020400000206000002080000020A0000020C0000020E00000400000004020000040400000406000004080000040A0
310
000040C0000040E00000600000006020000060400000606000006080000060A0000060C0000060E00000800000008020000080400000806000008080000080A0000080C0000080E00000A0000000A0200000A0400000A0600000A0800000A0A00000A0C00000A0E00000C0000000C0200000C0400000C0600000C0800000C0
310
A00000C0C00000C0E00000E0000000E0200000E0400000E0600000E0800000E0A00000E0C00000E0E00040000000400020004000400040006000400080004000A0004000C0004000E00040200000402020004020400040206000402080004020A0004020C0004020E000404000004040200040404000404060004040800040
310
40A0004040C0004040E00040600000406020004060400040606000406080004060A0004060C0004060E00040800000408020004080400040806000408080004080A0004080C0004080E00040A0000040A0200040A0400040A0600040A0800040A0A00040A0C00040A0E00040C0000040C0200040C0400040C0600040C08000
310
40C0A00040C0C00040C0E00040E0000040E0200040E0400040E0600040E0800040E0A00040E0C00040E0E00080000000800020008000400080006000800080008000A0008000C0008000E00080200000802020008020400080206000802080008020A0008020C0008020E00080400000804020008040400080406000804080
310
008040A0008040C0008040E00080600000806020008060400080606000806080008060A0008060C0008060E00080800000808020008080400080806000808080008080A0008080C0008080E00080A0000080A0200080A0400080A0600080A0800080A0A00080A0C00080A0E00080C0000080C0200080C0400080C0600080C0
310
800080C0A00080C0C00080C0E00080E0000080E0200080E0400080E0600080E0800080E0A00080E0C00080E0E000C0000000C0002000C0004000C0006000C0008000C000A000C000C000C000E000C0200000C0202000C0204000C0206000C0208000C020A000C020C000C020E000C0400000C0402000C0404000C0406000C0
310
408000C040A000C040C000C040E000C0600000C0602000C0604000C0606000C0608000C060A000C060C000C060E000C0800000C0802000C0804000C0806000C0808000C080A000C080C000C080E000C0A00000C0A02000C0A04000C0A06000C0A08000C0A0A000C0A0C000C0A0E000C0C00000C0C02000C0C04000C0C06000
310
C0C08000C0C0A000F0FBFF00A4A0A000808080000000FF0000FF000000FFFF00FF000000FF00FF00FFFF0000FFFFFF000000000000000000000000000000000000000000000000000000000000000000000000000000000000000000000000FF00000000000000000000000000000000000000000000000000000000000000
310
FF00000000000000000000000000000000000000000000000000000000000000FF00000000000000000000000000000000000000000000000000000000000000FF00000000000000000000000000000000000000000000000000000000000000FF000000000000000000000000000000000000000000000000000000000000
310
00FF00000000000000000000000000000000000000000000000000000000000000FF00000000000000000000000000000000000000000000000000000000000000FF00000000000000000000000000000000000000000000000000000000000000FF0000000000000000000000000000000000000000000000000000000000
310
0000FF00000000000000000000000000000000000000000000000000000000000000FF00000000000000000000000000000000000000000000000000000000000000FF00000000000000000000000000000000000000000000000000000000000000FF00000000000000000000000000000000000000000000000000000000
310
000000FF00000000000000000000000000000000000000000000000000000000000000FF00000000000000000000000000000000000000000000000000000000000000FF00000000000000000000000000000000000000000000000000000000000000FF000000000000000000000000000000000000000000000000000000
310
00000000FF000000000000000000000000000000000000000000000000000000000000FFFFFFFF0000000000000000000000000000000000000000FFFFFFFFFFFFFFFFFFFFFFFFFFFFFFFFFFFFFFFF0000000000000000000000000000000000000000FFFFFFFF000000000000000000000000000000000000000000000000
310
0000000000FFFF000000000000000000000000000000000000000000000000000000000000FF00000000000000000000000000000000000000000000000000000000000000FF00000000000000000000000000000000000000000000000000000000000000FF00000000000000000000000000000000000000000000000000
310
000000000000FF00000000000000000000000000000000000000000000000000000000000000FF00000000000000000000000000000000000000000000000000000000000000FF00000000000000000000000000000000000000000000000000000000000000FF000000000000000000000000000000000000000000000000
310
00000000000000FF000000000000000000000000000000000000000000000000000000000000000000000000000000000000000000000000
102
{BLKREFS
331
262
331
290
331
2A0
331
2AB
331
2B6
331
2C1
331
2D1
331
2E3
331
301
102
}
1001
ACAD
1000
DesignCenter Data
1002
{
1070
     1
1070
     4
1002
}
  0
BLOCK_RECORD
  5
29B
330
1
100
AcDbSymbolTableRecord
100
AcDbBlockTableRecord
  2
*D27
340
0
  0
BLOCK_RECORD
  5
2A6
330
1
100
AcDbSymbolTableRecord
100
AcDbBlockTableRecord
  2
*D28
340
0
  0
BLOCK_RECORD
  5
2B1
330
1
100
AcDbSymbolTableRecord
100
AcDbBlockTableRecord
  2
*D29
340
0
  0
BLOCK_RECORD
  5
2BC
330
1
100
AcDbSymbolTableRecord
100
AcDbBlockTableRecord
  2
*D30
340
0
  0
BLOCK_RECORD
  5
2CC
330
1
100
AcDbSymbolTableRecord
100
AcDbBlockTableRecord
  2
*D31
340
0
  0
BLOCK_RECORD
  5
2DE
330
1
100
AcDbSymbolTableRecord
100
AcDbBlockTableRecord
  2
*D33
340
0
  0
BLOCK_RECORD
  5
2E9
330
1
100
AcDbSymbolTableRecord
100
AcDbBlockTableRecord
  2
*D34
340
0
  0
ENDTAB
  0
ENDSEC
  0
SECTION
  2
BLOCKS
  0
BLOCK
  5
D
330
A
100
AcDbEntity
  8
0
100
AcDbBlockBegin
  2
*MODEL_SPACE
 70
     0
 10
0.0
 20
0.0
 30
0.0
  3
*MODEL_SPACE
  1

  0
ENDBLK
  5
E
330
A
100
AcDbEntity
  8
0
100
AcDbBlockEnd
  0
BLOCK
  5
F
330
B
100
AcDbEntity
 67
     1
  8
0
100
AcDbBlockBegin
  2
*PAPER_SPACE
 70
     0
 10
0.0
 20
0.0
 30
0.0
  3
*PAPER_SPACE
  1

  0
ENDBLK
  5
10
330
B
100
AcDbEntity
 67
     1
  8
0
100
AcDbBlockEnd
  0
BLOCK
  5
251
330
250
100
AcDbEntity
  8
0
100
AcDbBlockBegin
  2
DIML
 70
     0
 10
0.0
 20
0.0
 30
0.0
  3
DIML
  1

  0
LINE
  5
252
330
250
100
AcDbEntity
  8
0
 62
     0
100
AcDbLine
 10
0.0
 20
0.0000000000000071
 30
0.0
 11
0.0
 21
2.0
 31
0.0
  0
LINE
  5
253
330
250
100
AcDbEntity
  8
0
 62
     0
100
AcDbLine
 10
0.0
 20
-1.0
 30
0.0
 11
0.0
 21
0.0000000000000071
 31
0.0
  0
LINE
  5
254
330
250
100
AcDbEntity
  8
0
 62
     0
100
AcDbLine
 10
-1.0
 20
0.0
 30
0.0
 11
1.0
 21
0.0
 31
0.0
  0
LWPOLYLINE
  5
255
330
250
100
AcDbEntity
  8
0
370
     0
100
AcDbPolyline
 90
        2
 70
   129
 43
0.2
 10
-0.1000000000000014
 20
0.0
 42
1.0
 10
0.1000000000000014
 20
0.0
 42
1.0
  0
ENDBLK
  5
256
330
250
100
AcDbEntity
  8
0
100
AcDbBlockEnd
  0
BLOCK
  5
258
330
257
100
AcDbEntity
  8
0
100
AcDbBlockBegin
  2
DIMR
 70
     0
 10
0.0
 20
0.0
 30
0.0
  3
DIMR
  1

  0
LINE
  5
259
330
257
100
AcDbEntity
  8
0
 62
     0
100
AcDbLine
 10
1.000000000000007
 20
-0.0000000000000213
 30
0.0
 11
-0.9999999999999928
 21
0.0000000000000213
 31
0.0
  0
LINE
  5
25A
330
257
100
AcDbEntity
  8
0
 62
     0
100
AcDbLine
 10
0.0000000000000071
 20
1.000000000000021
 30
0.0
 11
0.0
 21
0.0
 31
0.0
  0
LINE
  5
25B
330
257
100
AcDbEntity
  8
0
 62
     0
100
AcDbLine
 10
0.0
 20
0.0
 30
0.0
 11
0.0000000000000071
 21
-1.999999999999978
 31
0.0
  0
LWPOLYLINE
  5
25C
330
257
100
AcDbEntity
  8
0
370
     0
100
AcDbPolyline
 90
        2
 70
   129
 43
0.2
 10
-0.0999999999999943
 20
0.0
 42
1.0
 10
0.1000000000000085
 20
0.0
 42
1.0
  0
ENDBLK
  5
25D
330
257
100
AcDbEntity
  8
0
100
AcDbBlockEnd
  0
BLOCK
  5
29C
330
29B
100
AcDbEntity
  8
0
370
     0
100
AcDbBlockBegin
  2
*D27
 70
     1
 10
0.0
 20
0.0
 30
0.0
  3
*D27
  1

  0
LINE
  5
29E
330
29B
100
AcDbEntity
  8
A-031_DimExt
 62
     0
370
    -2
100
AcDbLine
 10
197.0335591250952
 20
368.507855
 30
0.0
 11
511.0312327461484
 21
368.507855
 31
0.0
  0
INSERT
  5
29F
330
29B
100
AcDbEntity
  8
A-031_DimExt
 62
     0
370
    -2
100
AcDbBlockReference
  2
DIML
 10
187.0335591250952
 20
368.507855
 30
0.0
 41
10.0
 42
10.0
 43
10.0
 50
180.0
  0
INSERT
  5
2A0
330
29B
100
AcDbEntity
  8
A-031_DimExt
 62
     0
370
    -2
100
AcDbBlockReference
  2
DIMR
 10
521.0312327461483
 20
368.507855
 30
0.0
 41
10.0
 42
10.0
 43
10.0
  0
MTEXT
  5
2A1
330
29B
100
AcDbEntity
  8
A-031_DimExt
 62
     0
370
     0
100
AcDbMText
 10
354.0323959356218
 20
383.6759222268908
 30
0.0
 40
20.0
 41
0.0
 71
     5
 72
     1
  1
\A1;334
  7
helvetica regular
 73
     1
 44
1.0
1001
ACAD
1000
MTEXTBEGIN
1070
    73
1070
     1
1070
    44
1040
1.0
1070
    74
1070
     0
1000
MTEXTEND
  0
POINT
  5
2A2
330
29B
100
AcDbEntity
  8
Defpoints
 62
     0
370
     0
100
AcDbPoint
 10
187.0335591250952
 20
208.6302299899883
 30
0.0
  0
POINT
  5
2A3
330
29B
100
AcDbEntity
  8
Defpoints
 62
     0
370
     0
100
AcDbPoint
 10
521.0312327461483
 20
208.6302309994178
 30
0.0
  0
POINT
  5
2A4
330
29B
100
AcDbEntity
  8
Defpoints
 62
     0
370
     0
100
AcDbPoint
 10
521.0312327461483
 20
368.507855
 30
0.0
  0
ENDBLK
  5
29D
330
29B
100
AcDbEntity
  8
0
370
     0
100
AcDbBlockEnd
  0
BLOCK
  5
2A7
330
2A6
100
AcDbEntity
  8
0
370
     0
100
AcDbBlockBegin
  2
*D28
 70
     1
 10
0.0
 20
0.0
 30
0.0
  3
*D28
  1

  0
LINE
  5
2A9
330
2A6
100
AcDbEntity
  8
A-031_DimExt
 62
     0
370
    -2
100
AcDbLine
 10
574.0006714086564
 20
368.5078549999998
 30
0.0
 11
604.0233024893843
 21
368.5078549999998
 31
0.0
  0
INSERT
  5
2AA
330
2A6
100
AcDbEntity
  8
A-031_DimExt
 62
     0
370
    -2
100
AcDbBlockReference
  2
DIML
 10
564.0006714086564
 20
368.5078549999998
 30
0.0
 41
10.0
 42
10.0
 43
10.0
 50
180.0
  0
INSERT
  5
2AB
330
2A6
100
AcDbEntity
  8
A-031_DimExt
 62
     0
370
    -2
100
AcDbBlockReference
  2
DIMR
 10
614.0233024893842
 20
368.5078549999998
 30
0.0
 41
10.0
 42
10.0
 43
10.0
  0
MTEXT
  5
2AC
330
2A6
100
AcDbEntity
  8
A-031_DimExt
 62
     0
370
     0
100
AcDbMText
 10
589.0119869490204
 20
383.6759222268906
 30
0.0
 40
20.0
 41
0.0
 71
     5
 72
     1
  1
\A1;50
  7
helvetica regular
 73
     1
 44
1.0
1001
ACAD
1000
MTEXTBEGIN
1070
    73
1070
     1
1070
    44
1040
1.0
1070
    74
1070
     0
1000
MTEXTEND
  0
POINT
  5
2AD
330
2A6
100
AcDbEntity
  8
Defpoints
 62
     0
370
     0
100
AcDbPoint
 10
564.0006714086564
 20
305.9871283794974
 30
0.0
  0
POINT
  5
2AE
330
2A6
100
AcDbEntity
  8
Defpoints
 62
     0
370
     0
100
AcDbPoint
 10
614.0233024893842
 20
305.6220341425468
 30
0.0
  0
POINT
  5
2AF
330
2A6
100
AcDbEntity
  8
Defpoints
 62
     0
370
     0
100
AcDbPoint
 10
614.0233024893842
 20
368.5078549999998
 30
0.0
  0
ENDBLK
  5
2A8
330
2A6
100
AcDbEntity
  8
0
370
     0
100
AcDbBlockEnd
  0
BLOCK
  5
2B2
330
2B1
100
AcDbEntity
  8
0
370
     0
100
AcDbBlockBegin
  2
*D29
 70
     1
 10
0.0
 20
0.0
 30
0.0
  3
*D29
  1

  0
LINE
  5
2B4
330
2B1
100
AcDbEntity
  8
A-031_DimExt
 62
     0
370
    -2
100
AcDbLine
 10
147.0335591250952
 20
108.5078550000001
 30
0.0
 11
147.0335591250952
 21
198.6302299899882
 31
0.0
  0
INSERT
  5
2B5
330
2B1
100
AcDbEntity
  8
A-031_DimExt
 62
     0
370
    -2
100
AcDbBlockReference
  2
DIML
 10
147.0335591250952
 20
98.50785500000011
 30
0.0
 41
10.0
 42
10.0
 43
10.0
 50
270.0
  0
INSERT
  5
2B6
330
2B1
100
AcDbEntity
  8
A-031_DimExt
 62
     0
370
    -2
100
AcDbBlockReference
  2
DIMR
 10
147.0335591250952
 20
208.6302299899883
 30
0.0
 41
10.0
 42
10.0
 43
10.0
 50
90.0
  0
MTEXT
  5
2B7
330
2B1
100
AcDbEntity
  8
A-031_DimExt
 62
     0
370
     0
100
AcDbMText
 10
131.8654918982044
 20
153.5690424949942
 30
0.0
 40
20.0
 41
0.0
 71
     5
 72
     1
  1
\A1;110
  7
helvetica regular
 11
0.0000000000000001
 21
1.0
 31
0.0
 73
     1
 44
1.0
1001
ACAD
1000
MTEXTBEGIN
1070
    73
1070
     1
1070
    44
1040
1.0
1070
    74
1070
     0
1000
MTEXTEND
  0
POINT
  5
2B8
330
2B1
100
AcDbEntity
  8
Defpoints
 62
     0
370
     0
100
AcDbPoint
 10
282.3132783129274
 20
98.50785500000007
 30
0.0
  0
POINT
  5
2B9
330
2B1
100
AcDbEntity
  8
Defpoints
 62
     0
370
     0
100
AcDbPoint
 10
187.0335591250952
 20
208.6302299899883
 30
0.0
  0
POINT
  5
2BA
330
2B1
100
AcDbEntity
  8
Defpoints
 62
     0
370
     0
100
AcDbPoint
 10
147.0335591250952
 20
208.6302299899883
 30
0.0
  0
ENDBLK
  5
2B3
330
2B1
100
AcDbEntity
  8
0
370
     0
100
AcDbBlockEnd
  0
BLOCK
  5
2BD
330
2BC
100
AcDbEntity
  8
0
370
     0
100
AcDbBlockBegin
  2
*D30
 70
     1
 10
0.0
 20
0.0
 30
0.0
  3
*D30
  1

  0
LINE
  5
2BF
330
2BC
100
AcDbEntity
  8
A-031_DimExt
 62
     0
370
    -2
100
AcDbLine
 10
107.0335591250952
 20
108.5078550000001
 30
0.0
 11
107.0335591250952
 21
318.5078550000001
 31
0.0
  0
INSERT
  5
2C0
330
2BC
100
AcDbEntity
  8
A-031_DimExt
 62
     0
370
    -2
100
AcDbBlockReference
  2
DIML
 10
107.0335591250952
 20
98.50785500000014
 30
0.0
 41
10.0
 42
10.0
 43
10.0
 50
270.0
  0
INSERT
  5
2C1
330
2BC
100
AcDbEntity
  8
A-031_DimExt
 62
     0
370
    -2
100
AcDbBlockReference
  2
DIMR
 10
107.0335591250952
 20
328.5078550000001
 30
0.0
 41
10.0
 42
10.0
 43
10.0
 50
90.0
  0
MTEXT
  5
2C2
330
2BC
100
AcDbEntity
  8
A-031_DimExt
 62
     0
370
     0
100
AcDbMText
 10
91.86549189820444
 20
213.5078550000002
 30
0.0
 40
20.0
 41
0.0
 71
     5
 72
     1
  1
\A1;230
  7
helvetica regular
 11
0.0000000000000001
 21
1.0
 31
0.0
 73
     1
 44
1.0
1001
ACAD
1000
MTEXTBEGIN
1070
    73
1070
     1
1070
    44
1040
1.0
1070
    74
1070
     0
1000
MTEXTEND
  0
POINT
  5
2C3
330
2BC
100
AcDbEntity
  8
Defpoints
 62
     0
370
     0
100
AcDbPoint
 10
353.9281474815731
 20
98.50785500000007
 30
0.0
  0
POINT
  5
2C4
330
2BC
100
AcDbEntity
  8
Defpoints
 62
     0
370
     0
100
AcDbPoint
 10
353.9281474815731
 20
328.5078550000001
 30
0.0
  0
POINT
  5
2C5
330
2BC
100
AcDbEntity
  8
Defpoints
 62
     0
370
     0
100
AcDbPoint
 10
107.0335591250952
 20
328.5078550000001
 30
0.0
  0
ENDBLK
  5
2BE
330
2BC
100
AcDbEntity
  8
0
370
     0
100
AcDbBlockEnd
  0
BLOCK
  5
2CD
330
2CC
100
AcDbEntity
  8
0
370
     0
100
AcDbBlockBegin
  2
*D31
 70
     1
 10
0.0
 20
0.0
 30
0.0
  3
*D31
  1

  0
LINE
  5
2CF
330
2CC
100
AcDbEntity
  8
A-031_DimExt
 62
     0
370
    -2
100
AcDbLine
 10
418.928147481573
 20
58.50785500000006
 30
0.0
 11
288.928147481573
 21
58.50785500000006
 31
0.0
  0
INSERT
  5
2D0
330
2CC
100
AcDbEntity
  8
A-031_DimExt
 62
     0
370
    -2
100
AcDbBlockReference
  2
DIML
 10
428.928147481573
 20
58.50785500000006
 30
0.0
 41
10.0
 42
10.0
 43
10.0
  0
INSERT
  5
2D1
330
2CC
100
AcDbEntity
  8
A-031_DimExt
 62
     0
370
    -2
100
AcDbBlockReference
  2
DIMR
 10
278.928147481573
 20
58.50785500000006
 30
0.0
 41
10.0
 42
10.0
 43
10.0
 50
180.0
  0
MTEXT
  5
2D2
330
2CC
100
AcDbEntity
  8
A-031_DimExt
 62
     0
370
     0
100
AcDbMText
 10
353.9281474815731
 20
73.67592222689082
 30
0.0
 40
20.0
 41
0.0
 71
     5
 72
     1
  1
\A1;150
  7
helvetica regular
 73
     1
 44
1.0
1001
ACAD
1000
MTEXTBEGIN
1070
    73
1070
     1
1070
    44
1040
1.0
1070
    74
1070
     0
1000
MTEXTEND
  0
POINT
  5
2D3
330
2CC
100
AcDbEntity
  8
Defpoints
 62
     0
370
     0
100
AcDbPoint
 10
428.928147481573
 20
99.65629147173615
 30
0.0
  0
POINT
  5
2D4
330
2CC
100
AcDbEntity
  8
Defpoints
 62
     0
370
     0
100
AcDbPoint
 10
278.928147481573
 20
99.81838869234675
 30
0.0
  0
POINT
  5
2D5
330
2CC
100
AcDbEntity
  8
Defpoints
 62
     0
370
     0
100
AcDbPoint
 10
278.928147481573
 20
58.50785500000006
 30
0.0
  0
ENDBLK
  5
2CE
330
2CC
100
AcDbEntity
  8
0
370
     0
100
AcDbBlockEnd
  0
BLOCK
  5
2DF
330
2DE
100
AcDbEntity
  8
0
370
     0
100
AcDbBlockBegin
  2
*D33
 70
     1
 10
0.0
 20
0.0
 30
0.0
  3
*D33
  1

  0
LINE
  5
2E1
330
2DE
100
AcDbEntity
  8
A-031_DimExt
 62
     0
370
    -2
100
AcDbLine
 10
468.928147481573
 20
18.50785500000006
 30
0.0
 11
238.928147481573
 21
18.50785500000006
 31
0.0
  0
INSERT
  5
2E2
330
2DE
100
AcDbEntity
  8
A-031_DimExt
 62
     0
370
    -2
100
AcDbBlockReference
  2
DIML
 10
478.928147481573
 20
18.50785500000006
 30
0.0
 41
10.0
 42
10.0
 43
10.0
  0
INSERT
  5
2E3
330
2DE
100
AcDbEntity
  8
A-031_DimExt
 62
     0
370
    -2
100
AcDbBlockReference
  2
DIMR
 10
228.928147481573
 20
18.50785500000006
 30
0.0
 41
10.0
 42
10.0
 43
10.0
 50
180.0
  0
MTEXT
  5
2E4
330
2DE
100
AcDbEntity
  8
A-031_DimExt
 62
     0
370
     0
100
AcDbMText
 10
353.9281474815731
 20
33.67592222689082
 30
0.0
 40
20.0
 41
0.0
 71
     5
 72
     1
  1
\A1;250
  7
helvetica regular
 73
     1
 44
1.0
1001
ACAD
1000
MTEXTBEGIN
1070
    73
1070
     1
1070
    44
1040
1.0
1070
    74
1070
     0
1000
MTEXTEND
  0
POINT
  5
2E5
330
2DE
100
AcDbEntity
  8
Defpoints
 62
     0
370
     0
100
AcDbPoint
 10
478.928147481573
 20
206.1641132643033
 30
0.0
  0
POINT
  5
2E6
330
2DE
100
AcDbEntity
  8
Defpoints
 62
     0
370
     0
100
AcDbPoint
 10
228.928147481573
 20
206.3159611066604
 30
0.0
  0
POINT
  5
2E7
330
2DE
100
AcDbEntity
  8
Defpoints
 62
     0
370
     0
100
AcDbPoint
 10
228.928147481573
 20
18.50785500000006
 30
0.0
  0
ENDBLK
  5
2E0
330
2DE
100
AcDbEntity
  8
0
370
     0
100
AcDbBlockEnd
  0
BLOCK
  5
2EA
330
2E9
100
AcDbEntity
  8
0
370
     0
100
AcDbBlockBegin
  2
*D34
 70
     1
 10
0.0
 20
0.0
 30
0.0
  3
*D34
  1

  0
LINE
  5
2FE
330
2E9
100
AcDbEntity
  8
A-031_DimExt
 62
     0
370
    -2
100
AcDbLine
 10
624.0278646120635
 20
58.50785500000005
 30
0.0
 11
634.0278646120634
 21
58.50785500000005
 31
0.0
  0
LINE
  5
2FF
330
2E9
100
AcDbEntity
  8
A-031_DimExt
 62
     0
370
    -2
100
AcDbLine
 10
589.0835449771961
 20
58.50785500000005
 30
0.0
 11
541.6885869940029
 21
58.50785500000005
 31
0.0
  0
LINE
  5
300
330
2E9
100
AcDbEntity
  8
A-031_DimExt
 62
     0
370
    -2
100
AcDbLine
 10
614.0278646120634
 20
58.50785500000005
 30
0.0
 11
599.0835449771962
 21
58.50785500000005
 31
0.0
  0
INSERT
  5
301
330
2E9
100
AcDbEntity
  8
A-031_DimExt
 62
     0
370
    -2
100
AcDbBlockReference
  2
DIMR
 10
614.0278646120634
 20
58.50785500000005
 30
0.0
 41
10.0
 42
10.0
 43
10.0
 50
180.0
  0
INSERT
  5
302
330
2E9
100
AcDbEntity
  8
A-031_DimExt
 62
     0
370
    -2
100
AcDbBlockReference
  2
DIML
 10
599.0835449771962
 20
58.50785500000005
 30
0.0
 41
10.0
 42
10.0
 43
10.0
  0
MTEXT
  5
303
330
2E9
100
AcDbEntity
  8
A-031_DimExt
 62
     0
370
     0
100
AcDbMText
 10
560.3860659855995
 20
73.6759222268908
 30
0.0
 40
20.0
 41
0.0
 71
     5
 72
     1
  1
\A1;15
  7
helvetica regular
 73
     1
 44
1.0
1001
ACAD
1000
MTEXTBEGIN
1070
    73
1070
     1
1070
    44
1040
1.0
1070
    74
1070
     0
1000
MTEXTEND
  0
POINT
  5
304
330
2E9
100
AcDbEntity
  8
Defpoints
 62
     0
370
     0
100
AcDbPoint
 10
599.0835449771962
 20
208.6302309994178
 30
0.0
  0
POINT
  5
305
330
2E9
100
AcDbEntity
  8
Defpoints
 62
     0
370
     0
100
AcDbPoint
 10
614.0278646120634
 20
208.630230999415
 30
0.0
  0
POINT
  5
306
330
2E9
100
AcDbEntity
  8
Defpoints
 62
     0
370
     0
100
AcDbPoint
 10
614.0278646120634
 20
58.50785500000005
 30
0.0
  0
ENDBLK
  5
2EB
330
2E9
100
AcDbEntity
  8
0
370
     0
100
AcDbBlockEnd
  0
ENDSEC
  0
SECTION
  2
ENTITIES
  0
POLYLINE
  5
D8
330
A
100
AcDbEntity
  8
A-001_Pan
100
AcDb2dPolyline
 66
     1
 10
0.0
 20
0.0
 30
0.0
  0
VERTEX
  5
D9
330
D8
100
AcDbEntity
  8
A-001_Pan
100
AcDbVertex
100
AcDb2dVertex
 10
187.0335572538517
 20
208.6302309994178
 30
0.0
  0
VERTEX
  5
DA
330
D8
100
AcDbEntity
  8
A-001_Pan
100
AcDbVertex
100
AcDb2dVertex
 10
222.6350826079236
 20
208.6302309994178
 30
0.0
  0
VERTEX
  5
DB
330
D8
100
AcDbEntity
  8
A-001_Pan
100
AcDbVertex
100
AcDb2dVertex
 10
223.9825379261053
 20
208.5259834809907
 30
0.0
  0
VERTEX
  5
DC
330
D8
100
AcDbEntity
  8
A-001_Pan
100
AcDbVertex
100
AcDb2dVertex
 10
225.4368215677569
 20
208.2158267323127
 30
0.0
  0
VERTEX
  5
DD
330
D8
100
AcDbEntity
  8
A-001_Pan
100
AcDbVertex
100
AcDb2dVertex
 10
226.7868576909815
 20
207.697179948341
 30
0.0
  0
VERTEX
  5
DE
330
D8
100
AcDbEntity
  8
A-001_Pan
100
AcDbVertex
100
AcDb2dVertex
 10
228.0300654907363
 20
206.9700381275152
 30
0.0
  0
VERTEX
  5
DF
330
D8
100
AcDbEntity
  8
A-001_Pan
100
AcDbVertex
100
AcDb2dVertex
 10
229.1716065771069
 20
206.1386487882623
 30
0.0
  0
VERTEX
  5
E0
330
D8
100
AcDbEntity
  8
A-001_Pan
100
AcDbVertex
100
AcDb2dVertex
 10
230.2114909532136
 20
205.1013502187586
 30
0.0
  0
VERTEX
  5
E1
330
D8
100
AcDbEntity
  8
A-001_Pan
100
AcDbVertex
100
AcDb2dVertex
 10
231.0402944858635
 20
203.9598091323879
 30
0.0
  0
VERTEX
  5
E2
330
D8
100
AcDbEntity
  8
A-001_Pan
100
AcDbVertex
100
AcDb2dVertex
 10
231.6631887882623
 20
202.7140155260303
 30
0.0
  0
VERTEX
  5
E3
330
D8
100
AcDbEntity
  8
A-001_Pan
100
AcDbVertex
100
AcDb2dVertex
 10
254.0822520738946
 20
153.5182096430168
 30
0.0
  0
VERTEX
  5
E4
330
D8
100
AcDbEntity
  8
A-001_Pan
100
AcDbVertex
100
AcDb2dVertex
 10
277.7471039643246
 20
101.5180839951272
 30
0.0
  0
VERTEX
  5
E5
330
D8
100
AcDbEntity
  8
A-001_Pan
100
AcDbVertex
100
AcDb2dVertex
 10
278.0572607130026
 20
100.8951896927284
 30
0.0
  0
VERTEX
  5
E6
330
D8
100
AcDbEntity
  8
A-001_Pan
100
AcDbVertex
100
AcDb2dVertex
 10
278.4742457851505
 20
100.2722903887694
 30
0.0
  0
VERTEX
  5
E7
330
D8
100
AcDbEntity
  8
A-001_Pan
100
AcDbVertex
100
AcDb2dVertex
 10
278.9928925691222
 20
99.75364360479762
 30
0.0
  0
VERTEX
  5
E8
330
D8
100
AcDbEntity
  8
A-001_Pan
100
AcDbVertex
100
AcDb2dVertex
 10
279.615791873081
 20
99.33923933769268
 30
0.0
  0
VERTEX
  5
E9
330
D8
100
AcDbEntity
  8
A-001_Pan
100
AcDbVertex
100
AcDb2dVertex
 10
280.2386861754801
 20
99.02650178397188
 30
0.0
  0
VERTEX
  5
EA
330
D8
100
AcDbEntity
  8
A-001_Pan
100
AcDbVertex
100
AcDb2dVertex
 10
280.8615804778788
 20
98.7163450352939
 30
0.0
  0
VERTEX
  5
EB
330
D8
100
AcDbEntity
  8
A-001_Pan
100
AcDbVertex
100
AcDb2dVertex
 10
281.5861364921015
 20
98.61209751686681
 30
0.0
  0
VERTEX
  5
EC
330
D8
100
AcDbEntity
  8
A-001_Pan
100
AcDbVertex
100
AcDb2dVertex
 10
282.3132783129274
 20
98.50785500000007
 30
0.0
  0
VERTEX
  5
ED
330
D8
100
AcDbEntity
  8
A-001_Pan
100
AcDbVertex
100
AcDb2dVertex
 10
353.9281474815731
 20
98.50785500000007
 30
0.0
  0
VERTEX
  5
EE
330
D8
100
AcDbEntity
  8
A-001_Pan
100
AcDbVertex
100
AcDb2dVertex
 10
425.7515116870726
 20
98.50785500000007
 30
0.0
  0
VERTEX
  5
EF
330
D8
100
AcDbEntity
  8
A-001_Pan
100
AcDbVertex
100
AcDb2dVertex
 10
426.4786535078985
 20
98.61209751686681
 30
0.0
  0
VERTEX
  5
F0
330
D8
100
AcDbEntity
  8
A-001_Pan
100
AcDbVertex
100
AcDb2dVertex
 10
427.2057953287244
 20
98.7163450352939
 30
0.0
  0
VERTEX
  5
F1
330
D8
100
AcDbEntity
  8
A-001_Pan
100
AcDbVertex
100
AcDb2dVertex
 10
427.8286896311231
 20
99.02650178397188
 30
0.0
  0
VERTEX
  5
F2
330
D8
100
AcDbEntity
  8
A-001_Pan
100
AcDbVertex
100
AcDb2dVertex
 10
428.4515839335218
 20
99.33923933769268
 30
0.0
  0
VERTEX
  5
F3
330
D8
100
AcDbEntity
  8
A-001_Pan
100
AcDbVertex
100
AcDb2dVertex
 10
429.0744782359206
 20
99.75364360479762
 30
0.0
  0
VERTEX
  5
F4
330
D8
100
AcDbEntity
  8
A-001_Pan
100
AcDbVertex
100
AcDb2dVertex
 10
429.5931300214527
 20
100.2722903887694
 30
0.0
  0
VERTEX
  5
F5
330
D8
100
AcDbEntity
  8
A-001_Pan
100
AcDbVertex
100
AcDb2dVertex
 10
430.0075292869975
 20
100.8951896927284
 30
0.0
  0
VERTEX
  5
F6
330
D8
100
AcDbEntity
  8
A-001_Pan
100
AcDbVertex
100
AcDb2dVertex
 10
430.3176860356754
 20
101.5180839951272
 30
0.0
  0
VERTEX
  5
F7
330
D8
100
AcDbEntity
  8
A-001_Pan
100
AcDbVertex
100
AcDb2dVertex
 10
453.9825379261053
 20
153.5182096430168
 30
0.0
  0
VERTEX
  5
F8
330
D8
100
AcDbEntity
  8
A-001_Pan
100
AcDbVertex
100
AcDb2dVertex
 10
476.4016012117376
 20
202.7140155260303
 30
0.0
  0
VERTEX
  5
F9
330
D8
100
AcDbEntity
  8
A-001_Pan
100
AcDbVertex
100
AcDb2dVertex
 10
477.0244955141364
 20
203.9598091323879
 30
0.0
  0
VERTEX
  5
FA
330
D8
100
AcDbEntity
  8
A-001_Pan
100
AcDbVertex
100
AcDb2dVertex
 10
477.8558848533892
 20
205.1013502187586
 30
0.0
  0
VERTEX
  5
FB
330
D8
100
AcDbEntity
  8
A-001_Pan
100
AcDbVertex
100
AcDb2dVertex
 10
478.8931834228929
 20
206.1386487882623
 30
0.0
  0
VERTEX
  5
FC
330
D8
100
AcDbEntity
  8
A-001_Pan
100
AcDbVertex
100
AcDb2dVertex
 10
480.0347245092637
 20
206.9700381275152
 30
0.0
  0
VERTEX
  5
FD
330
D8
100
AcDbEntity
  8
A-001_Pan
100
AcDbVertex
100
AcDb2dVertex
 10
481.2805181156214
 20
207.697179948341
 30
0.0
  0
VERTEX
  5
FE
330
D8
100
AcDbEntity
  8
A-001_Pan
100
AcDbVertex
100
AcDb2dVertex
 10
482.630554238846
 20
208.2158267323127
 30
0.0
  0
VERTEX
  5
FF
330
D8
100
AcDbEntity
  8
A-001_Pan
100
AcDbVertex
100
AcDb2dVertex
 10
484.0822520738946
 20
208.5259834809907
 30
0.0
  0
VERTEX
  5
100
330
D8
100
AcDbEntity
  8
A-001_Pan
100
AcDbVertex
100
AcDb2dVertex
 10
485.4322881971192
 20
208.6302309994178
 30
0.0
  0
VERTEX
  5
101
330
D8
100
AcDbEntity
  8
A-001_Pan
100
AcDbVertex
100
AcDb2dVertex
 10
521.0312327461483
 20
208.6302309994178
 30
0.0
  0
VERTEX
  5
102
330
D8
100
AcDbEntity
  8
A-001_Pan
100
AcDbVertex
100
AcDb2dVertex
 10
520.5125809606163
 20
210.1861763528933
 30
0.0
  0
VERTEX
  5
103
330
D8
100
AcDbEntity
  8
A-001_Pan
100
AcDbVertex
100
AcDb2dVertex
 10
519.8896866582174
 20
211.848955031399
 30
0.0
  0
VERTEX
  5
104
330
D8
100
AcDbEntity
  8
A-001_Pan
100
AcDbVertex
100
AcDb2dVertex
 10
519.3710398742457
 20
213.4049003848745
 30
0.0
  0
VERTEX
  5
105
330
D8
100
AcDbEntity
  8
A-001_Pan
100
AcDbVertex
100
AcDb2dVertex
 10
518.7481455718468
 20
215.0650932567771
 30
0.0
  0
VERTEX
  5
106
330
D8
100
AcDbEntity
  8
A-001_Pan
100
AcDbVertex
100
AcDb2dVertex
 10
518.1252462678878
 20
216.6210386102526
 30
0.0
  0
VERTEX
  5
107
330
D8
100
AcDbEntity
  8
A-001_Pan
100
AcDbVertex
100
AcDb2dVertex
 10
517.502351965489
 20
218.1795697703313
 30
0.0
  0
VERTEX
  5
108
330
D8
100
AcDbEntity
  8
A-001_Pan
100
AcDbVertex
100
AcDb2dVertex
 10
516.7752101446633
 20
219.839762642234
 30
0.0
  0
VERTEX
  5
109
330
D8
100
AcDbEntity
  8
A-001_Pan
100
AcDbVertex
100
AcDb2dVertex
 10
516.1549016488675
 20
221.3957079957096
 30
0.0
  0
VERTEX
  5
10A
330
D8
100
AcDbEntity
  8
A-001_Pan
100
AcDbVertex
100
AcDb2dVertex
 10
515.5320073464688
 20
222.9542391557881
 30
0.0
  0
VERTEX
  5
10B
330
D8
100
AcDbEntity
  8
A-001_Pan
100
AcDbVertex
100
AcDb2dVertex
 10
514.8048605240826
 20
224.5101845092637
 30
0.0
  0
VERTEX
  5
10C
330
D8
100
AcDbEntity
  8
A-001_Pan
100
AcDbVertex
100
AcDb2dVertex
 10
514.0777187032568
 20
226.0661298627393
 30
0.0
  0
VERTEX
  5
10D
330
D8
100
AcDbEntity
  8
A-001_Pan
100
AcDbVertex
100
AcDb2dVertex
 10
513.3505768824311
 20
227.6246610228179
 30
0.0
  0
VERTEX
  5
10E
330
D8
100
AcDbEntity
  8
A-001_Pan
100
AcDbVertex
100
AcDb2dVertex
 10
512.6260208682083
 20
229.1806063762934
 30
0.0
  0
VERTEX
  5
10F
330
D8
100
AcDbEntity
  8
A-001_Pan
100
AcDbVertex
100
AcDb2dVertex
 10
511.8988790473825
 20
230.7365517297689
 30
0.0
  0
VERTEX
  5
110
330
D8
100
AcDbEntity
  8
A-001_Pan
100
AcDbVertex
100
AcDb2dVertex
 10
511.0674897081296
 20
232.2950828898477
 30
0.0
  0
VERTEX
  5
111
330
D8
100
AcDbEntity
  8
A-001_Pan
100
AcDbVertex
100
AcDb2dVertex
 10
510.3412131572117
 20
233.7467807248962
 30
0.0
  0
VERTEX
  5
112
330
D8
100
AcDbEntity
  8
A-001_Pan
100
AcDbVertex
100
AcDb2dVertex
 10
509.5115443546541
 20
235.3053118849749
 30
0.0
  0
VERTEX
  5
113
330
D8
100
AcDbEntity
  8
A-001_Pan
100
AcDbVertex
100
AcDb2dVertex
 10
508.6801550154013
 20
236.8612572384504
 30
0.0
  0
VERTEX
  5
114
330
D8
100
AcDbEntity
  8
A-001_Pan
100
AcDbVertex
100
AcDb2dVertex
 10
507.8513514827514
 20
238.315540880102
 30
0.0
  0
VERTEX
  5
115
330
D8
100
AcDbEntity
  8
A-001_Pan
100
AcDbVertex
100
AcDb2dVertex
 10
507.0199621434987
 20
239.8714862335777
 30
0.0
  0
VERTEX
  5
116
330
D8
100
AcDbEntity
  8
A-001_Pan
100
AcDbVertex
100
AcDb2dVertex
 10
506.1885728042459
 20
241.3231890701865
 30
0.0
  0
VERTEX
  5
117
330
D8
100
AcDbEntity
  8
A-001_Pan
100
AcDbVertex
100
AcDb2dVertex
 10
505.2555267547292
 20
242.6732251934111
 30
0.0
  0
VERTEX
  5
118
330
D8
100
AcDbEntity
  8
A-001_Pan
100
AcDbVertex
100
AcDb2dVertex
 10
504.4241374154766
 20
244.1275088350627
 30
0.0
  0
VERTEX
  5
119
330
D8
100
AcDbEntity
  8
A-001_Pan
100
AcDbVertex
100
AcDb2dVertex
 10
503.4910863643998
 20
245.5792066701111
 30
0.0
  0
VERTEX
  5
11A
330
D8
100
AcDbEntity
  8
A-001_Pan
100
AcDbVertex
100
AcDb2dVertex
 10
502.5580353133229
 20
247.0334903117628
 30
0.0
  0
VERTEX
  5
11B
330
D8
100
AcDbEntity
  8
A-001_Pan
100
AcDbVertex
100
AcDb2dVertex
 10
501.6223984556431
 20
248.4851931483715
 30
0.0
  0
VERTEX
  5
11C
330
D8
100
AcDbEntity
  8
A-001_Pan
100
AcDbVertex
100
AcDb2dVertex
 10
500.6893474045664
 20
249.9394767900233
 30
0.0
  0
VERTEX
  5
11D
330
D8
100
AcDbEntity
  8
A-001_Pan
100
AcDbVertex
100
AcDb2dVertex
 10
499.7545758167943
 20
251.3911746250718
 30
0.0
  0
VERTEX
  5
11E
330
D8
100
AcDbEntity
  8
A-001_Pan
100
AcDbVertex
100
AcDb2dVertex
 10
498.8206644973699
 20
252.7412107482965
 30
0.0
  0
VERTEX
  5
11F
330
D8
100
AcDbEntity
  8
A-001_Pan
100
AcDbVertex
100
AcDb2dVertex
 10
497.7833659278662
 20
254.1954943899481
 30
0.0
  0
VERTEX
  5
120
330
D8
100
AcDbEntity
  8
A-001_Pan
100
AcDbVertex
100
AcDb2dVertex
 10
496.7460673583623
 20
255.5429497081298
 30
0.0
  0
VERTEX
  5
121
330
D8
100
AcDbEntity
  8
A-001_Pan
100
AcDbVertex
100
AcDb2dVertex
 10
495.8104305006826
 20
256.9972333497814
 30
0.0
  0
VERTEX
  5
122
330
D8
100
AcDbEntity
  8
A-001_Pan
100
AcDbVertex
100
AcDb2dVertex
 10
494.773136932739
 20
258.347269473006
 30
0.0
  0
VERTEX
  5
123
330
D8
100
AcDbEntity
  8
A-001_Pan
100
AcDbVertex
100
AcDb2dVertex
 10
493.7358383632352
 20
259.6947247911877
 30
0.0
  0
VERTEX
  5
124
330
D8
100
AcDbEntity
  8
A-001_Pan
100
AcDbVertex
100
AcDb2dVertex
 10
492.6968192570361
 20
261.0447609144123
 30
0.0
  0
VERTEX
  5
125
330
D8
100
AcDbEntity
  8
A-001_Pan
100
AcDbVertex
100
AcDb2dVertex
 10
491.5544129007577
 20
262.3947970376369
 30
0.0
  0
VERTEX
  5
126
330
D8
100
AcDbEntity
  8
A-001_Pan
100
AcDbVertex
100
AcDb2dVertex
 10
490.517114331254
 20
263.7422473542585
 30
0.0
  0
VERTEX
  5
127
330
D8
100
AcDbEntity
  8
A-001_Pan
100
AcDbVertex
100
AcDb2dVertex
 10
489.3755732448833
 20
265.0922884790433
 30
0.0
  0
VERTEX
  5
128
330
D8
100
AcDbEntity
  8
A-001_Pan
100
AcDbVertex
100
AcDb2dVertex
 10
488.3382746753794
 20
266.338077083841
 30
0.0
  0
VERTEX
  5
129
330
D8
100
AcDbEntity
  8
A-001_Pan
100
AcDbVertex
100
AcDb2dVertex
 10
487.1967285874488
 20
267.6881132070655
 30
0.0
  0
VERTEX
  5
12A
330
D8
100
AcDbEntity
  8
A-001_Pan
100
AcDbVertex
100
AcDb2dVertex
 10
486.0551875010783
 20
268.9339068134234
 30
0.0
  0
VERTEX
  5
12B
330
D8
100
AcDbEntity
  8
A-001_Pan
100
AcDbVertex
100
AcDb2dVertex
 10
484.9136414131474
 20
270.2813571300449
 30
0.0
  0
VERTEX
  5
12C
330
D8
100
AcDbEntity
  8
A-001_Pan
100
AcDbVertex
100
AcDb2dVertex
 10
483.7721003267767
 20
271.5271507364026
 30
0.0
  0
VERTEX
  5
12D
330
D8
100
AcDbEntity
  8
A-001_Pan
100
AcDbVertex
100
AcDb2dVertex
 10
482.630554238846
 20
272.7729393412003
 30
0.0
  0
VERTEX
  5
12E
330
D8
100
AcDbEntity
  8
A-001_Pan
100
AcDbVertex
100
AcDb2dVertex
 10
481.3847656340484
 20
274.018727945998
 30
0.0
  0
VERTEX
  5
12F
330
D8
100
AcDbEntity
  8
A-001_Pan
100
AcDbVertex
100
AcDb2dVertex
 10
480.2432195461177
 20
275.2645215523557
 30
0.0
  0
VERTEX
  5
130
330
D8
100
AcDbEntity
  8
A-001_Pan
100
AcDbVertex
100
AcDb2dVertex
 10
478.9974309413201
 20
276.5103101571533
 30
0.0
  0
VERTEX
  5
131
330
D8
100
AcDbEntity
  8
A-001_Pan
100
AcDbVertex
100
AcDb2dVertex
 10
477.8558848533892
 20
277.6518562450841
 30
0.0
  0
VERTEX
  5
132
330
D8
100
AcDbEntity
  8
A-001_Pan
100
AcDbVertex
100
AcDb2dVertex
 10
476.6100962485916
 20
278.8976448498818
 30
0.0
  0
VERTEX
  5
133
330
D8
100
AcDbEntity
  8
A-001_Pan
100
AcDbVertex
100
AcDb2dVertex
 10
475.3643026422339
 20
280.0391909378125
 30
0.0
  0
VERTEX
  5
134
330
D8
100
AcDbEntity
  8
A-001_Pan
100
AcDbVertex
100
AcDb2dVertex
 10
474.1185140374363
 20
281.28497954261
 30
0.0
  0
VERTEX
  5
135
330
D8
100
AcDbEntity
  8
A-001_Pan
100
AcDbVertex
100
AcDb2dVertex
 10
472.8727204310784
 20
282.4265256305409
 30
0.0
  0
VERTEX
  5
136
330
D8
100
AcDbEntity
  8
A-001_Pan
100
AcDbVertex
100
AcDb2dVertex
 10
471.5235445762015
 20
283.5680667169115
 30
0.0
  0
VERTEX
  5
137
330
D8
100
AcDbEntity
  8
A-001_Pan
100
AcDbVertex
100
AcDb2dVertex
 10
470.2794815096593
 20
284.7096128048421
 30
0.0
  0
VERTEX
  5
138
330
D8
100
AcDbEntity
  8
A-001_Pan
100
AcDbVertex
100
AcDb2dVertex
 10
468.9294403848746
 20
285.8511538912129
 30
0.0
  0
VERTEX
  5
139
330
D8
100
AcDbEntity
  8
A-001_Pan
100
AcDbVertex
100
AcDb2dVertex
 10
467.6836517800769
 20
286.9926999791436
 30
0.0
  0
VERTEX
  5
13A
330
D8
100
AcDbEntity
  8
A-001_Pan
100
AcDbVertex
100
AcDb2dVertex
 10
466.3336156568522
 20
288.0299985486474
 30
0.0
  0
VERTEX
  5
13B
330
D8
100
AcDbEntity
  8
A-001_Pan
100
AcDbVertex
100
AcDb2dVertex
 10
464.9861603386705
 20
289.171539635018
 30
0.0
  0
VERTEX
  5
13C
330
D8
100
AcDbEntity
  8
A-001_Pan
100
AcDbVertex
100
AcDb2dVertex
 10
463.7403717338728
 20
290.2088382045217
 30
0.0
  0
VERTEX
  5
13D
330
D8
100
AcDbEntity
  8
A-001_Pan
100
AcDbVertex
100
AcDb2dVertex
 10
462.3903356106482
 20
291.2487225806286
 30
0.0
  0
VERTEX
  5
13E
330
D8
100
AcDbEntity
  8
A-001_Pan
100
AcDbVertex
100
AcDb2dVertex
 10
460.9369122373442
 20
292.2860161485722
 30
0.0
  0
VERTEX
  5
13F
330
D8
100
AcDbEntity
  8
A-001_Pan
100
AcDbVertex
100
AcDb2dVertex
 10
459.5885966508149
 20
293.3233147180759
 30
0.0
  0
VERTEX
  5
140
330
D8
100
AcDbEntity
  8
A-001_Pan
100
AcDbVertex
100
AcDb2dVertex
 10
458.2385605275903
 20
294.3606132875796
 30
0.0
  0
VERTEX
  5
141
330
D8
100
AcDbEntity
  8
A-001_Pan
100
AcDbVertex
100
AcDb2dVertex
 10
456.8885244043657
 20
295.4004926621264
 30
0.0
  0
VERTEX
  5
142
330
D8
100
AcDbEntity
  8
A-001_Pan
100
AcDbVertex
100
AcDb2dVertex
 10
455.436821567757
 20
296.3335437132032
 30
0.0
  0
VERTEX
  5
143
330
D8
100
AcDbEntity
  8
A-001_Pan
100
AcDbVertex
100
AcDb2dVertex
 10
454.0867854445323
 20
297.3708422827069
 30
0.0
  0
VERTEX
  5
144
330
D8
100
AcDbEntity
  8
A-001_Pan
100
AcDbVertex
100
AcDb2dVertex
 10
452.6350876094838
 20
298.3064791403867
 30
0.0
  0
VERTEX
  5
145
330
D8
100
AcDbEntity
  8
A-001_Pan
100
AcDbVertex
100
AcDb2dVertex
 10
451.1808039678321
 20
299.2395301914635
 30
0.0
  0
VERTEX
  5
146
330
D8
100
AcDbEntity
  8
A-001_Pan
100
AcDbVertex
100
AcDb2dVertex
 10
449.7265203261806
 20
300.2768237594072
 30
0.0
  0
VERTEX
  5
147
330
D8
100
AcDbEntity
  8
A-001_Pan
100
AcDbVertex
100
AcDb2dVertex
 10
448.2748174895717
 20
301.10821309866
 30
0.0
  0
VERTEX
  5
148
330
D8
100
AcDbEntity
  8
A-001_Pan
100
AcDbVertex
100
AcDb2dVertex
 10
446.8213991178281
 20
302.0412641497367
 30
0.0
  0
VERTEX
  5
149
330
D8
100
AcDbEntity
  8
A-001_Pan
100
AcDbVertex
100
AcDb2dVertex
 10
445.3688360128716
 20
302.9769010074166
 30
0.0
  0
VERTEX
  5
14A
330
D8
100
AcDbEntity
  8
A-001_Pan
100
AcDbVertex
100
AcDb2dVertex
 10
443.9145523712199
 20
303.8057045400663
 30
0.0
  0
VERTEX
  5
14B
330
D8
100
AcDbEntity
  8
A-001_Pan
100
AcDbVertex
100
AcDb2dVertex
 10
442.4628545361714
 20
304.7413413977463
 30
0.0
  0
VERTEX
  5
14C
330
D8
100
AcDbEntity
  8
A-001_Pan
100
AcDbVertex
100
AcDb2dVertex
 10
440.9043233760928
 20
305.5701449303959
 30
0.0
  0
VERTEX
  5
14D
330
D8
100
AcDbEntity
  8
A-001_Pan
100
AcDbVertex
100
AcDb2dVertex
 10
439.4526205394841
 20
306.4015342696488
 30
0.0
  0
VERTEX
  5
14E
330
D8
100
AcDbEntity
  8
A-001_Pan
100
AcDbVertex
100
AcDb2dVertex
 10
437.9992021677401
 20
307.2303378022986
 30
0.0
  0
VERTEX
  5
14F
330
D8
100
AcDbEntity
  8
A-001_Pan
100
AcDbVertex
100
AcDb2dVertex
 10
436.4423915443567
 20
308.0617271415514
 30
0.0
  0
VERTEX
  5
150
330
D8
100
AcDbEntity
  8
A-001_Pan
100
AcDbVertex
100
AcDb2dVertex
 10
434.8864461908814
 20
308.7888689623771
 30
0.0
  0
VERTEX
  5
151
330
D8
100
AcDbEntity
  8
A-001_Pan
100
AcDbVertex
100
AcDb2dVertex
 10
433.4321625492296
 20
309.6176724950269
 30
0.0
  0
VERTEX
  5
152
330
D8
100
AcDbEntity
  8
A-001_Pan
100
AcDbVertex
100
AcDb2dVertex
 10
431.876217195754
 20
310.3448143158528
 30
0.0
  0
VERTEX
  5
153
330
D8
100
AcDbEntity
  8
A-001_Pan
100
AcDbVertex
100
AcDb2dVertex
 10
430.3176860356754
 20
311.1762036551055
 30
0.0
  0
VERTEX
  5
154
330
D8
100
AcDbEntity
  8
A-001_Pan
100
AcDbVertex
100
AcDb2dVertex
 10
428.7617406821998
 20
311.9007596693283
 30
0.0
  0
VERTEX
  5
155
330
D8
100
AcDbEntity
  8
A-001_Pan
100
AcDbVertex
100
AcDb2dVertex
 10
427.2057953287244
 20
312.6279014901542
 30
0.0
  0
VERTEX
  5
156
330
D8
100
AcDbEntity
  8
A-001_Pan
100
AcDbVertex
100
AcDb2dVertex
 10
425.6481244369933
 20
313.2507957925529
 30
0.0
  0
VERTEX
  5
157
330
D8
100
AcDbEntity
  8
A-001_Pan
100
AcDbVertex
100
AcDb2dVertex
 10
424.0913188151701
 20
313.9779376133787
 30
0.0
  0
VERTEX
  5
158
330
D8
100
AcDbEntity
  8
A-001_Pan
100
AcDbVertex
100
AcDb2dVertex
 10
422.5353734616945
 20
314.7050794342046
 30
0.0
  0
VERTEX
  5
159
330
D8
100
AcDbEntity
  8
A-001_Pan
100
AcDbVertex
100
AcDb2dVertex
 10
420.875180589792
 20
315.3279737366033
 30
0.0
  0
VERTEX
  5
15A
330
D8
100
AcDbEntity
  8
A-001_Pan
100
AcDbVertex
100
AcDb2dVertex
 10
419.3166494297131
 20
315.9508730405622
 30
0.0
  0
VERTEX
  5
15B
330
D8
100
AcDbEntity
  8
A-001_Pan
100
AcDbVertex
100
AcDb2dVertex
 10
417.7607040762378
 20
316.5737673429612
 30
0.0
  0
VERTEX
  5
15C
330
D8
100
AcDbEntity
  8
A-001_Pan
100
AcDbVertex
100
AcDb2dVertex
 10
416.100511204335
 20
317.1940758387569
 30
0.0
  0
VERTEX
  5
15D
330
D8
100
AcDbEntity
  8
A-001_Pan
100
AcDbVertex
100
AcDb2dVertex
 10
414.5419800442565
 20
317.8169701411557
 30
0.0
  0
VERTEX
  5
15E
330
D8
100
AcDbEntity
  8
A-001_Pan
100
AcDbVertex
100
AcDb2dVertex
 10
412.881787172354
 20
318.3382077332908
 30
0.0
  0
VERTEX
  5
15F
330
D8
100
AcDbEntity
  8
A-001_Pan
100
AcDbVertex
100
AcDb2dVertex
 10
411.2215943004512
 20
318.9585162290865
 30
0.0
  0
VERTEX
  5
160
330
D8
100
AcDbEntity
  8
A-001_Pan
100
AcDbVertex
100
AcDb2dVertex
 10
409.6656489469757
 20
319.4797488196613
 30
0.0
  0
VERTEX
  5
161
330
D8
100
AcDbEntity
  8
A-001_Pan
100
AcDbVertex
100
AcDb2dVertex
 10
408.0037305368177
 20
319.9983956036332
 30
0.0
  0
VERTEX
  5
162
330
D8
100
AcDbEntity
  8
A-001_Pan
100
AcDbVertex
100
AcDb2dVertex
 10
406.3426773965674
 20
320.517047389165
 30
0.0
  0
VERTEX
  5
163
330
D8
100
AcDbEntity
  8
A-001_Pan
100
AcDbVertex
100
AcDb2dVertex
 10
404.7867320430921
 20
321.0356941731369
 30
0.0
  0
VERTEX
  5
164
330
D8
100
AcDbEntity
  8
A-001_Pan
100
AcDbVertex
100
AcDb2dVertex
 10
403.1265391711896
 20
321.5543459586687
 30
0.0
  0
VERTEX
  5
165
330
D8
100
AcDbEntity
  8
A-001_Pan
100
AcDbVertex
100
AcDb2dVertex
 10
401.4663462992868
 20
321.9687452242137
 30
0.0
  0
VERTEX
  5
166
330
D8
100
AcDbEntity
  8
A-001_Pan
100
AcDbVertex
100
AcDb2dVertex
 10
399.8035676207812
 20
322.4873920081855
 30
0.0
  0
VERTEX
  5
167
330
D8
100
AcDbEntity
  8
A-001_Pan
100
AcDbVertex
100
AcDb2dVertex
 10
398.1433797504388
 20
322.9043820818936
 30
0.0
  0
VERTEX
  5
168
330
D8
100
AcDbEntity
  8
A-001_Pan
100
AcDbVertex
100
AcDb2dVertex
 10
396.4831868785363
 20
323.3187813474382
 30
0.0
  0
VERTEX
  5
169
330
D8
100
AcDbEntity
  8
A-001_Pan
100
AcDbVertex
100
AcDb2dVertex
 10
394.8229940066336
 20
323.7331856145432
 30
0.0
  0
VERTEX
  5
16A
330
D8
100
AcDbEntity
  8
A-001_Pan
100
AcDbVertex
100
AcDb2dVertex
 10
393.1628011347311
 20
324.1501706866911
 30
0.0
  0
VERTEX
  5
16B
330
D8
100
AcDbEntity
  8
A-001_Pan
100
AcDbVertex
100
AcDb2dVertex
 10
391.3983607444015
 20
324.4603274353691
 30
0.0
  0
VERTEX
  5
16C
330
D8
100
AcDbEntity
  8
A-001_Pan
100
AcDbVertex
100
AcDb2dVertex
 10
389.7355820658958
 20
324.8747267009139
 30
0.0
  0
VERTEX
  5
16D
330
D8
100
AcDbEntity
  8
A-001_Pan
100
AcDbVertex
100
AcDb2dVertex
 10
388.0753891939933
 20
325.1874692561949
 30
0.0
  0
VERTEX
  5
16E
330
D8
100
AcDbEntity
  8
A-001_Pan
100
AcDbVertex
100
AcDb2dVertex
 10
386.4151963220907
 20
325.4976260048728
 30
0.0
  0
VERTEX
  5
16F
330
D8
100
AcDbEntity
  8
A-001_Pan
100
AcDbVertex
100
AcDb2dVertex
 10
384.7550034501881
 20
325.8103635585936
 30
0.0
  0
VERTEX
  5
170
330
D8
100
AcDbEntity
  8
A-001_Pan
100
AcDbVertex
100
AcDb2dVertex
 10
382.9905680614186
 20
326.1205203072716
 30
0.0
  0
VERTEX
  5
171
330
D8
100
AcDbEntity
  8
A-001_Pan
100
AcDbVertex
100
AcDb2dVertex
 10
381.330375189516
 20
326.4332578609924
 30
0.0
  0
VERTEX
  5
172
330
D8
100
AcDbEntity
  8
A-001_Pan
100
AcDbVertex
100
AcDb2dVertex
 10
379.6701823176135
 20
326.6391670912435
 30
0.0
  0
VERTEX
  5
173
330
D8
100
AcDbEntity
  8
A-001_Pan
100
AcDbVertex
100
AcDb2dVertex
 10
377.9057419272839
 20
326.8476621280975
 30
0.0
  0
VERTEX
  5
174
330
D8
100
AcDbEntity
  8
A-001_Pan
100
AcDbVertex
100
AcDb2dVertex
 10
376.2429632487784
 20
327.1603996818182
 30
0.0
  0
VERTEX
  5
175
330
D8
100
AcDbEntity
  8
A-001_Pan
100
AcDbVertex
100
AcDb2dVertex
 10
374.4785228584488
 20
327.3663089120693
 30
0.0
  0
VERTEX
  5
176
330
D8
100
AcDbEntity
  8
A-001_Pan
100
AcDbVertex
100
AcDb2dVertex
 10
372.8183299865462
 20
327.4705564304962
 30
0.0
  0
VERTEX
  5
177
330
D8
100
AcDbEntity
  8
A-001_Pan
100
AcDbVertex
100
AcDb2dVertex
 10
371.1581371146436
 20
327.6790514673503
 30
0.0
  0
VERTEX
  5
178
330
D8
100
AcDbEntity
  8
A-001_Pan
100
AcDbVertex
100
AcDb2dVertex
 10
369.3937017258741
 20
327.8849606976013
 30
0.0
  0
VERTEX
  5
179
330
D8
100
AcDbEntity
  8
A-001_Pan
100
AcDbVertex
100
AcDb2dVertex
 10
367.7335088539715
 20
327.9892032144681
 30
0.0
  0
VERTEX
  5
17A
330
D8
100
AcDbEntity
  8
A-001_Pan
100
AcDbVertex
100
AcDb2dVertex
 10
365.969068463642
 20
328.0934507328951
 30
0.0
  0
VERTEX
  5
17B
330
D8
100
AcDbEntity
  8
A-001_Pan
100
AcDbVertex
100
AcDb2dVertex
 10
364.3088755917393
 20
328.197698251322
 30
0.0
  0
VERTEX
  5
17C
330
D8
100
AcDbEntity
  8
A-001_Pan
100
AcDbVertex
100
AcDb2dVertex
 10
362.5444352014097
 20
328.3019457697491
 30
0.0
  0
VERTEX
  5
17D
330
D8
100
AcDbEntity
  8
A-001_Pan
100
AcDbVertex
100
AcDb2dVertex
 10
360.8842423295071
 20
328.403607481573
 30
0.0
  0
VERTEX
  5
17E
330
D8
100
AcDbEntity
  8
A-001_Pan
100
AcDbVertex
100
AcDb2dVertex
 10
359.1198069407377
 20
328.403607481573
 30
0.0
  0
VERTEX
  5
17F
330
D8
100
AcDbEntity
  8
A-001_Pan
100
AcDbVertex
100
AcDb2dVertex
 10
357.4570282622322
 20
328.5078550000001
 30
0.0
  0
VERTEX
  5
180
330
D8
100
AcDbEntity
  8
A-001_Pan
100
AcDbVertex
100
AcDb2dVertex
 10
355.6925878719026
 20
328.5078550000001
 30
0.0
  0
VERTEX
  5
181
330
D8
100
AcDbEntity
  8
A-001_Pan
100
AcDbVertex
100
AcDb2dVertex
 10
353.9281474815731
 20
328.5078550000001
 30
0.0
  0
VERTEX
  5
182
330
D8
100
AcDbEntity
  8
A-001_Pan
100
AcDbVertex
100
AcDb2dVertex
 10
352.2679546096704
 20
328.5078550000001
 30
0.0
  0
VERTEX
  5
183
330
D8
100
AcDbEntity
  8
A-001_Pan
100
AcDbVertex
100
AcDb2dVertex
 10
350.5035192209009
 20
328.5078550000001
 30
0.0
  0
VERTEX
  5
184
330
D8
100
AcDbEntity
  8
A-001_Pan
100
AcDbVertex
100
AcDb2dVertex
 10
348.8433263489985
 20
328.403607481573
 30
0.0
  0
VERTEX
  5
185
330
D8
100
AcDbEntity
  8
A-001_Pan
100
AcDbVertex
100
AcDb2dVertex
 10
347.0788859586689
 20
328.403607481573
 30
0.0
  0
VERTEX
  5
186
330
D8
100
AcDbEntity
  8
A-001_Pan
100
AcDbVertex
100
AcDb2dVertex
 10
345.4186930867662
 20
328.3019457697491
 30
0.0
  0
VERTEX
  5
187
330
D8
100
AcDbEntity
  8
A-001_Pan
100
AcDbVertex
100
AcDb2dVertex
 10
343.6542526964366
 20
328.197698251322
 30
0.0
  0
VERTEX
  5
188
330
D8
100
AcDbEntity
  8
A-001_Pan
100
AcDbVertex
100
AcDb2dVertex
 10
341.9940598245341
 20
328.0934507328951
 30
0.0
  0
VERTEX
  5
189
330
D8
100
AcDbEntity
  8
A-001_Pan
100
AcDbVertex
100
AcDb2dVertex
 10
340.2296194342045
 20
327.9892032144681
 30
0.0
  0
VERTEX
  5
18A
330
D8
100
AcDbEntity
  8
A-001_Pan
100
AcDbVertex
100
AcDb2dVertex
 10
338.566845757259
 20
327.8849606976013
 30
0.0
  0
VERTEX
  5
18B
330
D8
100
AcDbEntity
  8
A-001_Pan
100
AcDbVertex
100
AcDb2dVertex
 10
336.8024053669295
 20
327.6790514673503
 30
0.0
  0
VERTEX
  5
18C
330
D8
100
AcDbEntity
  8
A-001_Pan
100
AcDbVertex
100
AcDb2dVertex
 10
335.1422124950269
 20
327.4705564304962
 30
0.0
  0
VERTEX
  5
18D
330
D8
100
AcDbEntity
  8
A-001_Pan
100
AcDbVertex
100
AcDb2dVertex
 10
333.3777721046974
 20
327.3663089120693
 30
0.0
  0
VERTEX
  5
18E
330
D8
100
AcDbEntity
  8
A-001_Pan
100
AcDbVertex
100
AcDb2dVertex
 10
331.7175792327948
 20
327.1603996818182
 30
0.0
  0
VERTEX
  5
18F
330
D8
100
AcDbEntity
  8
A-001_Pan
100
AcDbVertex
100
AcDb2dVertex
 10
330.0573863608921
 20
326.8476621280975
 30
0.0
  0
VERTEX
  5
190
330
D8
100
AcDbEntity
  8
A-001_Pan
100
AcDbVertex
100
AcDb2dVertex
 10
328.2929459705626
 20
326.6391670912435
 30
0.0
  0
VERTEX
  5
191
330
D8
100
AcDbEntity
  8
A-001_Pan
100
AcDbVertex
100
AcDb2dVertex
 10
326.63275309866
 20
326.4332578609924
 30
0.0
  0
VERTEX
  5
192
330
D8
100
AcDbEntity
  8
A-001_Pan
100
AcDbVertex
100
AcDb2dVertex
 10
324.9725652283175
 20
326.1205203072716
 30
0.0
  0
VERTEX
  5
193
330
D8
100
AcDbEntity
  8
A-001_Pan
100
AcDbVertex
100
AcDb2dVertex
 10
323.2081248379879
 20
325.8103635585936
 30
0.0
  0
VERTEX
  5
194
330
D8
100
AcDbEntity
  8
A-001_Pan
100
AcDbVertex
100
AcDb2dVertex
 10
321.5453461594823
 20
325.4976260048728
 30
0.0
  0
VERTEX
  5
195
330
D8
100
AcDbEntity
  8
A-001_Pan
100
AcDbVertex
100
AcDb2dVertex
 10
319.8851532875798
 20
325.1874692561949
 30
0.0
  0
VERTEX
  5
196
330
D8
100
AcDbEntity
  8
A-001_Pan
100
AcDbVertex
100
AcDb2dVertex
 10
318.2249604156771
 20
324.8747267009139
 30
0.0
  0
VERTEX
  5
197
330
D8
100
AcDbEntity
  8
A-001_Pan
100
AcDbVertex
100
AcDb2dVertex
 10
316.4605200253475
 20
324.4603274353691
 30
0.0
  0
VERTEX
  5
198
330
D8
100
AcDbEntity
  8
A-001_Pan
100
AcDbVertex
100
AcDb2dVertex
 10
314.8003271534451
 20
324.1501706866911
 30
0.0
  0
VERTEX
  5
199
330
D8
100
AcDbEntity
  8
A-001_Pan
100
AcDbVertex
100
AcDb2dVertex
 10
313.1401342815423
 20
323.7331856145432
 30
0.0
  0
VERTEX
  5
19A
330
D8
100
AcDbEntity
  8
A-001_Pan
100
AcDbVertex
100
AcDb2dVertex
 10
311.4799464112
 20
323.3187813474382
 30
0.0
  0
VERTEX
  5
19B
330
D8
100
AcDbEntity
  8
A-001_Pan
100
AcDbVertex
100
AcDb2dVertex
 10
309.8171677326944
 20
322.9043820818936
 30
0.0
  0
VERTEX
  5
19C
330
D8
100
AcDbEntity
  8
A-001_Pan
100
AcDbVertex
100
AcDb2dVertex
 10
308.1569748607918
 20
322.4873920081855
 30
0.0
  0
VERTEX
  5
19D
330
D8
100
AcDbEntity
  8
A-001_Pan
100
AcDbVertex
100
AcDb2dVertex
 10
306.6010295073164
 20
321.9687452242137
 30
0.0
  0
VERTEX
  5
19E
330
D8
100
AcDbEntity
  8
A-001_Pan
100
AcDbVertex
100
AcDb2dVertex
 10
304.9408366354136
 20
321.5543459586687
 30
0.0
  0
VERTEX
  5
19F
330
D8
100
AcDbEntity
  8
A-001_Pan
100
AcDbVertex
100
AcDb2dVertex
 10
303.278057956908
 20
321.0356941731369
 30
0.0
  0
VERTEX
  5
1A0
330
D8
100
AcDbEntity
  8
A-001_Pan
100
AcDbVertex
100
AcDb2dVertex
 10
301.7221126034324
 20
320.517047389165
 30
0.0
  0
VERTEX
  5
1A1
330
D8
100
AcDbEntity
  8
A-001_Pan
100
AcDbVertex
100
AcDb2dVertex
 10
300.0619197315298
 20
319.9983956036332
 30
0.0
  0
VERTEX
  5
1A2
330
D8
100
AcDbEntity
  8
A-001_Pan
100
AcDbVertex
100
AcDb2dVertex
 10
298.4017268596273
 20
319.4797488196613
 30
0.0
  0
VERTEX
  5
1A3
330
D8
100
AcDbEntity
  8
A-001_Pan
100
AcDbVertex
100
AcDb2dVertex
 10
296.7415339877246
 20
318.9585162290865
 30
0.0
  0
VERTEX
  5
1A4
330
D8
100
AcDbEntity
  8
A-001_Pan
100
AcDbVertex
100
AcDb2dVertex
 10
295.183002827646
 20
318.3382077332908
 30
0.0
  0
VERTEX
  5
1A5
330
D8
100
AcDbEntity
  8
A-001_Pan
100
AcDbVertex
100
AcDb2dVertex
 10
293.5228099557435
 20
317.8169701411557
 30
0.0
  0
VERTEX
  5
1A6
330
D8
100
AcDbEntity
  8
A-001_Pan
100
AcDbVertex
100
AcDb2dVertex
 10
291.9668646022679
 20
317.1940758387569
 30
0.0
  0
VERTEX
  5
1A7
330
D8
100
AcDbEntity
  8
A-001_Pan
100
AcDbVertex
100
AcDb2dVertex
 10
290.3066717303654
 20
316.5737673429612
 30
0.0
  0
VERTEX
  5
1A8
330
D8
100
AcDbEntity
  8
A-001_Pan
100
AcDbVertex
100
AcDb2dVertex
 10
288.7481405702866
 20
315.9508730405622
 30
0.0
  0
VERTEX
  5
1A9
330
D8
100
AcDbEntity
  8
A-001_Pan
100
AcDbVertex
100
AcDb2dVertex
 10
287.1921952168112
 20
315.3279737366033
 30
0.0
  0
VERTEX
  5
1AA
330
D8
100
AcDbEntity
  8
A-001_Pan
100
AcDbVertex
100
AcDb2dVertex
 10
285.5320023449085
 20
314.7050794342046
 30
0.0
  0
VERTEX
  5
1AB
330
D8
100
AcDbEntity
  8
A-001_Pan
100
AcDbVertex
100
AcDb2dVertex
 10
283.97347118483
 20
313.9779376133787
 30
0.0
  0
VERTEX
  5
1AC
330
D8
100
AcDbEntity
  8
A-001_Pan
100
AcDbVertex
100
AcDb2dVertex
 10
282.4175258313542
 20
313.2507957925529
 30
0.0
  0
VERTEX
  5
1AD
330
D8
100
AcDbEntity
  8
A-001_Pan
100
AcDbVertex
100
AcDb2dVertex
 10
280.8615804778788
 20
312.6279014901542
 30
0.0
  0
VERTEX
  5
1AE
330
D8
100
AcDbEntity
  8
A-001_Pan
100
AcDbVertex
100
AcDb2dVertex
 10
279.3030493178
 20
311.9007596693283
 30
0.0
  0
VERTEX
  5
1AF
330
D8
100
AcDbEntity
  8
A-001_Pan
100
AcDbVertex
100
AcDb2dVertex
 10
277.7471039643246
 20
311.1762036551055
 30
0.0
  0
VERTEX
  5
1B0
330
D8
100
AcDbEntity
  8
A-001_Pan
100
AcDbVertex
100
AcDb2dVertex
 10
276.191158610849
 20
310.3448143158528
 30
0.0
  0
VERTEX
  5
1B1
330
D8
100
AcDbEntity
  8
A-001_Pan
100
AcDbVertex
100
AcDb2dVertex
 10
274.6326274507704
 20
309.6176724950269
 30
0.0
  0
VERTEX
  5
1B2
330
D8
100
AcDbEntity
  8
A-001_Pan
100
AcDbVertex
100
AcDb2dVertex
 10
273.1809296157218
 20
308.7888689623771
 30
0.0
  0
VERTEX
  5
1B3
330
D8
100
AcDbEntity
  8
A-001_Pan
100
AcDbVertex
100
AcDb2dVertex
 10
271.622398455643
 20
308.0617271415514
 30
0.0
  0
VERTEX
  5
1B4
330
D8
100
AcDbEntity
  8
A-001_Pan
100
AcDbVertex
100
AcDb2dVertex
 10
270.0664531021676
 20
307.2303378022986
 30
0.0
  0
VERTEX
  5
1B5
330
D8
100
AcDbEntity
  8
A-001_Pan
100
AcDbVertex
100
AcDb2dVertex
 10
268.612169460516
 20
306.4015342696488
 30
0.0
  0
VERTEX
  5
1B6
330
D8
100
AcDbEntity
  8
A-001_Pan
100
AcDbVertex
100
AcDb2dVertex
 10
267.0562241070403
 20
305.5701449303959
 30
0.0
  0
VERTEX
  5
1B7
330
D8
100
AcDbEntity
  8
A-001_Pan
100
AcDbVertex
100
AcDb2dVertex
 10
265.6045212704316
 20
304.7413413977463
 30
0.0
  0
VERTEX
  5
1B8
330
D8
100
AcDbEntity
  8
A-001_Pan
100
AcDbVertex
100
AcDb2dVertex
 10
264.1502376287801
 20
303.8057045400663
 30
0.0
  0
VERTEX
  5
1B9
330
D8
100
AcDbEntity
  8
A-001_Pan
100
AcDbVertex
100
AcDb2dVertex
 10
262.6959539871285
 20
302.9769010074166
 30
0.0
  0
VERTEX
  5
1BA
330
D8
100
AcDbEntity
  8
A-001_Pan
100
AcDbVertex
100
AcDb2dVertex
 10
261.2442561520798
 20
302.0412641497367
 30
0.0
  0
VERTEX
  5
1BB
330
D8
100
AcDbEntity
  8
A-001_Pan
100
AcDbVertex
100
AcDb2dVertex
 10
259.7899725104281
 20
301.10821309866
 30
0.0
  0
VERTEX
  5
1BC
330
D8
100
AcDbEntity
  8
A-001_Pan
100
AcDbVertex
100
AcDb2dVertex
 10
258.3382746753795
 20
300.2768237594072
 30
0.0
  0
VERTEX
  5
1BD
330
D8
100
AcDbEntity
  8
A-001_Pan
100
AcDbVertex
100
AcDb2dVertex
 10
256.8839860321678
 20
299.2395301914635
 30
0.0
  0
VERTEX
  5
1BE
330
D8
100
AcDbEntity
  8
A-001_Pan
100
AcDbVertex
100
AcDb2dVertex
 10
255.4322881971192
 20
298.3064791403867
 30
0.0
  0
VERTEX
  5
1BF
330
D8
100
AcDbEntity
  8
A-001_Pan
100
AcDbVertex
100
AcDb2dVertex
 10
253.9780045554678
 20
297.3708422827069
 30
0.0
  0
VERTEX
  5
1C0
330
D8
100
AcDbEntity
  8
A-001_Pan
100
AcDbVertex
100
AcDb2dVertex
 10
252.630554238846
 20
296.3335437132032
 30
0.0
  0
VERTEX
  5
1C1
330
D8
100
AcDbEntity
  8
A-001_Pan
100
AcDbVertex
100
AcDb2dVertex
 10
251.1762705971944
 20
295.4004926621264
 30
0.0
  0
VERTEX
  5
1C2
330
D8
100
AcDbEntity
  8
A-001_Pan
100
AcDbVertex
100
AcDb2dVertex
 10
249.8262294724096
 20
294.3606132875796
 30
0.0
  0
VERTEX
  5
1C3
330
D8
100
AcDbEntity
  8
A-001_Pan
100
AcDbVertex
100
AcDb2dVertex
 10
248.4787791557881
 20
293.3233147180759
 30
0.0
  0
VERTEX
  5
1C4
330
D8
100
AcDbEntity
  8
A-001_Pan
100
AcDbVertex
100
AcDb2dVertex
 10
247.1287430325635
 20
292.2860161485722
 30
0.0
  0
VERTEX
  5
1C5
330
D8
100
AcDbEntity
  8
A-001_Pan
100
AcDbVertex
100
AcDb2dVertex
 10
245.6744593909119
 20
291.2487225806286
 30
0.0
  0
VERTEX
  5
1C6
330
D8
100
AcDbEntity
  8
A-001_Pan
100
AcDbVertex
100
AcDb2dVertex
 10
244.3270040727302
 20
290.2088382045217
 30
0.0
  0
VERTEX
  5
1C7
330
D8
100
AcDbEntity
  8
A-001_Pan
100
AcDbVertex
100
AcDb2dVertex
 10
243.0812154679325
 20
289.171539635018
 30
0.0
  0
VERTEX
  5
1C8
330
D8
100
AcDbEntity
  8
A-001_Pan
100
AcDbVertex
100
AcDb2dVertex
 10
241.7311743431477
 20
288.0299985486474
 30
0.0
  0
VERTEX
  5
1C9
330
D8
100
AcDbEntity
  8
A-001_Pan
100
AcDbVertex
100
AcDb2dVertex
 10
240.3811382199232
 20
286.9926999791436
 30
0.0
  0
VERTEX
  5
1CA
330
D8
100
AcDbEntity
  8
A-001_Pan
100
AcDbVertex
100
AcDb2dVertex
 10
239.0336879033014
 20
285.8511538912129
 30
0.0
  0
VERTEX
  5
1CB
330
D8
100
AcDbEntity
  8
A-001_Pan
100
AcDbVertex
100
AcDb2dVertex
 10
237.7878942969438
 20
284.7096128048421
 30
0.0
  0
VERTEX
  5
1CC
330
D8
100
AcDbEntity
  8
A-001_Pan
100
AcDbVertex
100
AcDb2dVertex
 10
236.542105692146
 20
283.5680667169115
 30
0.0
  0
VERTEX
  5
1CD
330
D8
100
AcDbEntity
  8
A-001_Pan
100
AcDbVertex
100
AcDb2dVertex
 10
235.1920695689216
 20
282.4265256305409
 30
0.0
  0
VERTEX
  5
1CE
330
D8
100
AcDbEntity
  8
A-001_Pan
100
AcDbVertex
100
AcDb2dVertex
 10
233.9462759625637
 20
281.28497954261
 30
0.0
  0
VERTEX
  5
1CF
330
D8
100
AcDbEntity
  8
A-001_Pan
100
AcDbVertex
100
AcDb2dVertex
 10
232.7004873577662
 20
280.0391909378125
 30
0.0
  0
VERTEX
  5
1D0
330
D8
100
AcDbEntity
  8
A-001_Pan
100
AcDbVertex
100
AcDb2dVertex
 10
231.4572795580114
 20
278.8976448498818
 30
0.0
  0
VERTEX
  5
1D1
330
D8
100
AcDbEntity
  8
A-001_Pan
100
AcDbVertex
100
AcDb2dVertex
 10
230.2114909532136
 20
277.6518562450841
 30
0.0
  0
VERTEX
  5
1D2
330
D8
100
AcDbEntity
  8
A-001_Pan
100
AcDbVertex
100
AcDb2dVertex
 10
229.069944865283
 20
276.5103101571533
 30
0.0
  0
VERTEX
  5
1D3
330
D8
100
AcDbEntity
  8
A-001_Pan
100
AcDbVertex
100
AcDb2dVertex
 10
227.8241562604853
 20
275.2645215523557
 30
0.0
  0
VERTEX
  5
1D4
330
D8
100
AcDbEntity
  8
A-001_Pan
100
AcDbVertex
100
AcDb2dVertex
 10
226.6826101725546
 20
274.018727945998
 30
0.0
  0
VERTEX
  5
1D5
330
D8
100
AcDbEntity
  8
A-001_Pan
100
AcDbVertex
100
AcDb2dVertex
 10
225.4368215677569
 20
272.7729393412003
 30
0.0
  0
VERTEX
  5
1D6
330
D8
100
AcDbEntity
  8
A-001_Pan
100
AcDbVertex
100
AcDb2dVertex
 10
224.2952754798261
 20
271.5271507364026
 30
0.0
  0
VERTEX
  5
1D7
330
D8
100
AcDbEntity
  8
A-001_Pan
100
AcDbVertex
100
AcDb2dVertex
 10
223.1537343934556
 20
270.2813571300449
 30
0.0
  0
VERTEX
  5
1D8
330
D8
100
AcDbEntity
  8
A-001_Pan
100
AcDbVertex
100
AcDb2dVertex
 10
222.0121883055248
 20
268.9339068134234
 30
0.0
  0
VERTEX
  5
1D9
330
D8
100
AcDbEntity
  8
A-001_Pan
100
AcDbVertex
100
AcDb2dVertex
 10
220.8706472191541
 20
267.6881132070655
 30
0.0
  0
VERTEX
  5
1DA
330
D8
100
AcDbEntity
  8
A-001_Pan
100
AcDbVertex
100
AcDb2dVertex
 10
219.7291011312233
 20
266.338077083841
 30
0.0
  0
VERTEX
  5
1DB
330
D8
100
AcDbEntity
  8
A-001_Pan
100
AcDbVertex
100
AcDb2dVertex
 10
218.6892217566768
 20
265.0922884790433
 30
0.0
  0
VERTEX
  5
1DC
330
D8
100
AcDbEntity
  8
A-001_Pan
100
AcDbVertex
100
AcDb2dVertex
 10
217.5476756687459
 20
263.7422473542585
 30
0.0
  0
VERTEX
  5
1DD
330
D8
100
AcDbEntity
  8
A-001_Pan
100
AcDbVertex
100
AcDb2dVertex
 10
216.5103770992423
 20
262.3947970376369
 30
0.0
  0
VERTEX
  5
1DE
330
D8
100
AcDbEntity
  8
A-001_Pan
100
AcDbVertex
100
AcDb2dVertex
 10
215.3688360128717
 20
261.0447609144123
 30
0.0
  0
VERTEX
  5
1DF
330
D8
100
AcDbEntity
  8
A-001_Pan
100
AcDbVertex
100
AcDb2dVertex
 10
214.3315374433679
 20
259.6947247911877
 30
0.0
  0
VERTEX
  5
1E0
330
D8
100
AcDbEntity
  8
A-001_Pan
100
AcDbVertex
100
AcDb2dVertex
 10
213.291653067261
 20
258.347269473006
 30
0.0
  0
VERTEX
  5
1E1
330
D8
100
AcDbEntity
  8
A-001_Pan
100
AcDbVertex
100
AcDb2dVertex
 10
212.2543594993175
 20
256.9972333497814
 30
0.0
  0
VERTEX
  5
1E2
330
D8
100
AcDbEntity
  8
A-001_Pan
100
AcDbVertex
100
AcDb2dVertex
 10
211.3213084482407
 20
255.5429497081298
 30
0.0
  0
VERTEX
  5
1E3
330
D8
100
AcDbEntity
  8
A-001_Pan
100
AcDbVertex
100
AcDb2dVertex
 10
210.2840098787368
 20
254.1954943899481
 30
0.0
  0
VERTEX
  5
1E4
330
D8
100
AcDbEntity
  8
A-001_Pan
100
AcDbVertex
100
AcDb2dVertex
 10
209.24412550263
 20
252.7412107482965
 30
0.0
  0
VERTEX
  5
1E5
330
D8
100
AcDbEntity
  8
A-001_Pan
100
AcDbVertex
100
AcDb2dVertex
 10
208.3110794531133
 20
251.3911746250718
 30
0.0
  0
VERTEX
  5
1E6
330
D8
100
AcDbEntity
  8
A-001_Pan
100
AcDbVertex
100
AcDb2dVertex
 10
207.3780284020367
 20
249.9394767900233
 30
0.0
  0
VERTEX
  5
1E7
330
D8
100
AcDbEntity
  8
A-001_Pan
100
AcDbVertex
100
AcDb2dVertex
 10
206.4423915443569
 20
248.4851931483715
 30
0.0
  0
VERTEX
  5
1E8
330
D8
100
AcDbEntity
  8
A-001_Pan
100
AcDbVertex
100
AcDb2dVertex
 10
205.50934049328
 20
247.0334903117628
 30
0.0
  0
VERTEX
  5
1E9
330
D8
100
AcDbEntity
  8
A-001_Pan
100
AcDbVertex
100
AcDb2dVertex
 10
204.5737036356003
 20
245.5792066701111
 30
0.0
  0
VERTEX
  5
1EA
330
D8
100
AcDbEntity
  8
A-001_Pan
100
AcDbVertex
100
AcDb2dVertex
 10
203.6406525845235
 20
244.1275088350627
 30
0.0
  0
VERTEX
  5
1EB
330
D8
100
AcDbEntity
  8
A-001_Pan
100
AcDbVertex
100
AcDb2dVertex
 10
202.8092682468308
 20
242.6732251934111
 30
0.0
  0
VERTEX
  5
1EC
330
D8
100
AcDbEntity
  8
A-001_Pan
100
AcDbVertex
100
AcDb2dVertex
 10
201.8762171957541
 20
241.3231890701865
 30
0.0
  0
VERTEX
  5
1ED
330
D8
100
AcDbEntity
  8
A-001_Pan
100
AcDbVertex
100
AcDb2dVertex
 10
201.0448278565013
 20
239.7672437167108
 30
0.0
  0
VERTEX
  5
1EE
330
D8
100
AcDbEntity
  8
A-001_Pan
100
AcDbVertex
100
AcDb2dVertex
 10
200.2160243238514
 20
238.315540880102
 30
0.0
  0
VERTEX
  5
1EF
330
D8
100
AcDbEntity
  8
A-001_Pan
100
AcDbVertex
100
AcDb2dVertex
 10
199.3846349845987
 20
236.8612572384504
 30
0.0
  0
VERTEX
  5
1F0
330
D8
100
AcDbEntity
  8
A-001_Pan
100
AcDbVertex
100
AcDb2dVertex
 10
198.5558314519489
 20
235.3053118849749
 30
0.0
  0
VERTEX
  5
1F1
330
D8
100
AcDbEntity
  8
A-001_Pan
100
AcDbVertex
100
AcDb2dVertex
 10
197.724442112696
 20
233.7467807248962
 30
0.0
  0
VERTEX
  5
1F2
330
D8
100
AcDbEntity
  8
A-001_Pan
100
AcDbVertex
100
AcDb2dVertex
 10
196.9973002918703
 20
232.2950828898477
 30
0.0
  0
VERTEX
  5
1F3
330
D8
100
AcDbEntity
  8
A-001_Pan
100
AcDbVertex
100
AcDb2dVertex
 10
196.1684967592204
 20
230.7365517297689
 30
0.0
  0
VERTEX
  5
1F4
330
D8
100
AcDbEntity
  8
A-001_Pan
100
AcDbVertex
100
AcDb2dVertex
 10
195.4413549383947
 20
229.1806063762934
 30
0.0
  0
VERTEX
  5
1F5
330
D8
100
AcDbEntity
  8
A-001_Pan
100
AcDbVertex
100
AcDb2dVertex
 10
194.7142131175688
 20
227.6246610228179
 30
0.0
  0
VERTEX
  5
1F6
330
D8
100
AcDbEntity
  8
A-001_Pan
100
AcDbVertex
100
AcDb2dVertex
 10
193.9870712967429
 20
226.0661298627393
 30
0.0
  0
VERTEX
  5
1F7
330
D8
100
AcDbEntity
  8
A-001_Pan
100
AcDbVertex
100
AcDb2dVertex
 10
193.2625102809601
 20
224.5101845092637
 30
0.0
  0
VERTEX
  5
1F8
330
D8
100
AcDbEntity
  8
A-001_Pan
100
AcDbVertex
100
AcDb2dVertex
 10
192.5353684601343
 20
222.9542391557881
 30
0.0
  0
VERTEX
  5
1F9
330
D8
100
AcDbEntity
  8
A-001_Pan
100
AcDbVertex
100
AcDb2dVertex
 10
191.9124741577355
 20
221.3957079957096
 30
0.0
  0
VERTEX
  5
1FA
330
D8
100
AcDbEntity
  8
A-001_Pan
100
AcDbVertex
100
AcDb2dVertex
 10
191.1853323369096
 20
219.839762642234
 30
0.0
  0
VERTEX
  5
1FB
330
D8
100
AcDbEntity
  8
A-001_Pan
100
AcDbVertex
100
AcDb2dVertex
 10
190.5624380345108
 20
218.1795697703313
 30
0.0
  0
VERTEX
  5
1FC
330
D8
100
AcDbEntity
  8
A-001_Pan
100
AcDbVertex
100
AcDb2dVertex
 10
189.9395437321121
 20
216.6210386102526
 30
0.0
  0
VERTEX
  5
1FD
330
D8
100
AcDbEntity
  8
A-001_Pan
100
AcDbVertex
100
AcDb2dVertex
 10
189.3166494297133
 20
215.0650932567771
 30
0.0
  0
VERTEX
  5
1FE
330
D8
100
AcDbEntity
  8
A-001_Pan
100
AcDbVertex
100
AcDb2dVertex
 10
188.6937501257543
 20
213.4049003848745
 30
0.0
  0
VERTEX
  5
1FF
330
D8
100
AcDbEntity
  8
A-001_Pan
100
AcDbVertex
100
AcDb2dVertex
 10
188.1751033417826
 20
211.744707512972
 30
0.0
  0
VERTEX
  5
200
330
D8
100
AcDbEntity
  8
A-001_Pan
100
AcDbVertex
100
AcDb2dVertex
 10
187.5522090393837
 20
210.1861763528933
 30
0.0
  0
VERTEX
  5
201
330
D8
100
AcDbEntity
  8
A-001_Pan
100
AcDbVertex
100
AcDb2dVertex
 10
187.0335572538517
 20
208.6302309994178
 30
0.0
  0
SEQEND
  5
202
330
D8
100
AcDbEntity
  8
A-001_Pan
  0
LINE
  5
D4
330
A
100
AcDbEntity
  8
A-001_Pan
100
AcDbLine
 10
564.0006714086564
 20
208.6302309994178
 30
0.0
 11
599.0835449771962
 21
208.6302309994178
 31
0.0
  0
LINE
  5
D3
330
A
100
AcDbEntity
  8
A-001_Pan
100
AcDbLine
 10
564.0006714086564
 20
305.9871300025436
 30
0.0
 11
564.0006714086564
 21
208.6302309994178
 31
0.0
  0
LINE
  5
D2
330
A
100
AcDbEntity
  8
A-001_Pan
100
AcDbLine
 10
569.6067251318056
 20
300.4853187962613
 30
0.0
 11
569.6067251318056
 21
208.6302309994178
 31
0.0
  0
SPLINE
  5
31
330
A
100
AcDbEntity
  8
A-001_Pan
  6
HIDDEN
100
AcDbSpline
210
0.0
220
0.0
230
1.0
 70
     8
 71
     3
 72
    17
 73
    13
 74
     0
 42
0.0000000001
 43
0.0000000001
 40
0.0
 40
0.0
 40
0.0
 40
0.0
 40
1.0
 40
1.0
 40
1.0
 40
2.0
 40
2.0
 40
2.0
 40
3.0
 40
3.0
 40
3.0
 40
4.0
 40
4.0
 40
4.0
 40
4.0
 10
491.1400104028679
 20
208.6302299899883
 30
0.0
 10
468.3082695193812
 20
264.1428669503513
 30
0.0
 10
414.0198846172587
 20
300.4853191479334
 30
0.0
 10
353.9281486494718
 20
300.4853191479334
 30
0.0
 10
353.9281486494718
 20
300.4853191479334
 30
0.0
 10
353.9281486494718
 20
300.4853191479334
 30
0.0
 10
353.9281486494718
 20
300.4853191479334
 30
0.0
 10
293.9001668353166
 20
300.4853191479334
 30
0.0
 10
239.6953515670077
 20
264.1428669503513
 30
0.0
 10
216.9247802093021
 20
208.6302299899883
 30
0.0
 10
216.9247802093021
 20
208.6302299899883
 30
0.0
 10
216.9247802093021
 20
208.6302299899883
 30
0.0
 10
216.9247802093021
 20
208.6302299899883
 30
0.0
  0
SPLINE
  5
30
330
A
100
AcDbEntity
  8
A-001_Pan
100
AcDbSpline
210
0.0
220
0.0
230
1.0
 70
     9
 71
     3
 72
    44
 73
    40
 74
     0
 42
0.0000000001
 43
0.0000000001
 40
0.0
 40
0.0
 40
0.0
 40
0.0
 40
1.0
 40
1.0
 40
1.0
 40
2.0
 40
2.0
 40
2.0
 40
3.0
 40
3.0
 40
3.0
 40
4.0
 40
4.0
 40
4.0
 40
5.0
 40
5.0
 40
5.0
 40
6.0
 40
6.0
 40
6.0
 40
7.0
 40
7.0
 40
7.0
 40
8.0
 40
8.0
 40
8.0
 40
9.0
 40
9.0
 40
9.0
 40
10.0
 40
10.0
 40
10.0
 40
11.0
 40
11.0
 40
11.0
 40
12.0
 40
12.0
 40
12.0
 40
13.0
 40
13.0
 40
13.0
 40
13.0
 10
498.5105074881939
 20
488.5531800187716
 30
0.0
 10
498.5105074881939
 20
488.5531800187716
 30
0.0
 10
509.1988051901878
 20
482.4310581849519
 30
0.0
 10
509.1988051901878
 20
482.4310581849519
 30
0.0
 10
516.5219174315989
 20
478.1905454258663
 30
0.0
 10
521.031231487075
 20
470.3565384127896
 30
0.0
 10
521.031231487075
 20
461.8780975224687
 30
0.0
 10
521.031231487075
 20
461.8780975224687
 30
0.0
 10
521.031231487075
 20
461.8780975224687
 30
0.0
 10
521.031231487075
 20
461.8780975224687
 30
0.0
 10
521.031231487075
 20
448.9825276366518
 30
0.0
 10
510.5772733768063
 20
438.5259848985336
 30
0.0
 10
497.6791188631394
 20
438.5259848985336
 30
0.0
 10
497.6791188631394
 20
438.5259848985336
 30
0.0
 10
353.9281486494718
 20
438.5259848985336
 30
0.0
 10
353.9281486494718
 20
438.5259848985336
 30
0.0
 10
353.9281486494718
 20
438.5259848985336
 30
0.0
 10
353.9281486494718
 20
438.5259848985336
 30
0.0
 10
353.9281486494718
 20
438.5259848985336
 30
0.0
 10
353.9281486494718
 20
438.5259848985336
 30
0.0
 10
210.3856717490304
 20
438.5259848985336
 30
0.0
 10
210.3856717490304
 20
438.5259848985336
 30
0.0
 10
197.4901018632135
 20
438.5259848985336
 30
0.0
 10
187.0335591250952
 20
448.9825276366518
 30
0.0
 10
187.0335591250952
 20
461.8780975224687
 30
0.0
 10
187.0335591250952
 20
461.8780975224687
 30
0.0
 10
187.0335591250952
 20
461.8780975224687
 30
0.0
 10
187.0335591250952
 20
461.8780975224687
 30
0.0
 10
187.0335591250952
 20
470.3565384127896
 30
0.0
 10
191.5437347231877
 20
478.1905454258663
 30
0.0
 10
198.8659854219823
 20
482.4310581849519
 30
0.0
 10
198.8659854219823
 20
482.4310581849519
 30
0.0
 10
209.556867751826
 20
488.5531800187716
 30
0.0
 10
209.556867751826
 20
488.5531800187716
 30
0.0
 10
209.556867751826
 20
488.5531800187716
 30
0.0
 10
209.556867751826
 20
488.5531800187716
 30
0.0
 10
209.556867751826
 20
488.5531800187716
 30
0.0
 10
209.556867751826
 20
488.5531800187716
 30
0.0
 10
498.5105074881939
 20
488.5531800187716
 30
0.0
 10
498.5105074881939
 20
488.5531800187716
 30
0.0
  0
SPLINE
  5
2F
330
A
100
AcDbEntity
  8
A-001_Pan
  6
HIDDEN
100
AcDbSpline
210
0.0
220
0.0
230
1.0
 70
     8
 71
     3
 72
    35
 73
    31
 74
     0
 42
0.0000000001
 43
0.0000000001
 40
0.0
 40
0.0
 40
0.0
 40
0.0
 40
1.0
 40
1.0
 40
1.0
 40
2.0
 40
2.0
 40
2.0
 40
3.0
 40
3.0
 40
3.0
 40
4.0
 40
4.0
 40
4.0
 40
5.0
 40
5.0
 40
5.0
 40
6.0
 40
6.0
 40
6.0
 40
7.0
 40
7.0
 40
7.0
 40
8.0
 40
8.0
 40
8.0
 40
9.0
 40
9.0
 40
9.0
 40
10.0
 40
10.0
 40
10.0
 40
10.0
 10
353.9281486494718
 20
453.5771344111752
 30
0.0
 10
353.9281486494718
 20
453.5771344111752
 30
0.0
 10
495.7061862710419
 20
453.5771344111752
 30
0.0
 10
495.7061862710419
 20
453.5771344111752
 30
0.0
 10
501.1537202360352
 20
453.5771344111752
 30
0.0
 10
505.5682646036808
 20
457.9916787788213
 30
0.0
 10
505.5682646036808
 20
463.4366281159643
 30
0.0
 10
505.5682646036808
 20
463.4366281159643
 30
0.0
 10
505.5682646036808
 20
463.4366281159643
 30
0.0
 10
505.5682646036808
 20
463.4366281159643
 30
0.0
 10
505.5682646036808
 20
467.9554191402234
 30
0.0
 10
503.7753944184602
 20
472.2855323314389
 30
0.0
 10
500.5851021090549
 20
475.4749630982275
 30
0.0
 10
500.5851021090549
 20
475.4749630982275
 30
0.0
 10
499.2350648287852
 20
476.7207537218843
 30
0.0
 10
499.2350648287852
 20
476.7207537218843
 30
0.0
 10
499.2350648287852
 20
476.7207537218843
 30
0.0
 10
499.2350648287852
 20
476.7207537218843
 30
0.0
 10
499.2350648287852
 20
476.7207537218843
 30
0.0
 10
499.2350648287852
 20
476.7207537218843
 30
0.0
 10
495.0832909592135
 20
480.872527591456
 30
0.0
 10
495.0832909592135
 20
480.872527591456
 30
0.0
 10
493.9383008217033
 20
482.0761026268974
 30
0.0
 10
493.9383008217033
 20
483.9818348948978
 30
0.0
 10
495.0832909592135
 20
485.128548117641
 30
0.0
 10
495.0832909592135
 20
485.128548117641
 30
0.0
 10
498.5105074881939
 20
488.5531800187716
 30
0.0
 10
498.5105074881939
 20
488.5531800187716
 30
0.0
 10
498.5105074881939
 20
488.5531800187716
 30
0.0
 10
498.5105074881939
 20
488.5531800187716
 30
0.0
 10
498.5105074881939
 20
488.5531800187716
 30
0.0
  0
SPLINE
  5
2E
330
A
100
AcDbEntity
  8
A-001_Pan
  6
HIDDEN
100
AcDbSpline
210
0.0
220
0.0
230
1.0
 70
     8
 71
     3
 72
    35
 73
    31
 74
     0
 42
0.0000000001
 43
0.0000000001
 40
0.0
 40
0.0
 40
0.0
 40
0.0
 40
1.0
 40
1.0
 40
1.0
 40
2.0
 40
2.0
 40
2.0
 40
3.0
 40
3.0
 40
3.0
 40
4.0
 40
4.0
 40
4.0
 40
5.0
 40
5.0
 40
5.0
 40
6.0
 40
6.0
 40
6.0
 40
7.0
 40
7.0
 40
7.0
 40
8.0
 40
8.0
 40
8.0
 40
9.0
 40
9.0
 40
9.0
 40
10.0
 40
10.0
 40
10.0
 40
10.0
 10
209.556867751826
 20
488.5531800187716
 30
0.0
 10
209.556867751826
 20
488.5531800187716
 30
0.0
 10
212.9814996529564
 20
485.128548117641
 30
0.0
 10
212.9814996529564
 20
485.128548117641
 30
0.0
 10
214.1282128756998
 20
483.9818348948978
 30
0.0
 10
214.1282128756998
 20
482.0761026268974
 30
0.0
 10
212.9814996529564
 20
480.872527591456
 30
0.0
 10
212.9814996529564
 20
480.872527591456
 30
0.0
 10
208.8297257833846
 20
476.7207537218843
 30
0.0
 10
208.8297257833846
 20
476.7207537218843
 30
0.0
 10
208.8297257833846
 20
476.7207537218843
 30
0.0
 10
208.8297257833846
 20
476.7207537218843
 30
0.0
 10
208.8297257833846
 20
476.7207537218843
 30
0.0
 10
208.8297257833846
 20
476.7207537218843
 30
0.0
 10
207.4796885031152
 20
475.4749630982275
 30
0.0
 10
207.4796885031152
 20
475.4749630982275
 30
0.0
 10
204.2902577363264
 20
472.2855323314389
 30
0.0
 10
202.4991106363388
 20
467.9554191402234
 30
0.0
 10
202.4991106363388
 20
463.4366281159643
 30
0.0
 10
202.4991106363388
 20
463.4366281159643
 30
0.0
 10
202.4991106363388
 20
463.4366281159643
 30
0.0
 10
202.4991106363388
 20
463.4366281159643
 30
0.0
 10
202.4991106363388
 20
457.9916787788213
 30
0.0
 10
206.9136550039849
 20
453.5771344111752
 30
0.0
 10
212.3586043411281
 20
453.5771344111752
 30
0.0
 10
212.3586043411281
 20
453.5771344111752
 30
0.0
 10
353.9281486494718
 20
453.5771344111752
 30
0.0
 10
353.9281486494718
 20
453.5771344111752
 30
0.0
 10
353.9281486494718
 20
453.5771344111752
 30
0.0
 10
353.9281486494718
 20
453.5771344111752
 30
0.0
 10
353.9281486494718
 20
453.5771344111752
 30
0.0
  0
SPLINE
  5
2C
330
A
100
AcDbEntity
  8
A-001_Pan
100
AcDbSpline
210
0.0
220
0.0
230
1.0
 70
     9
 71
     3
 72
    41
 73
    37
 74
     0
 42
0.0000000001
 43
0.0000000001
 40
0.0
 40
0.0
 40
0.0
 40
0.0
 40
1.0
 40
1.0
 40
1.0
 40
2.0
 40
2.0
 40
2.0
 40
3.0
 40
3.0
 40
3.0
 40
4.0
 40
4.0
 40
4.0
 40
5.0
 40
5.0
 40
5.0
 40
6.0
 40
6.0
 40
6.0
 40
7.0
 40
7.0
 40
7.0
 40
8.0
 40
8.0
 40
8.0
 40
9.0
 40
9.0
 40
9.0
 40
10.0
 40
10.0
 40
10.0
 40
11.0
 40
11.0
 40
11.0
 40
12.0
 40
12.0
 40
12.0
 40
12.0
 10
356.5239765533981
 20
228.557710712793
 30
0.0
 10
356.5239765533981
 20
229.0763593680082
 30
0.0
 10
356.315483240172
 20
229.4933459944604
 30
0.0
 10
356.1095745547959
 20
229.8035013364496
 30
0.0
 10
355.9010812415697
 20
230.2179033350516
 30
0.0
 10
355.5909258995805
 20
230.5306433048909
 30
0.0
 10
355.2781859297414
 20
230.736551990267
 30
0.0
 10
354.8637839311393
 20
230.9450453034931
 30
0.0
 10
354.3451352759242
 20
231.049291960106
 30
0.0
 10
353.9281486494718
 20
231.049291960106
 30
0.0
 10
353.5137466508698
 20
231.049291960106
 30
0.0
 10
353.0993446522673
 20
230.9450453034931
 30
0.0
 10
352.6823580258153
 20
230.736551990267
 30
0.0
 10
352.2679560272132
 20
230.5306433048909
 30
0.0
 10
352.0620473418369
 20
230.2179033350516
 30
0.0
 10
351.8535540286111
 20
229.8035013364496
 30
0.0
 10
351.5408140587719
 20
229.4933459944604
 30
0.0
 10
351.439152030009
 20
229.0763593680082
 30
0.0
 10
351.439152030009
 20
228.557710712793
 30
0.0
 10
351.439152030009
 20
228.1433087141906
 30
0.0
 10
351.5408140587719
 20
227.7289067155885
 30
0.0
 10
351.8535540286111
 20
227.3119200891362
 30
0.0
 10
352.0620473418369
 20
227.0017647471472
 30
0.0
 10
352.2679560272132
 20
226.6890247773082
 30
0.0
 10
352.6823580258153
 20
226.3788694353189
 30
0.0
 10
353.0993446522673
 20
226.1703761220929
 30
0.0
 10
353.5137466508698
 20
226.0661294654799
 30
0.0
 10
353.9281486494718
 20
226.0661294654799
 30
0.0
 10
354.3451352759242
 20
226.0661294654799
 30
0.0
 10
354.8637839311393
 20
226.1703761220929
 30
0.0
 10
355.2781859297414
 20
226.3788694353189
 30
0.0
 10
355.5909258995805
 20
226.6890247773082
 30
0.0
 10
355.9010812415697
 20
227.0017647471472
 30
0.0
 10
356.1095745547959
 20
227.3119200891362
 30
0.0
 10
356.315483240172
 20
227.7289067155885
 30
0.0
 10
356.5239765533981
 20
228.1433087141906
 30
0.0
 10
356.5239765533981
 20
228.557710712793
 30
0.0
  0
HATCH
  5
2B
330
A
100
AcDbEntity
  8
A-001_Pan
100
AcDbHatch
 10
0.0
 20
0.0
 30
0.0
210
0.0
220
0.0
230
1.0
  2
SOLID
 70
     1
 71
     0
 91
        1
 92
        3
 72
     0
 73
     1
 93
      112
 10
614.0278646120634
 20
98.5078527314971
 10
614.0278646120634
 20
305.1557416727205
 10
614.0278646120634
 20
306.2972856397639
 10
613.9236179554504
 20
307.4388296068072
 10
613.8193712988372
 20
308.5803735738508
 10
613.6134626134612
 20
309.7219175408943
 10
613.4049693002353
 20
310.8634615079378
 10
613.0948139582462
 20
311.9007588183683
 10
612.6786888744106
 20
313.0448874132618
 10
612.2634253331918
 20
314.0821847236922
 10
611.8490233345895
 20
315.1194820341227
 10
611.3303746793742
 20
316.1567793445532
 10
610.707479367546
 20
317.1940766549835
 10
610.0845840557176
 20
318.1297119366512
 10
609.4616887438892
 20
319.0627625904684
 10
608.7345467754483
 20
319.9983978721359
 10
608.0074048070066
 20
320.8272018693402
 10
607.1786008098024
 20
321.6585904943945
 10
606.3472121847483
 20
322.4873944915989
 10
605.5184081875436
 20
323.2145364600401
 10
604.5827729058764
 20
323.9416784284816
 10
603.6497222520588
 20
324.5645737403099
 10
602.7140869703917
 20
325.1874690521381
 10
601.676789659961
 20
325.8103643639664
 10
600.6394923495307
 20
326.2247663625686
 10
599.6021950391003
 20
326.7434150177838
 10
598.5631746434364
 20
327.1604016442359
 10
597.5250157903892
 20
327.4705569862251
 10
596.3834718233458
 20
327.7807123282142
 10
595.2419278563024
 20
328.0934522980536
 10
594.1003838892588
 20
328.3019456112794
 10
592.9588399222152
 20
328.4036076400428
 10
591.8172959551716
 20
328.5078542966554
 10
590.6757519881284
 20
328.5078542966554
 10
589.9486100196868
 20
328.5078542966554
 10
589.1172213946324
 20
328.5078542966554
 10
588.3926640540415
 20
328.4036076400428
 10
587.5612754289868
 20
328.3019456112794
 10
586.8341334605457
 20
328.1976989546662
 10
586.1095761199542
 20
328.0934522980536
 10
585.2781874948998
 20
327.8849589848273
 10
584.5510455264586
 20
327.6790502994511
 10
583.8239035580174
 20
327.4705569862251
 10
583.0993462174262
 20
327.262063672999
 10
582.3722042489849
 20
326.9519083310099
 10
581.6450622805434
 20
326.7434150177838
 10
580.9187818547186
 20
326.4332596757947
 10
580.1933629715108
 20
326.1205197059555
 10
579.5704676596821
 20
325.7061177073533
 10
578.8433256912415
 20
325.3959623653641
 10
578.2204303794128
 20
324.9789757389121
 10
577.5975350675844
 20
324.5645737403099
 10
576.8703930991434
 20
324.0459250850945
 10
576.2474977873148
 20
323.6315230864924
 10
575.7288491320996
 20
323.1102898034273
 10
575.1059538202716
 20
322.5916411482121
 10
574.4830585084432
 20
322.0729924929969
 10
573.9644098532278
 20
321.5543438377815
 10
573.4457611980131
 20
321.0356951825664
 10
572.9271125427977
 20
320.4127998707381
 10
572.4084638875824
 20
319.8941512155227
 10
571.889815232367
 20
319.2712559036946
 10
571.472828605915
 20
318.6483605918661
 10
571.0584266073126
 20
318.0254652800379
 10
570.6440246087106
 20
317.2983233115967
 10
570.2296226101084
 20
316.6754279997682
 10
564.0006694918256
 20
305.9871302977748
 10
567.425301392956
 20
302.5599137687942
 10
567.9439500481715
 20
302.2497584268051
 10
568.4651833312366
 20
301.9370184569659
 10
568.983831986452
 20
301.8353564282029
 10
569.6067272982798
 20
301.7311097715899
 10
570.1253759534952
 20
301.8353564282029
 10
570.7482712653236
 20
301.9370184569659
 10
571.2669199205388
 20
302.2497584268051
 10
571.6813219191408
 20
302.5599137687942
 10
575.8330957887131
 20
306.8159342949791
 10
577.1831330689827
 20
308.0617249186357
 10
577.8060283808106
 20
308.6846202304638
 10
578.4289236926388
 20
309.2032688856791
 10
579.0518190044672
 20
309.7219175408943
 10
579.7763763450584
 20
310.1363195394966
 10
580.3992716568869
 20
310.6575528225618
 10
581.1264136253282
 20
311.071954821164
 10
581.9578022503824
 20
311.3821101631533
 10
582.6832211335902
 20
311.7990967896052
 10
583.5137482160282
 20
312.1092521315943
 10
584.2408901844694
 20
312.3177454448205
 10
585.0696941816741
 20
312.5236541301966
 10
585.901082806728
 20
312.7321474434226
 10
586.7324714317828
 20
312.8363941000356
 10
587.5612754289868
 20
312.9406407566486
 10
588.3926640540415
 20
313.0448874132618
 10
589.2214680512458
 20
313.0448874132618
 10
591.0901539867304
 20
312.8363941000356
 10
592.9588399222152
 20
312.3177454448205
 10
594.7232792010872
 20
311.3821101631533
 10
596.1749785101194
 20
310.1363195394966
 10
597.4207691337762
 20
308.6846202304638
 10
598.3564044154436
 20
307.0244276082052
 10
598.8750530706588
 20
305.1557416727205
 10
599.083546383885
 20
303.1828090806225
 10
599.083546383885
 20
205.8284934006861
 10
599.083546383885
 20
101.5180826340255
 10
599.083546383885
 20
100.9994339788103
 10
599.2894550692611
 20
100.376538666982
 10
599.6021950391003
 20
99.85789001176677
 10
599.9123503810895
 20
99.4434880131646
 10
600.4309990363046
 20
99.02650138671242
 10
600.9496476915199
 20
98.8205927013363
 10
601.4682963467349
 20
98.61209938811015
 10
602.0920532011798
 20
98.5078527314971
 97
        0
 75
     2
 76
     1
 98
        1
 10
-496.3230904534951
 20
-394.1851080723288
  0
HATCH
  5
2A
330
A
100
AcDbEntity
  8
A-001_Pan
100
AcDbHatch
 10
0.0
 20
0.0
 30
0.0
210
0.0
220
0.0
230
1.0
  2
SOLID
 70
     1
 71
     0
 91
        1
 92
        1
 93
        1
 72
     4
 94
        3
 73
     0
 74
     0
 95
       65
 96
       61
 40
0.0
 40
0.0
 40
0.0
 40
0.0
 40
1.0
 40
1.0
 40
1.0
 40
2.0
 40
2.0
 40
2.0
 40
3.0
 40
3.0
 40
3.0
 40
4.0
 40
4.0
 40
4.0
 40
5.0
 40
5.0
 40
5.0
 40
6.0
 40
6.0
 40
6.0
 40
7.0
 40
7.0
 40
7.0
 40
8.0
 40
8.0
 40
8.0
 40
9.0
 40
9.0
 40
9.0
 40
10.0
 40
10.0
 40
10.0
 40
11.0
 40
11.0
 40
11.0
 40
12.0
 40
12.0
 40
12.0
 40
13.0
 40
13.0
 40
13.0
 40
14.0
 40
14.0
 40
14.0
 40
15.0
 40
15.0
 40
15.0
 40
16.0
 40
16.0
 40
16.0
 40
17.0
 40
17.0
 40
17.0
 40
18.0
 40
18.0
 40
18.0
 40
19.0
 40
19.0
 40
19.0
 40
20.0
 40
20.0
 40
20.0
 40
20.0
 10
614.0278646120634
 20
98.5078527314971
 10
614.0278646120634
 20
98.5078527314971
 10
614.0278646120634
 20
305.1557416727205
 10
614.0278646120634
 20
305.1557416727205
 10
614.0278646120634
 20
318.053896186387
 10
603.5721834165615
 20
328.5078542966554
 10
590.6757519881284
 20
328.5078542966554
 10
590.6757519881284
 20
328.5078542966554
 10
590.6757519881284
 20
328.5078542966554
 10
590.6757519881284
 20
328.5078542966554
 10
582.2610652514383
 20
328.5078542966554
 10
574.4675507413437
 20
323.9985402411796
 10
570.2296226101084
 20
316.6754279997682
 10
570.2296226101084
 20
316.6754279997682
 10
564.0006694918256
 20
305.9871302977748
 10
564.0006694918256
 20
305.9871302977748
 10
564.0006694918256
 20
305.9871302977748
 10
564.0006694918256
 20
305.9871302977748
 10
564.0006694918256
 20
305.9871302977748
 10
564.0006694918256
 20
305.9871302977748
 10
567.425301392956
 20
302.5599137687942
 10
567.425301392956
 20
302.5599137687942
 10
568.6305995136308
 20
301.4149236312841
 10
570.5346086963979
 20
301.4149236312841
 10
571.6813219191408
 20
302.5599137687942
 10
571.6813219191408
 20
302.5599137687942
 10
575.8330957887131
 20
306.8159342949791
 10
575.8330957887131
 20
306.8159342949791
 10
575.8330957887131
 20
306.8159342949791
 10
575.8330957887131
 20
306.8159342949791
 10
575.8330957887131
 20
306.8159342949791
 10
575.8330957887131
 20
306.8159342949791
 10
577.1831330689827
 20
308.0617249186357
 10
577.1831330689827
 20
308.0617249186357
 10
580.3725638357711
 20
311.2520172280409
 10
584.7026770269865
 20
313.0448874132618
 10
589.2214680512458
 20
313.0448874132618
 10
589.2214680512458
 20
313.0448874132618
 10
589.2214680512458
 20
313.0448874132618
 10
589.2214680512458
 20
313.0448874132618
 10
594.6690020162389
 20
313.0448874132618
 10
599.083546383885
 20
308.6303430456159
 10
599.083546383885
 20
303.1828090806225
 10
599.083546383885
 20
303.1828090806225
 10
599.083546383885
 20
205.8284934006861
 10
599.083546383885
 20
205.8284934006861
 10
599.083546383885
 20
205.8284934006861
 10
599.083546383885
 20
205.8284934006861
 10
599.083546383885
 20
205.8284934006861
 10
599.083546383885
 20
205.8284934006861
 10
599.083546383885
 20
101.5180826340255
 10
599.083546383885
 20
101.5180826340255
 10
599.083546383885
 20
99.8561669265335
 10
600.4292759510715
 20
98.5078527314971
 10
602.0920532011798
 20
98.5078527314971
 10
602.0920532011798
 20
98.5078527314971
 10
614.0278646120634
 20
98.5078527314971
 10
614.0278646120634
 20
98.5078527314971
 10
614.0278646120634
 20
98.5078527314971
 10
614.0278646120634
 20
98.5078527314971
 10
614.0278646120634
 20
98.5078527314971
 97
        0
 75
     2
 76
     1
 98
        1
 10
-496.3230904534951
 20
-394.1851080723288
  0
SPLINE
  5
29
330
A
100
AcDbEntity
  8
A-001_Pan
100
AcDbSpline
210
0.0
220
0.0
230
1.0
 70
     9
 71
     3
 72
    65
 73
    61
 74
     0
 42
0.0000000001
 43
0.0000000001
 40
0.0
 40
0.0
 40
0.0
 40
0.0
 40
1.0
 40
1.0
 40
1.0
 40
2.0
 40
2.0
 40
2.0
 40
3.0
 40
3.0
 40
3.0
 40
4.0
 40
4.0
 40
4.0
 40
5.0
 40
5.0
 40
5.0
 40
6.0
 40
6.0
 40
6.0
 40
7.0
 40
7.0
 40
7.0
 40
8.0
 40
8.0
 40
8.0
 40
9.0
 40
9.0
 40
9.0
 40
10.0
 40
10.0
 40
10.0
 40
11.0
 40
11.0
 40
11.0
 40
12.0
 40
12.0
 40
12.0
 40
13.0
 40
13.0
 40
13.0
 40
14.0
 40
14.0
 40
14.0
 40
15.0
 40
15.0
 40
15.0
 40
16.0
 40
16.0
 40
16.0
 40
17.0
 40
17.0
 40
17.0
 40
18.0
 40
18.0
 40
18.0
 40
19.0
 40
19.0
 40
19.0
 40
20.0
 40
20.0
 40
20.0
 40
20.0
 10
614.0278646120634
 20
98.5078527314971
 30
0.0
 10
614.0278646120634
 20
98.5078527314971
 30
0.0
 10
614.0278646120634
 20
305.1557416727205
 30
0.0
 10
614.0278646120634
 20
305.1557416727205
 30
0.0
 10
614.0278646120634
 20
318.053896186387
 30
0.0
 10
603.5721834165615
 20
328.5078542966554
 30
0.0
 10
590.6757519881284
 20
328.5078542966554
 30
0.0
 10
590.6757519881284
 20
328.5078542966554
 30
0.0
 10
590.6757519881284
 20
328.5078542966554
 30
0.0
 10
590.6757519881284
 20
328.5078542966554
 30
0.0
 10
582.2610652514383
 20
328.5078542966554
 30
0.0
 10
574.4675507413437
 20
323.9985402411796
 30
0.0
 10
570.2296226101084
 20
316.6754279997682
 30
0.0
 10
570.2296226101084
 20
316.6754279997682
 30
0.0
 10
564.0006694918256
 20
305.9871302977748
 30
0.0
 10
564.0006694918256
 20
305.9871302977748
 30
0.0
 10
564.0006694918256
 20
305.9871302977748
 30
0.0
 10
564.0006694918256
 20
305.9871302977748
 30
0.0
 10
564.0006694918256
 20
305.9871302977748
 30
0.0
 10
564.0006694918256
 20
305.9871302977748
 30
0.0
 10
567.425301392956
 20
302.5599137687942
 30
0.0
 10
567.425301392956
 20
302.5599137687942
 30
0.0
 10
568.6305995136308
 20
301.4149236312841
 30
0.0
 10
570.5346086963979
 20
301.4149236312841
 30
0.0
 10
571.6813219191408
 20
302.5599137687942
 30
0.0
 10
571.6813219191408
 20
302.5599137687942
 30
0.0
 10
575.8330957887131
 20
306.8159342949791
 30
0.0
 10
575.8330957887131
 20
306.8159342949791
 30
0.0
 10
575.8330957887131
 20
306.8159342949791
 30
0.0
 10
575.8330957887131
 20
306.8159342949791
 30
0.0
 10
575.8330957887131
 20
306.8159342949791
 30
0.0
 10
575.8330957887131
 20
306.8159342949791
 30
0.0
 10
577.1831330689827
 20
308.0617249186357
 30
0.0
 10
577.1831330689827
 20
308.0617249186357
 30
0.0
 10
580.3725638357711
 20
311.2520172280409
 30
0.0
 10
584.7026770269865
 20
313.0448874132618
 30
0.0
 10
589.2214680512458
 20
313.0448874132618
 30
0.0
 10
589.2214680512458
 20
313.0448874132618
 30
0.0
 10
589.2214680512458
 20
313.0448874132618
 30
0.0
 10
589.2214680512458
 20
313.0448874132618
 30
0.0
 10
594.6690020162389
 20
313.0448874132618
 30
0.0
 10
599.083546383885
 20
308.6303430456159
 30
0.0
 10
599.083546383885
 20
303.1828090806225
 30
0.0
 10
599.083546383885
 20
303.1828090806225
 30
0.0
 10
599.083546383885
 20
205.8284934006861
 30
0.0
 10
599.083546383885
 20
205.8284934006861
 30
0.0
 10
599.083546383885
 20
205.8284934006861
 30
0.0
 10
599.083546383885
 20
205.8284934006861
 30
0.0
 10
599.083546383885
 20
205.8284934006861
 30
0.0
 10
599.083546383885
 20
205.8284934006861
 30
0.0
 10
599.083546383885
 20
101.5180826340255
 30
0.0
 10
599.083546383885
 20
101.5180826340255
 30
0.0
 10
599.083546383885
 20
99.8561669265335
 30
0.0
 10
600.4292759510715
 20
98.5078527314971
 30
0.0
 10
602.0920532011798
 20
98.5078527314971
 30
0.0
 10
602.0920532011798
 20
98.5078527314971
 30
0.0
 10
614.0278646120634
 20
98.5078527314971
 30
0.0
 10
614.0278646120634
 20
98.5078527314971
 30
0.0
 10
614.0278646120634
 20
98.5078527314971
 30
0.0
 10
614.0278646120634
 20
98.5078527314971
 30
0.0
 10
614.0278646120634
 20
98.5078527314971
 30
0.0
  0
TEXT
  5
282
330
A
100
AcDbEntity
  8
A-043_Txt025
370
     0
100
AcDbText
 10
228.928147481573
 20
-21.49214499999994
 30
0.0
 40
20.0
  1
P000 1240
  7
helvetica regular
100
AcDbText
  0
DIMENSION
  5
29A
330
A
100
AcDbEntity
  8
A-031_DimExt
370
     0
100
AcDbDimension
  2
*D27
 10
521.0312327461483
 20
368.507855
 30
0.0
 11
354.0323959356218
 21
383.6759222268908
 31
0.0
 70
    32
 71
     5
 42
333.9976736210531
  3
DIMEXT
100
AcDbAlignedDimension
 13
187.0335591250952
 23
208.6302299899883
 33
0.0
 14
521.0312327461483
 24
208.6302309994178
 34
0.0
100
AcDbRotatedDimension
  0
DIMENSION
  5
2A5
330
A
100
AcDbEntity
  8
A-031_DimExt
370
     0
100
AcDbDimension
  2
*D28
 10
614.0233024893842
 20
368.5078549999998
 30
0.0
 11
589.0119869490204
 21
383.6759222268906
 31
0.0
 70
    32
 71
     5
 42
50.02263108072781
  3
DIMEXT
100
AcDbAlignedDimension
 13
564.0006714086564
 23
305.9871283794974
 33
0.0
 14
614.0233024893842
 24
305.6220341425468
 34
0.0
100
AcDbRotatedDimension
  0
DIMENSION
  5
2B0
330
A
100
AcDbEntity
  8
A-031_DimExt
370
     0
100
AcDbDimension
  2
*D29
 10
147.0335591250952
 20
208.6302299899883
 30
0.0
 11
131.8654918982044
 21
153.5690424949942
 31
0.0
 70
    32
 71
     5
 42
110.1223749899882
  3
DIMEXT
100
AcDbAlignedDimension
 13
282.3132783129274
 23
98.50785500000007
 33
0.0
 14
187.0335591250952
 24
208.6302299899883
 34
0.0
 50
90.0
100
AcDbRotatedDimension
  0
DIMENSION
  5
2BB
330
A
100
AcDbEntity
  8
A-031_DimExt
370
     0
100
AcDbDimension
  2
*D30
 10
107.0335591250952
 20
328.5078550000001
 30
0.0
 11
91.86549189820444
 21
213.5078550000002
 31
0.0
 70
    32
 71
     5
 42
230.0
  3
DIMEXT
100
AcDbAlignedDimension
 13
353.9281474815731
 23
98.50785500000007
 33
0.0
 14
353.9281474815731
 24
328.5078550000001
 34
0.0
 50
90.0
100
AcDbRotatedDimension
  0
DIMENSION
  5
2CB
330
A
100
AcDbEntity
  8
A-031_DimExt
370
     0
100
AcDbDimension
  2
*D31
 10
278.928147481573
 20
58.50785500000006
 30
0.0
 11
353.9281474815731
 21
73.67592222689082
 31
0.0
 70
    32
 71
     5
 42
150.0
  3
DIMEXT
100
AcDbAlignedDimension
 13
428.928147481573
 23
99.65629147173615
 33
0.0
 14
278.928147481573
 24
99.81838869234675
 34
0.0
100
AcDbRotatedDimension
  0
DIMENSION
  5
2DD
330
A
100
AcDbEntity
  8
A-031_DimExt
370
     0
100
AcDbDimension
  2
*D33
 10
228.928147481573
 20
18.50785500000006
 30
0.0
 11
353.9281474815731
 21
33.67592222689082
 31
0.0
 70
    32
 71
     5
 42
250.0
  3
DIMEXT
100
AcDbAlignedDimension
 13
478.928147481573
 23
206.1641132643033
 33
0.0
 14
228.928147481573
 24
206.3159611066604
 34
0.0
100
AcDbRotatedDimension
  0
DIMENSION
  5
2E8
330
A
100
AcDbEntity
  8
A-031_DimExt
370
     0
100
AcDbDimension
  2
*D34
 10
614.0278646120634
 20
58.50785500000005
 30
0.0
 11
560.3860659855995
 21
58.50785500000005
 31
0.0
 70
   160
 71
     5
 42
14.94431963486727
  3
DIMEXT
100
AcDbAlignedDimension
 13
599.0835449771962
 23
208.6302309994178
 33
0.0
 14
614.0278646120634
 24
208.630230999415
 34
0.0
100
AcDbRotatedDimension
  0
ENDSEC
  0
SECTION
  2
OBJECTS
  0
DICTIONARY
  5
19
330
0
100
AcDbDictionary
281
     1
  3
ACAD_2007HEADERVARS_RT
350
32E
  3
ACAD_COLOR
350
22F
  3
ACAD_GROUP
350
1A
  3
ACAD_LAYOUT
350
1E
  3
ACAD_MATERIAL
350
205
  3
ACAD_MLEADERSTYLE
350
248
  3
ACAD_MLINESTYLE
350
1B
  3
ACAD_PLOTSETTINGS
350
22
  3
ACAD_PLOTSTYLENAME
350
1F
  3
ACAD_SCALELIST
350
232
  3
ACAD_TABLESTYLE
350
230
  3
ACAD_VISUALSTYLE
350
21E
  3
ACAD_WIPEOUT_VARS
350
23
  3
ACDB_RECOMPOSE_DATA
350
32C
  3
AcDbVariableDictionary
350
323
  3
AEC_LAYERKEY_STYLES
350
309
  3
AEC_PROPERTY_SET_DEFS
350
27E
  3
AEC_VARS
350
307
  3
DWGPROPS
350
32D
  0
DICTIONARY
  5
275
330
2
100
AcDbDictionary
280
     1
281
     1
  3
ACAD_LAYERFILTERS
360
30B
  3
ACAD_LAYERSTATES
360
276
  3
ACLYDICTIONARY
360
30A
  0
DICTIONARY
  5
30C
330
14
100
AcDbDictionary
280
     1
281
     1
  3
ADSK_XREC_LAYER_RECONCILED
360
30D
  0
DICTIONARY
  5
269
330
268
100
AcDbDictionary
280
     1
281
     1
  3
ADSK_XREC_LAYER_RECONCILED
360
30E
  0
DICTIONARY
  5
26B
330
26A
100
AcDbDictionary
280
     1
281
     1
  3
ADSK_XREC_LAYER_RECONCILED
360
30F
  0
DICTIONARY
  5
26D
330
26C
100
AcDbDictionary
280
     1
281
     1
  3
ADSK_XREC_LAYER_RECONCILED
360
310
  0
DICTIONARY
  5
2C8
330
A
100
AcDbDictionary
280
     1
281
     1
  3
ACAD_SORTENTS
360
2C9
  0
DICTIONARY
  5
33A
330
250
100
AcDbDictionary
280
     1
281
     1
  3
AcDbBlockTableRecordData
360
33B
  0
DICTIONARY
  5
33D
330
257
100
AcDbDictionary
280
     1
281
     1
  3
AcDbBlockTableRecordData
360
33E
  0
DICTIONARY
  5
32E
102
{ACAD_REACTORS
330
19
102
}
330
19
100
AcDbDictionary
281
     1
  3
DIMFXL
350
32F
  3
DIMJOGANG
350
330
  0
DICTIONARY
  5
22F
102
{ACAD_REACTORS
330
19
102
}
330
19
100
AcDbDictionary
281
     1
  0
DICTIONARY
  5
1A
102
{ACAD_REACTORS
330
19
102
}
330
19
100
AcDbDictionary
281
     1
  0
DICTIONARY
  5
1E
102
{ACAD_REACTORS
330
19
102
}
330
19
100
AcDbDictionary
281
     1
  3
Layout1
350
21
  3
Model
350
20
  0
DICTIONARY
  5
205
102
{ACAD_REACTORS
330
19
102
}
330
19
100
AcDbDictionary
281
     1
  3
ByBlock
350
20E
  3
ByLayer
350
206
  3
Global
350
216
  0
DICTIONARY
  5
248
102
{ACAD_REACTORS
330
19
102
}
330
19
100
AcDbDictionary
281
     1
  3
Standard
350
249
  0
DICTIONARY
  5
1B
102
{ACAD_REACTORS
330
19
102
}
330
19
100
AcDbDictionary
281
     1
  3
Standard
350
1C
  0
DICTIONARY
  5
22
102
{ACAD_REACTORS
330
19
102
}
330
19
100
AcDbDictionary
281
     1
  0
ACDBDICTIONARYWDFLT
  5
1F
102
{ACAD_REACTORS
330
19
102
}
330
19
100
AcDbDictionary
281
     1
  3
Normal
350
1D
100
AcDbDictionaryWithDefault
340
1D
  0
DICTIONARY
  5
232
102
{ACAD_REACTORS
330
19
102
}
330
19
100
AcDbDictionary
281
     1
  3
A0
350
233
  3
A1
350
234
  3
A2
350
235
  3
A3
350
236
  3
A4
350
237
  3
A5
350
238
  3
A6
350
239
  3
A7
350
23A
  3
A8
350
23B
  3
A9
350
23C
  3
B0
350
23D
  3
B1
350
23E
  3
B2
350
23F
  3
B3
350
240
  3
B4
350
241
  3
B5
350
242
  3
B6
350
243
  3
B7
350
244
  3
B8
350
245
  3
B9
350
246
  3
C0
350
247
  0
DICTIONARY
  5
230
102
{ACAD_REACTORS
330
19
102
}
330
19
100
AcDbDictionary
281
     1
  3
Standard
350
231
  0
DICTIONARY
  5
21E
102
{ACAD_REACTORS
330
19
102
}
330
19
100
AcDbDictionary
281
     1
  3
2dWireframe
350
224
  3
3D Hidden
350
226
  3
3dWireframe
350
225
  3
Basic
350
223
  3
Brighten
350
22A
  3
ColorChange
350
22E
  3
Conceptual
350
227
  3
Dim
350
229
  3
Facepattern
350
22D
  3
Flat
350
21F
  3
FlatWithEdges
350
220
  3
Gouraud
350
221
  3
GouraudWithEdges
350
222
  3
Linepattern
350
22C
  3
Realistic
350
228
  3
Thicken
350
22B
  0
WIPEOUTVARIABLES
  5
23
330
19
100
AcDbWipeoutVariables
 70
     1
  0
XRECORD
  5
32C
102
{ACAD_REACTORS
330
19
102
}
330
19
100
AcDbXrecord
280
     1
 90
        1
330
231
  0
DICTIONARY
  5
323
102
{ACAD_REACTORS
330
19
102
}
330
19
100
AcDbDictionary
281
     1
  3
CANNOSCALE
350
326
  3
CMLEADERSTYLE
350
325
  3
CTABLESTYLE
350
324
  3
DIMASSOC
350
329
  3
INDEXCTL
350
328
  3
SORTENTS
350
327
  0
DICTIONARY
  5
309
102
{ACAD_REACTORS
330
19
102
}
330
19
100
AcDbDictionary
281
     1
  0
DICTIONARY
  5
27E
102
{ACAD_REACTORS
330
19
102
}
330
19
100
AcDbDictionary
281
     1
  0
DICTIONARY
  5
307
102
{ACAD_REACTORS
330
19
102
}
330
19
100
AcDbDictionary
281
     1
  3
AEC_VARS_DWG_SETUP
350
308
  0
XRECORD
  5
32D
102
{ACAD_REACTORS
330
19
102
}
330
19
100
AcDbXrecord
280
     1
  1
DWGPROPS COOKIE
  2

  3

  4

  6

  7

  8
Admin
  9

300
=
301
=
302
=
303
=
304
=
305
=
306
=
307
=
308
=
309
=
 40
0.004397962962963
 41
2454497.40354022
 42
2454497.407937095
  1

 90
        0
  0
DICTIONARY
  5
30B
102
{ACAD_REACTORS
330
275
102
}
330
275
100
AcDbDictionary
281
     1
  0
DICTIONARY
  5
276
102
{ACAD_REACTORS
330
275
102
}
330
275
100
AcDbDictionary
281
     1
  0
DICTIONARY
  5
30A
102
{ACAD_REACTORS
330
275
102
}
330
275
100
AcDbDictionary
281
     1
1001
ACAD
1000
<All
  0
XRECORD
  5
30D
102
{ACAD_REACTORS
330
30C
102
}
330
30C
100
AcDbXrecord
280
     1
290
     1
  0
XRECORD
  5
30E
102
{ACAD_REACTORS
330
269
102
}
330
269
100
AcDbXrecord
280
     1
290
     1
  0
XRECORD
  5
30F
102
{ACAD_REACTORS
330
26B
102
}
330
26B
100
AcDbXrecord
280
     1
290
     1
  0
XRECORD
  5
310
102
{ACAD_REACTORS
330
26D
102
}
330
26D
100
AcDbXrecord
280
     1
290
     1
  0
SORTENTSTABLE
  5
2C9
102
{ACAD_REACTORS
330
2C8
102
}
330
2C8
100
AcDbSortentsTable
330
A
331
29A
  5
29A
331
2CB
  5
2DC
331
2E
  5
2E
331
2C
  5
2C
331
2A5
  5
2A5
331
2A
  5
2A
331
31
  5
31
331
D3
  5
D3
331
2B0
  5
2B0
331
2BB
  5
2BB
331
2F
  5
2F
331
2B
  5
2B
331
D8
  5
D8
331
282
  5
282
331
29
  5
29
331
30
  5
30
331
D4
  5
D4
331
D2
  5
D2
  0
DICTIONARY
  5
33B
102
{ACAD_REACTORS
330
33A
102
}
330
33A
100
AcDbDictionary
280
     1
281
     1
  3
Edit
360
33C
  0
DICTIONARY
  5
33E
102
{ACAD_REACTORS
330
33D
102
}
330
33D
100
AcDbDictionary
280
     1
281
     1
  3
Edit
360
33F
  0
XRECORD
  5
32F
102
{ACAD_REACTORS
330
32E
102
}
330
32E
100
AcDbXrecord
280
     1
 40
0.2
  0
XRECORD
  5
330
102
{ACAD_REACTORS
330
32E
102
}
330
32E
100
AcDbXrecord
280
     1
 40
1.570796326794896
  0
LAYOUT
  5
21
102
{ACAD_XDICTIONARY
360
333
102
}
102
{ACAD_REACTORS
330
1E
102
}
330
1E
100
AcDbPlotSettings
  1

  2

  4

  6

 40
0.0
 41
0.0
 42
0.0
 43
0.0
 44
0.0
 45
0.0
 46
0.0
 47
0.0
 48
0.0
 49
0.0
140
0.0
141
0.0
142
1.0
143
1.0
 70
     0
 72
     0
 73
     0
 74
     0
  7

 75
     0
147
1.0
148
0.0
149
0.0
100
AcDbLayout
  1
Layout1
 70
     0
 71
     1
 10
0.0
 20
0.0
 11
12.0
 21
9.0
 12
0.0
 22
0.0
 32
0.0
 14
1.000000000000000E+20
 24
1.000000000000000E+20
 34
1.000000000000000E+20
 15
-1.000000000000000E+20
 25
-1.000000000000000E+20
 35
-1.000000000000000E+20
146
0.0
 13
0.0
 23
0.0
 33
0.0
 16
1.0
 26
0.0
 36
0.0
 17
0.0
 27
1.0
 37
0.0
 76
     0
330
B
  0
LAYOUT
  5
20
102
{ACAD_XDICTIONARY
360
331
102
}
102
{ACAD_REACTORS
330
1E
102
}
330
1E
100
AcDbPlotSettings
  1

  2
HP LaserJet 1100
  4
A4
  6

 40
6.011333465576171
 41
4.233341693878173
 42
6.011322021484375
 43
4.23333740234375
 44
209.9733276367187
 45
296.9259948730469
 46
0.0
 47
0.0
 48
0.0
 49
0.0
140
0.0
141
0.0
142
1.0
143
1.0
 70
 11264
 72
     1
 73
     1
 74
     0
  7

 75
     0
147
1.0
148
39.36905606368759
149
29.48669672335893
100
AcDbLayout
  1
Model
 70
     0
 71
     0
 10
0.0
 20
0.0
 11
0.0
 21
0.0
 12
0.0
 22
0.0
 32
0.0
 14
0.0
 24
0.0
 34
0.0
 15
0.0
 25
0.0
 35
0.0
146
0.0
 13
0.0
 23
0.0
 33
0.0
 16
0.0
 26
0.0
 36
0.0
 17
0.0
 27
0.0
 37
0.0
 76
     0
330
A
331
15
1001
ACAD_PSEXT
1000
HP LaserJet 1100
1000
HP LaserJet 1100
1000
LPT1:
1000

1070
     0
  0
MATERIAL
  5
20E
102
{ACAD_XDICTIONARY
360
20F
102
}
102
{ACAD_REACTORS
330
205
102
}
330
205
100
AcDbMaterial
  1
ByBlock
 72
     0
 43
0.0208333333333333
 43
0.0
 43
0.0
 43
0.0
 43
0.0
 43
0.0208333333333333
 43
0.0
 43
0.0
 43
0.0
 43
0.0
 43
1.0
 43
0.0
 43
0.0
 43
0.0
 43
0.0
 43
1.0
 77
     0
 47
0.0208333333333333
 47
0.0
 47
0.0
 47
0.0
 47
0.0
 47
0.0208333333333333
 47
0.0
 47
0.0
 47
0.0
 47
0.0
 47
1.0
 47
0.0
 47
0.0
 47
0.0
 47
0.0
 47
1.0
171
     0
 49
0.0208333333333333
 49
0.0
 49
0.0
 49
0.0
 49
0.0
 49
0.0208333333333333
 49
0.0
 49
0.0
 49
0.0
 49
0.0
 49
1.0
 49
0.0
 49
0.0
 49
0.0
 49
0.0
 49
1.0
175
     0
142
0.0208333333333333
142
0.0
142
0.0
142
0.0
142
0.0
142
0.0208333333333333
142
0.0
142
0.0
142
0.0
142
0.0
142
1.0
142
0.0
142
0.0
142
0.0
142
0.0
142
1.0
179
     0
144
0.0208333333333333
144
0.0
144
0.0
144
0.0
144
0.0
144
0.0208333333333333
144
0.0
144
0.0
144
0.0
144
0.0
144
1.0
144
0.0
144
0.0
144
0.0
144
0.0
144
1.0
147
0.0208333333333333
147
0.0
147
0.0
147
0.0
147
0.0
147
0.0208333333333333
147
0.0
147
0.0
147
0.0
147
0.0
147
1.0
147
0.0
147
0.0
147
0.0
147
0.0
147
1.0
  0
MATERIAL
  5
206
102
{ACAD_XDICTIONARY
360
207
102
}
102
{ACAD_REACTORS
330
205
102
}
330
205
100
AcDbMaterial
  1
ByLayer
 72
     0
 43
0.0208333333333333
 43
0.0
 43
0.0
 43
0.0
 43
0.0
 43
0.0208333333333333
 43
0.0
 43
0.0
 43
0.0
 43
0.0
 43
1.0
 43
0.0
 43
0.0
 43
0.0
 43
0.0
 43
1.0
 77
     0
 47
0.0208333333333333
 47
0.0
 47
0.0
 47
0.0
 47
0.0
 47
0.0208333333333333
 47
0.0
 47
0.0
 47
0.0
 47
0.0
 47
1.0
 47
0.0
 47
0.0
 47
0.0
 47
0.0
 47
1.0
171
     0
 49
0.0208333333333333
 49
0.0
 49
0.0
 49
0.0
 49
0.0
 49
0.0208333333333333
 49
0.0
 49
0.0
 49
0.0
 49
0.0
 49
1.0
 49
0.0
 49
0.0
 49
0.0
 49
0.0
 49
1.0
175
     0
142
0.0208333333333333
142
0.0
142
0.0
142
0.0
142
0.0
142
0.0208333333333333
142
0.0
142
0.0
142
0.0
142
0.0
142
1.0
142
0.0
142
0.0
142
0.0
142
0.0
142
1.0
179
     0
144
0.0208333333333333
144
0.0
144
0.0
144
0.0
144
0.0
144
0.0208333333333333
144
0.0
144
0.0
144
0.0
144
0.0
144
1.0
144
0.0
144
0.0
144
0.0
144
0.0
144
1.0
147
0.0208333333333333
147
0.0
147
0.0
147
0.0
147
0.0
147
0.0208333333333333
147
0.0
147
0.0
147
0.0
147
0.0
147
1.0
147
0.0
147
0.0
147
0.0
147
0.0
147
1.0
  0
MATERIAL
  5
216
102
{ACAD_XDICTIONARY
360
217
102
}
102
{ACAD_REACTORS
330
205
102
}
330
205
100
AcDbMaterial
  1
Global
 72
     0
 43
0.0208333333333333
 43
0.0
 43
0.0
 43
0.0
 43
0.0
 43
0.0208333333333333
 43
0.0
 43
0.0
 43
0.0
 43
0.0
 43
1.0
 43
0.0
 43
0.0
 43
0.0
 43
0.0
 43
1.0
 77
     0
 47
0.0208333333333333
 47
0.0
 47
0.0
 47
0.0
 47
0.0
 47
0.0208333333333333
 47
0.0
 47
0.0
 47
0.0
 47
0.0
 47
1.0
 47
0.0
 47
0.0
 47
0.0
 47
0.0
 47
1.0
171
     0
 49
0.0208333333333333
 49
0.0
 49
0.0
 49
0.0
 49
0.0
 49
0.0208333333333333
 49
0.0
 49
0.0
 49
0.0
 49
0.0
 49
1.0
 49
0.0
 49
0.0
 49
0.0
 49
0.0
 49
1.0
175
     0
142
0.0208333333333333
142
0.0
142
0.0
142
0.0
142
0.0
142
0.0208333333333333
142
0.0
142
0.0
142
0.0
142
0.0
142
1.0
142
0.0
142
0.0
142
0.0
142
0.0
142
1.0
179
     0
144
0.0208333333333333
144
0.0
144
0.0
144
0.0
144
0.0
144
0.0208333333333333
144
0.0
144
0.0
144
0.0
144
0.0
144
1.0
144
0.0
144
0.0
144
0.0
144
0.0
144
1.0
147
0.0208333333333333
147
0.0
147
0.0
147
0.0
147
0.0
147
0.0208333333333333
147
0.0
147
0.0
147
0.0
147
0.0
147
1.0
147
0.0
147
0.0
147
0.0
147
0.0
147
1.0
  0
MLEADERSTYLE
  5
249
102
{ACAD_REACTORS
330
248
102
}
330
248
100
AcDbMLeaderStyle
170
     2
171
     1
172
     0
 90
        2
 40
0.0
 41
0.0
173
     1
 91
-1056964608
340
11
 92
       -2
290
     1
 42
2.0
291
     1
 43
0.36
  3
Standard
 44
4.0
300

342
17
174
     1
178
     6
175
     1
176
     0
 93
-1056964608
 45
4.0
292
     0
297
     0
 46
4.0
 94
-1056964608
 47
1.0
 49
1.0
140
1.0
293
     1
141
0.0
294
     1
177
     0
142
1.0
295
     0
296
     0
143
0.125
1001
ACAD_MLEADERVER
1070
     2
  0
MLINESTYLE
  5
1C
102
{ACAD_REACTORS
330
1B
102
}
330
1B
100
AcDbMlineStyle
  2
STANDARD
 70
     0
  3

 62
     0
 51
90.0
 52
90.0
 71
     2
 49
0.5
 62
   256
  6
BYLAYER
 49
-0.5
 62
   256
  6
BYLAYER
  0
ACDBPLACEHOLDER
  5
1D
102
{ACAD_REACTORS
330
1F
102
}
330
1F
  0
SCALE
  5
233
102
{ACAD_REACTORS
330
232
102
}
330
232
100
AcDbScale
 70
     0
300
1:1
140
1.0
141
1.0
290
     1
  0
SCALE
  5
234
102
{ACAD_REACTORS
330
232
102
}
330
232
100
AcDbScale
 70
     0
300
1:2
140
1.0
141
2.0
290
     0
  0
SCALE
  5
235
102
{ACAD_REACTORS
330
232
102
}
330
232
100
AcDbScale
 70
     0
300
1:2.5
140
1.0
141
2.5
290
     0
  0
SCALE
  5
236
102
{ACAD_REACTORS
330
232
102
}
330
232
100
AcDbScale
 70
     0
300
1:5
140
1.0
141
5.0
290
     0
  0
SCALE
  5
237
102
{ACAD_REACTORS
330
232
102
}
330
232
100
AcDbScale
 70
     0
300
1:7.5
140
1.0
141
7.5
290
     0
  0
SCALE
  5
238
102
{ACAD_REACTORS
330
232
102
}
330
232
100
AcDbScale
 70
     0
300
1:10
140
1.0
141
10.0
290
     0
  0
SCALE
  5
239
102
{ACAD_REACTORS
330
232
102
}
330
232
100
AcDbScale
 70
     0
300
1:20
140
1.0
141
20.0
290
     0
  0
SCALE
  5
23A
102
{ACAD_REACTORS
330
232
102
}
330
232
100
AcDbScale
 70
     0
300
1:25
140
1.0
141
25.0
290
     0
  0
SCALE
  5
23B
102
{ACAD_REACTORS
330
232
102
}
330
232
100
AcDbScale
 70
     0
300
1:50
140
1.0
141
50.0
290
     0
  0
SCALE
  5
23C
102
{ACAD_REACTORS
330
232
102
}
330
232
100
AcDbScale
 70
     0
300
1:75
140
1.0
141
75.0
290
     0
  0
SCALE
  5
23D
102
{ACAD_REACTORS
330
232
102
}
330
232
100
AcDbScale
 70
     0
300
1:100
140
1.0
141
100.0
290
     0
  0
SCALE
  5
23E
102
{ACAD_REACTORS
330
232
102
}
330
232
100
AcDbScale
 70
     0
300
1:150
140
1.0
141
150.0
290
     0
  0
SCALE
  5
23F
102
{ACAD_REACTORS
330
232
102
}
330
232
100
AcDbScale
 70
     0
300
1:200
140
1.0
141
200.0
290
     0
  0
SCALE
  5
240
102
{ACAD_REACTORS
330
232
102
}
330
232
100
AcDbScale
 70
     0
300
1:250
140
1.0
141
250.0
290
     0
  0
SCALE
  5
241
102
{ACAD_REACTORS
330
232
102
}
330
232
100
AcDbScale
 70
     0
300
1:500
140
1.0
141
500.0
290
     0
  0
SCALE
  5
242
102
{ACAD_REACTORS
330
232
102
}
330
232
100
AcDbScale
 70
     0
300
1:750
140
1.0
141
750.0
290
     0
  0
SCALE
  5
243
102
{ACAD_REACTORS
330
232
102
}
330
232
100
AcDbScale
 70
     0
300
1:1000
140
1.0
141
1000.0
290
     0
  0
SCALE
  5
244
102
{ACAD_REACTORS
330
232
102
}
330
232
100
AcDbScale
 70
     0
300
1:1250
140
1.0
141
1250.0
290
     0
  0
SCALE
  5
245
102
{ACAD_REACTORS
330
232
102
}
330
232
100
AcDbScale
 70
     0
300
1:2000
140
1.0
141
2000.0
290
     0
  0
SCALE
  5
246
102
{ACAD_REACTORS
330
232
102
}
330
232
100
AcDbScale
 70
     0
300
1:2500
140
1.0
141
2500.0
290
     0
  0
SCALE
  5
247
102
{ACAD_REACTORS
330
232
102
}
330
232
100
AcDbScale
 70
     0
300
1:5000
140
1.0
141
5000.0
290
     0
  0
TABLESTYLE
  5
231
102
{ACAD_XDICTIONARY
360
32A
102
}
102
{ACAD_REACTORS
330
230
102
}
330
230
100
AcDbTableStyle
  3
Standard
 70
     0
 71
     0
 40
1.5
 41
1.5
280
     0
281
     0
  7
Standard
140
4.5
170
     2
 62
     0
 63
     7
283
     0
274
    -2
284
     1
 64
     0
275
    -2
285
     1
 65
     0
276
    -2
286
     1
 66
     0
277
    -2
287
     1
 67
     0
278
    -2
288
     1
 68
     0
279
    -2
289
     1
 69
     0
  7
Standard
140
6.0
170
     5
 62
     0
 63
     7
283
     0
274
    -2
284
     1
 64
     0
275
    -2
285
     1
 65
     0
276
    -2
286
     1
 66
     0
277
    -2
287
     1
 67
     0
278
    -2
288
     1
 68
     0
279
    -2
289
     1
 69
     0
  7
Standard
140
4.5
170
     5
 62
     0
 63
     7
283
     0
274
    -2
284
     1
 64
     0
275
    -2
285
     1
 65
     0
276
    -2
286
     1
 66
     0
277
    -2
287
     1
 67
     0
278
    -2
288
     1
 68
     0
279
    -2
289
     1
 69
     0
  0
VISUALSTYLE
  5
224
102
{ACAD_REACTORS
330
21E
102
}
330
21E
100
AcDbVisualStyle
  2
2dWireframe
 70
     4
 71
     0
 72
     2
 73
     0
 90
        0
 40
-0.6
 41
-30.0
 62
     5
 63
     7
 74
     1
 91
        4
 64
     7
 65
   257
 75
     1
175
     1
 42
1.0
 92
        0
 66
   257
 43
1.0
 76
     1
 77
     6
 78
     2
 67
     7
 79
     5
170
     0
171
     0
290
     0
174
     0
 93
        1
 44
0.0
173
     0
291
     0
 45
0.0
1001
ACAD
1000
AcDbSavedByObjectVersion
1070
     0
  0
VISUALSTYLE
  5
226
102
{ACAD_REACTORS
330
21E
102
}
330
21E
100
AcDbVisualStyle
  2
3D Hidden
 70
     6
 71
     1
 72
     2
 73
     2
 90
        0
 40
-0.6
 41
-30.0
 62
     5
 63
     7
 74
     2
 91
        2
 64
     7
 65
   257
 75
     2
175
     1
 42
40.0
 92
        0
 66
   257
 43
1.0
 76
     1
 77
     6
 78
     2
 67
     7
 79
     3
170
     0
171
     0
290
     0
174
     0
 93
        1
 44
0.0
173
     0
291
     0
 45
0.0
1001
ACAD
1000
AcDbSavedByObjectVersion
1070
     0
  0
VISUALSTYLE
  5
225
102
{ACAD_REACTORS
330
21E
102
}
330
21E
100
AcDbVisualStyle
  2
3dWireframe
 70
     5
 71
     0
 72
     2
 73
     0
 90
        0
 40
-0.6
 41
-30.0
 62
     5
 63
     7
 74
     1
 91
        4
 64
     7
 65
   257
 75
     1
175
     1
 42
1.0
 92
        0
 66
   257
 43
1.0
 76
     1
 77
     6
 78
     2
 67
     7
 79
     5
170
     0
171
     0
290
     0
174
     0
 93
        1
 44
0.0
173
     0
291
     0
 45
0.0
1001
ACAD
1000
AcDbSavedByObjectVersion
1070
     0
  0
VISUALSTYLE
  5
223
102
{ACAD_REACTORS
330
21E
102
}
330
21E
100
AcDbVisualStyle
  2
Basic
 70
     7
 71
     1
 72
     0
 73
     1
 90
        0
 40
-0.6
 41
-30.0
 62
     5
 63
     7
 74
     0
 91
        4
 64
     7
 65
   257
 75
     1
175
     1
 42
1.0
 92
        8
 66
     7
 43
1.0
 76
     1
 77
     6
 78
     2
 67
     7
 79
     5
170
     0
171
     0
290
     0
174
     0
 93
        1
 44
0.0
173
     0
291
     1
 45
0.0
1001
ACAD
1000
AcDbSavedByObjectVersion
1070
     0
  0
VISUALSTYLE
  5
22A
102
{ACAD_REACTORS
330
21E
102
}
330
21E
100
AcDbVisualStyle
  2
Brighten
 70
    12
 71
     2
 72
     2
 73
     0
 90
        0
 40
-0.6
 41
-30.0
 62
     5
 63
     7
 74
     1
 91
        4
 64
     7
 65
   257
 75
     1
175
     1
 42
1.0
 92
        8
 66
     7
 43
1.0
 76
     1
 77
     6
 78
     2
 67
     7
 79
     5
170
     0
171
     0
290
     0
174
     0
 93
        1
 44
50.0
173
     0
291
     1
 45
0.0
1001
ACAD
1000
AcDbSavedByObjectVersion
1070
     0
  0
VISUALSTYLE
  5
22E
102
{ACAD_REACTORS
330
21E
102
}
330
21E
100
AcDbVisualStyle
  2
ColorChange
 70
    16
 71
     2
 72
     2
 73
     3
 90
        0
 40
-0.6
 41
-30.0
 62
     5
 63
     8
 74
     1
 91
        4
 64
     7
 65
   257
 75
     1
175
     1
 42
1.0
 92
        8
 66
     8
 43
1.0
 76
     1
 77
     6
 78
     2
 67
     7
 79
     5
170
     0
171
     0
290
     0
174
     0
 93
        1
 44
0.0
173
     0
291
     1
 45
0.0
1001
ACAD
1000
AcDbSavedByObjectVersion
1070
     0
  0
VISUALSTYLE
  5
227
102
{ACAD_REACTORS
330
21E
102
}
330
21E
100
AcDbVisualStyle
  2
Conceptual
 70
     9
 71
     3
 72
     2
 73
     0
 90
        0
 40
-0.6
 41
-30.0
 62
     5
 63
     7
 74
     2
 91
        2
 64
     7
 65
   257
 75
     1
175
     1
 42
40.0
 92
        8
 66
     7
 43
1.0
 76
     1
 77
     6
 78
     2
 67
     7
 79
     3
170
     0
171
     0
290
     0
174
     0
 93
        1
 44
0.0
173
     0
291
     0
 45
0.0
1001
ACAD
1000
AcDbSavedByObjectVersion
1070
     0
  0
VISUALSTYLE
  5
229
102
{ACAD_REACTORS
330
21E
102
}
330
21E
100
AcDbVisualStyle
  2
Dim
 70
    11
 71
     2
 72
     2
 73
     0
 90
        0
 40
-0.6
 41
-30.0
 62
     5
 63
     7
 74
     1
 91
        4
 64
     7
 65
   257
 75
     1
175
     1
 42
1.0
 92
        8
 66
     7
 43
1.0
 76
     1
 77
     6
 78
     2
 67
     7
 79
     5
170
     0
171
     0
290
     0
174
     0
 93
        1
 44
-50.0
173
     0
291
     1
 45
0.0
1001
ACAD
1000
AcDbSavedByObjectVersion
1070
     0
  0
VISUALSTYLE
  5
22D
102
{ACAD_REACTORS
330
21E
102
}
330
21E
100
AcDbVisualStyle
  2
Facepattern
 70
    15
 71
     2
 72
     2
 73
     0
 90
        0
 40
-0.6
 41
-30.0
 62
     5
 63
     7
 74
     1
 91
        4
 64
     7
 65
   257
 75
     1
175
     1
 42
1.0
 92
        8
 66
     7
 43
1.0
 76
     1
 77
     6
 78
     2
 67
     7
 79
     5
170
     0
171
     0
290
     0
174
     0
 93
        1
 44
0.0
173
     0
291
     1
 45
0.0
1001
ACAD
1000
AcDbSavedByObjectVersion
1070
     0
  0
VISUALSTYLE
  5
21F
102
{ACAD_REACTORS
330
21E
102
}
330
21E
100
AcDbVisualStyle
  2
Flat
 70
     0
 71
     2
 72
     1
 73
     1
 90
        2
 40
-0.6
 41
30.0
 62
     5
 63
     7
 74
     0
 91
        4
 64
     7
 65
   257
 75
     1
175
     1
 42
1.0
 92
        8
 66
     7
 43
1.0
 76
     1
 77
     6
 78
     2
 67
     7
 79
     5
170
     0
171
     0
290
     0
174
     0
 93
       13
 44
0.0
173
     0
291
     1
 45
0.0
1001
ACAD
1000
AcDbSavedByObjectVersion
1070
     0
  0
VISUALSTYLE
  5
220
102
{ACAD_REACTORS
330
21E
102
}
330
21E
100
AcDbVisualStyle
  2
FlatWithEdges
 70
     1
 71
     2
 72
     1
 73
     1
 90
        2
 40
-0.6
 41
30.0
 62
     5
 63
     7
 74
     1
 91
        4
 64
     7
 65
   257
 75
     1
175
     1
 42
1.0
 92
        0
 66
   257
 43
1.0
 76
     1
 77
     6
 78
     2
 67
     7
 79
     5
170
     0
171
     0
290
     0
174
     0
 93
       13
 44
0.0
173
     0
291
     1
 45
0.0
1001
ACAD
1000
AcDbSavedByObjectVersion
1070
     0
  0
VISUALSTYLE
  5
221
102
{ACAD_REACTORS
330
21E
102
}
330
21E
100
AcDbVisualStyle
  2
Gouraud
 70
     2
 71
     2
 72
     2
 73
     1
 90
        2
 40
-0.6
 41
30.0
 62
     5
 63
     7
 74
     0
 91
        4
 64
     7
 65
   257
 75
     1
175
     1
 42
1.0
 92
        0
 66
     7
 43
1.0
 76
     1
 77
     6
 78
     2
 67
     7
 79
     5
170
     0
171
     0
290
     0
174
     0
 93
       13
 44
0.0
173
     0
291
     1
 45
0.0
1001
ACAD
1000
AcDbSavedByObjectVersion
1070
     0
  0
VISUALSTYLE
  5
222
102
{ACAD_REACTORS
330
21E
102
}
330
21E
100
AcDbVisualStyle
  2
GouraudWithEdges
 70
     3
 71
     2
 72
     2
 73
     1
 90
        2
 40
-0.6
 41
30.0
 62
     5
 63
     7
 74
     1
 91
        4
 64
     7
 65
   257
 75
     1
175
     1
 42
1.0
 92
        0
 66
   257
 43
1.0
 76
     1
 77
     6
 78
     2
 67
     7
 79
     5
170
     0
171
     0
290
     0
174
     0
 93
       13
 44
0.0
173
     0
291
     1
 45
0.0
1001
ACAD
1000
AcDbSavedByObjectVersion
1070
     0
  0
VISUALSTYLE
  5
22C
102
{ACAD_REACTORS
330
21E
102
}
330
21E
100
AcDbVisualStyle
  2
Linepattern
 70
    14
 71
     2
 72
     2
 73
     0
 90
        0
 40
-0.6
 41
-30.0
 62
     5
 63
     7
 74
     1
 91
        4
 64
     7
 65
   257
 75
     7
175
     7
 42
1.0
 92
        8
 66
     7
 43
1.0
 76
     1
 77
     6
 78
     2
 67
     7
 79
     5
170
     0
171
     0
290
     0
174
     0
 93
        1
 44
0.0
173
     0
291
     1
 45
0.0
1001
ACAD
1000
AcDbSavedByObjectVersion
1070
     0
  0
VISUALSTYLE
  5
228
102
{ACAD_REACTORS
330
21E
102
}
330
21E
100
AcDbVisualStyle
  2
Realistic
 70
     8
 71
     2
 72
     2
 73
     0
 90
        0
 40
-0.6
 41
-30.0
 62
     5
 63
     7
 74
     1
 91
        0
 64
     7
 65
   257
 75
     1
175
     1
 42
1.0
 92
        8
 66
     8
 43
1.0
 76
     1
 77
     6
 78
     2
 67
     7
 79
     5
170
     0
171
     0
290
     0
174
     0
 93
       13
 44
0.0
173
     0
291
     0
 45
0.0
1001
ACAD
1000
AcDbSavedByObjectVersion
1070
     0
  0
VISUALSTYLE
  5
22B
102
{ACAD_REACTORS
330
21E
102
}
330
21E
100
AcDbVisualStyle
  2
Thicken
 70
    13
 71
     2
 72
     2
 73
     0
 90
        0
 40
-0.6
 41
-30.0
 62
     5
 63
     7
 74
     1
 91
        4
 64
     7
 65
   257
 75
     1
175
     1
 42
1.0
 92
       12
 66
     7
 43
1.0
 76
     1
 77
     6
 78
     2
 67
     7
 79
     5
170
     0
171
     0
290
     0
174
     0
 93
        1
 44
0.0
173
     0
291
     1
 45
0.0
1001
ACAD
1000
AcDbSavedByObjectVersion
1070
     0
  0
DICTIONARYVAR
  5
326
102
{ACAD_REACTORS
330
323
102
}
330
323
100
DictionaryVariables
280
     0
  1
1:1
  0
DICTIONARYVAR
  5
325
102
{ACAD_REACTORS
330
323
102
}
330
323
100
DictionaryVariables
280
     0
  1
STANDARD
  0
DICTIONARYVAR
  5
324
102
{ACAD_REACTORS
330
323
102
}
330
323
100
DictionaryVariables
280
     0
  1
STANDARD
  0
DICTIONARYVAR
  5
329
102
{ACAD_REACTORS
330
323
102
}
330
323
100
DictionaryVariables
280
     0
  1
1
  0
DICTIONARYVAR
  5
328
102
{ACAD_REACTORS
330
323
102
}
330
323
100
DictionaryVariables
280
     0
  1
0
  0
DICTIONARYVAR
  5
327
102
{ACAD_REACTORS
330
323
102
}
330
323
100
DictionaryVariables
280
     0
  1
127
  0
XRECORD
  5
33C
102
{ACAD_REACTORS
330
33B
102
}
330
33B
100
AcDbXrecord
280
     1
1070
     0
1070
     1
1070
     1
  0
XRECORD
  5
33F
102
{ACAD_REACTORS
330
33E
102
}
330
33E
100
AcDbXrecord
280
     1
1070
     0
1070
     1
1070
     1
  0
DICTIONARY
  5
333
330
21
100
AcDbDictionary
280
     1
281
     1
  3
ACAD_XREC_ROUNDTRIP
360
334
  0
DICTIONARY
  5
331
330
20
100
AcDbDictionary
280
     1
281
     1
  3
ACAD_XREC_ROUNDTRIP
360
332
  0
DICTIONARY
  5
20F
330
20E
100
AcDbDictionary
280
     1
281
     1
  3
ACAD_XREC_ROUNDTRIP
360
337
  3
BUMPTILE
360
211
  3
DIFFUSETILE
360
210
  3
OPACITYTILE
360
214
  3
REFLECTIONTILE
360
213
  3
REFRACTIONTILE
360
215
  3
SPECULARTILE
360
212
  0
DICTIONARY
  5
207
330
206
100
AcDbDictionary
280
     1
281
     1
  3
ACAD_XREC_ROUNDTRIP
360
336
  3
BUMPTILE
360
209
  3
DIFFUSETILE
360
208
  3
OPACITYTILE
360
20C
  3
REFLECTIONTILE
360
20B
  3
REFRACTIONTILE
360
20D
  3
SPECULARTILE
360
20A
  0
DICTIONARY
  5
217
330
216
100
AcDbDictionary
280
     1
281
     1
  3
ACAD_XREC_ROUNDTRIP
360
338
  3
BUMPTILE
360
219
  3
DIFFUSETILE
360
218
  3
OPACITYTILE
360
21C
  3
REFLECTIONTILE
360
21B
  3
REFRACTIONTILE
360
21D
  3
SPECULARTILE
360
21A
  0
DICTIONARY
  5
32A
330
231
100
AcDbDictionary
280
     1
281
     1
  3
ACAD_ROUNDTRIP_2008_TABLESTYLE_CELLSTYLEMAP
360
32B
  3
ACAD_XREC_ROUNDTRIP
360
339
  0
XRECORD
  5
334
102
{ACAD_REACTORS
330
333
102
}
330
333
100
AcDbXrecord
280
     1
102
SHADEPLOT
 70
     0
102
SHADEPLOTRESLEVEL
 70
     2
102
SHADEPLOTCUSTOMDPI
 70
   300
  0
XRECORD
  5
332
102
{ACAD_REACTORS
330
331
102
}
330
331
100
AcDbXrecord
280
     1
102
SHADEPLOT
 70
     0
102
SHADEPLOTRESLEVEL
 70
     2
102
SHADEPLOTCUSTOMDPI
 70
   300
  0
XRECORD
  5
337
102
{ACAD_REACTORS
330
20F
102
}
330
20F
100
AcDbXrecord
280
     1
102
MATERIAL
148
0.0
149
0.0
149
0.0
 93
        0
 94
      127
282
     0
 72
     0
 77
     0
171
     0
175
     0
179
     0
273
     0
  0
XRECORD
  5
211
102
{ACAD_REACTORS
330
20F
102
}
330
20F
100
AcDbXrecord
280
     1
270
     1
271
     1
  0
XRECORD
  5
210
102
{ACAD_REACTORS
330
20F
102
}
330
20F
100
AcDbXrecord
280
     1
270
     1
271
     1
  0
XRECORD
  5
214
102
{ACAD_REACTORS
330
20F
102
}
330
20F
100
AcDbXrecord
280
     1
270
     1
271
     1
  0
XRECORD
  5
213
102
{ACAD_REACTORS
330
20F
102
}
330
20F
100
AcDbXrecord
280
     1
270
     1
271
     1
  0
XRECORD
  5
215
102
{ACAD_REACTORS
330
20F
102
}
330
20F
100
AcDbXrecord
280
     1
270
     1
271
     1
  0
XRECORD
  5
212
102
{ACAD_REACTORS
330
20F
102
}
330
20F
100
AcDbXrecord
280
     1
270
     1
271
     1
  0
XRECORD
  5
336
102
{ACAD_REACTORS
330
207
102
}
330
207
100
AcDbXrecord
280
     1
102
MATERIAL
148
0.0
149
0.0
149
0.0
 93
        0
 94
      127
282
     0
 72
     0
 77
     0
171
     0
175
     0
179
     0
273
     0
  0
XRECORD
  5
209
102
{ACAD_REACTORS
330
207
102
}
330
207
100
AcDbXrecord
280
     1
270
     1
271
     1
  0
XRECORD
  5
208
102
{ACAD_REACTORS
330
207
102
}
330
207
100
AcDbXrecord
280
     1
270
     1
271
     1
  0
XRECORD
  5
20C
102
{ACAD_REACTORS
330
207
102
}
330
207
100
AcDbXrecord
280
     1
270
     1
271
     1
  0
XRECORD
  5
20B
102
{ACAD_REACTORS
330
207
102
}
330
207
100
AcDbXrecord
280
     1
270
     1
271
     1
  0
XRECORD
  5
20D
102
{ACAD_REACTORS
330
207
102
}
330
207
100
AcDbXrecord
280
     1
270
     1
271
     1
  0
XRECORD
  5
20A
102
{ACAD_REACTORS
330
207
102
}
330
207
100
AcDbXrecord
280
     1
270
     1
271
     1
  0
XRECORD
  5
338
102
{ACAD_REACTORS
330
217
102
}
330
217
100
AcDbXrecord
280
     1
102
MATERIAL
148
0.0
149
0.0
149
0.0
 93
        0
 94
      127
282
     0
 72
     0
 77
     0
171
     0
175
     0
179
     0
273
     0
  0
XRECORD
  5
219
102
{ACAD_REACTORS
330
217
102
}
330
217
100
AcDbXrecord
280
     1
270
     1
271
     1
  0
XRECORD
  5
218
102
{ACAD_REACTORS
330
217
102
}
330
217
100
AcDbXrecord
280
     1
270
     1
271
     1
  0
XRECORD
  5
21C
102
{ACAD_REACTORS
330
217
102
}
330
217
100
AcDbXrecord
280
     1
270
     1
271
     1
  0
XRECORD
  5
21B
102
{ACAD_REACTORS
330
217
102
}
330
217
100
AcDbXrecord
280
     1
270
     1
271
     1
  0
XRECORD
  5
21D
102
{ACAD_REACTORS
330
217
102
}
330
217
100
AcDbXrecord
280
     1
270
     1
271
     1
  0
XRECORD
  5
21A
102
{ACAD_REACTORS
330
217
102
}
330
217
100
AcDbXrecord
280
     1
270
     1
271
     1
  0
CELLSTYLEMAP
  5
32B
102
{ACAD_REACTORS
330
32A
102
}
330
32A
100
AcDbCellStyleMap
 90
        3
300
CELLSTYLE
  1
TABLEFORMAT_BEGIN
 90
        5
170
     1
 91
        0
 92
    32768
 62
   257
 93
        1
300
CONTENTFORMAT
  1
CONTENTFORMAT_BEGIN
 90
        0
 91
        0
 92
      512
 93
        0
300

 40
0.0
140
1.0
 94
        5
 62
     0
340
17
144
6.0
309
CONTENTFORMAT_END
171
     1
301
MARGIN
  1
CELLMARGIN_BEGIN
 40
1.5
 40
1.5
 40
1.5
 40
1.5
 40
4.5
 40
4.5
309
CELLMARGIN_END
 94
        6
 95
        1
302
GRIDFORMAT
  1
GRIDFORMAT_BEGIN
 90
        0
 91
        1
 62
     0
 92
       -2
340
0
 93
        0
 40
1.125
309
GRIDFORMAT_END
 95
        2
302
GRIDFORMAT
  1
GRIDFORMAT_BEGIN
 90
        0
 91
        1
 62
     0
 92
       -2
340
0
 93
        0
 40
1.125
309
GRIDFORMAT_END
 95
        4
302
GRIDFORMAT
  1
GRIDFORMAT_BEGIN
 90
        0
 91
        1
 62
     0
 92
       -2
340
0
 93
        0
 40
1.125
309
GRIDFORMAT_END
 95
        8
302
GRIDFORMAT
  1
GRIDFORMAT_BEGIN
 90
        0
 91
        1
 62
     0
 92
       -2
340
0
 93
        0
 40
1.125
309
GRIDFORMAT_END
 95
       16
302
GRIDFORMAT
  1
GRIDFORMAT_BEGIN
 90
        0
 91
        1
 62
     0
 92
       -2
340
0
 93
        0
 40
1.125
309
GRIDFORMAT_END
 95
       32
302
GRIDFORMAT
  1
GRIDFORMAT_BEGIN
 90
        0
 91
        1
 62
     0
 92
       -2
340
0
 93
        0
 40
1.125
309
GRIDFORMAT_END
309
TABLEFORMAT_END
  1
CELLSTYLE_BEGIN
 90
        1
 91
        1
300
_TITLE
309
CELLSTYLE_END
300
CELLSTYLE
  1
TABLEFORMAT_BEGIN
 90
        5
170
     1
 91
        0
 92
        0
 62
   257
 93
        1
300
CONTENTFORMAT
  1
CONTENTFORMAT_BEGIN
 90
        0
 91
        0
 92
      512
 93
        0
300

 40
0.0
140
1.0
 94
        5
 62
     0
340
17
144
4.5
309
CONTENTFORMAT_END
171
     1
301
MARGIN
  1
CELLMARGIN_BEGIN
 40
1.5
 40
1.5
 40
1.5
 40
1.5
 40
4.5
 40
4.5
309
CELLMARGIN_END
 94
        6
 95
        1
302
GRIDFORMAT
  1
GRIDFORMAT_BEGIN
 90
        0
 91
        1
 62
     0
 92
       -2
340
0
 93
        0
 40
1.125
309
GRIDFORMAT_END
 95
        2
302
GRIDFORMAT
  1
GRIDFORMAT_BEGIN
 90
        0
 91
        1
 62
     0
 92
       -2
340
0
 93
        0
 40
1.125
309
GRIDFORMAT_END
 95
        4
302
GRIDFORMAT
  1
GRIDFORMAT_BEGIN
 90
        0
 91
        1
 62
     0
 92
       -2
340
0
 93
        0
 40
1.125
309
GRIDFORMAT_END
 95
        8
302
GRIDFORMAT
  1
GRIDFORMAT_BEGIN
 90
        0
 91
        1
 62
     0
 92
       -2
340
0
 93
        0
 40
1.125
309
GRIDFORMAT_END
 95
       16
302
GRIDFORMAT
  1
GRIDFORMAT_BEGIN
 90
        0
 91
        1
 62
     0
 92
       -2
340
0
 93
        0
 40
1.125
309
GRIDFORMAT_END
 95
       32
302
GRIDFORMAT
  1
GRIDFORMAT_BEGIN
 90
        0
 91
        1
 62
     0
 92
       -2
340
0
 93
        0
 40
1.125
309
GRIDFORMAT_END
309
TABLEFORMAT_END
  1
CELLSTYLE_BEGIN
 90
        2
 91
        1
300
_HEADER
309
CELLSTYLE_END
300
CELLSTYLE
  1
TABLEFORMAT_BEGIN
 90
        5
170
     1
 91
        0
 92
        0
 62
   257
 93
        1
300
CONTENTFORMAT
  1
CONTENTFORMAT_BEGIN
 90
        0
 91
        0
 92
      512
 93
        0
300

 40
0.0
140
1.0
 94
        2
 62
     0
340
17
144
4.5
309
CONTENTFORMAT_END
171
     1
301
MARGIN
  1
CELLMARGIN_BEGIN
 40
1.5
 40
1.5
 40
1.5
 40
1.5
 40
4.5
 40
4.5
309
CELLMARGIN_END
 94
        6
 95
        1
302
GRIDFORMAT
  1
GRIDFORMAT_BEGIN
 90
        0
 91
        1
 62
     0
 92
       -2
340
0
 93
        0
 40
1.125
309
GRIDFORMAT_END
 95
        2
302
GRIDFORMAT
  1
GRIDFORMAT_BEGIN
 90
        0
 91
        1
 62
     0
 92
       -2
340
0
 93
        0
 40
1.125
309
GRIDFORMAT_END
 95
        4
302
GRIDFORMAT
  1
GRIDFORMAT_BEGIN
 90
        0
 91
        1
 62
     0
 92
       -2
340
0
 93
        0
 40
1.125
309
GRIDFORMAT_END
 95
        8
302
GRIDFORMAT
  1
GRIDFORMAT_BEGIN
 90
        0
 91
        1
 62
     0
 92
       -2
340
0
 93
        0
 40
1.125
309
GRIDFORMAT_END
 95
       16
302
GRIDFORMAT
  1
GRIDFORMAT_BEGIN
 90
        0
 91
        1
 62
     0
 92
       -2
340
0
 93
        0
 40
1.125
309
GRIDFORMAT_END
 95
       32
302
GRIDFORMAT
  1
GRIDFORMAT_BEGIN
 90
        0
 91
        1
 62
     0
 92
       -2
340
0
 93
        0
 40
1.125
309
GRIDFORMAT_END
309
TABLEFORMAT_END
  1
CELLSTYLE_BEGIN
 90
        3
 91
        2
300
_DATA
309
CELLSTYLE_END
  0
XRECORD
  5
339
102
{ACAD_REACTORS
330
32A
102
}
330
32A
100
AcDbXrecord
280
     1
102
ACAD_ROUNDTRIP_PRE2007_TABLESTYLE
 90
      512
 91
        0
  1

 92
      512
 93
        0
  2

 94
      512
 95
        0
  3

  0
ENDSEC
  0
EOF
