  0
SECTION
  2
HEADER
  9
$ACADVER
  1
AC1015
  9
$ACADMAINTVER
 70
    20
  9
$DWGCODEPAGE
  3
ANSI_1252
  9
$INSBASE
 10
0.0
 20
0.0
 30
0.0
  9
$EXTMIN
 10
80.63581232666706
 20
41.43705202264391
 30
-0.0000000349181948
  9
$EXTMAX
 10
612.6969309392836
 20
673.0487477064521
 30
0.0000000814935746
  9
$LIMMIN
 10
111.516535
 20
62.38981800000001
  9
$LIMMAX
 10
223.235642
 20
203.936561
  9
$ORTHOMODE
 70
     1
  9
$REGENMODE
 70
     1
  9
$FILLMODE
 70
     1
  9
$QTEXTMODE
 70
     0
  9
$MIRRTEXT
 70
     1
  9
$LTSCALE
 40
1.0
  9
$ATTMODE
 70
     1
  9
$TEXTSIZE
 40
0.0
  9
$TRACEWID
 40
0.05
  9
$TEXTSTYLE
  7
Standard
  9
$CLAYER
  8
A-031_DimExt
  9
$CELTYPE
  6
ByLayer
  9
$CECOLOR
 62
   256
  9
$CELTSCALE
 40
1.0
  9
$DISPSILH
 70
     0
  9
$DIMSCALE
 40
1.0
  9
$DIMASZ
 40
0.2
  9
$DIMEXO
 40
0.5
  9
$DIMDLI
 40
0.5
  9
$DIMRND
 40
0.0
  9
$DIMDLE
 40
0.0
  9
$DIMEXE
 40
0.2
  9
$DIMTP
 40
0.0
  9
$DIMTM
 40
0.0
  9
$DIMTXT
 40
0.4
  9
$DIMCEN
 40
0.1
  9
$DIMTSZ
 40
0.0
  9
$DIMTOL
 70
     0
  9
$DIMLIM
 70
     0
  9
$DIMTIH
 70
     0
  9
$DIMTOH
 70
     0
  9
$DIMSE1
 70
     1
  9
$DIMSE2
 70
     1
  9
$DIMTAD
 70
     1
  9
$DIMZIN
 70
     1
  9
$DIMBLK
  1

  9
$DIMASO
 70
     1
  9
$DIMSHO
 70
     1
  9
$DIMPOST
  1

  9
$DIMAPOST
  1
m
  9
$DIMALT
 70
     0
  9
$DIMALTD
 70
     2
  9
$DIMALTF
 40
0.01
  9
$DIMLFAC
 40
1.0
  9
$DIMTOFL
 70
     1
  9
$DIMTVP
 40
0.0
  9
$DIMTIX
 70
     1
  9
$DIMSOXD
 70
     0
  9
$DIMSAH
 70
     1
  9
$DIMBLK1
  1
DIML
  9
$DIMBLK2
  1
DIMR
  9
$DIMSTYLE
  2
DIMEXT
  9
$DIMCLRD
 70
     0
  9
$DIMCLRE
 70
     0
  9
$DIMCLRT
 70
     0
  9
$DIMTFAC
 40
1.0
  9
$DIMGAP
 40
0.1
  9
$DIMJUST
 70
     0
  9
$DIMSD1
 70
     0
  9
$DIMSD2
 70
     0
  9
$DIMTOLJ
 70
     1
  9
$DIMTZIN
 70
     0
  9
$DIMALTZ
 70
     8
  9
$DIMALTTZ
 70
     0
  9
$DIMUPT
 70
     0
  9
$DIMDEC
 70
     0
  9
$DIMTDEC
 70
     0
  9
$DIMALTU
 70
     2
  9
$DIMALTTD
 70
     2
  9
$DIMTXSTY
  7
helvetica regular
  9
$DIMAUNIT
 70
     1
  9
$DIMADEC
 70
     0
  9
$DIMALTRND
 40
0.0
  9
$DIMAZIN
 70
     0
  9
$DIMDSEP
 70
    46
  9
$DIMATFIT
 70
     3
  9
$DIMFRAC
 70
     1
  9
$DIMLDRBLK
  1

  9
$DIMLUNIT
 70
     2
  9
$DIMLWD
 70
    -2
  9
$DIMLWE
 70
    -2
  9
$DIMTMOVE
 70
     0
  9
$LUNITS
 70
     2
  9
$LUPREC
 70
     3
  9
$SKETCHINC
 40
0.1
  9
$FILLETRAD
 40
0.0
  9
$AUNITS
 70
     0
  9
$AUPREC
 70
     2
  9
$MENU
  1
acad
  9
$ELEVATION
 40
0.0
  9
$PELEVATION
 40
0.0
  9
$THICKNESS
 40
0.0
  9
$LIMCHECK
 70
     0
  9
$CHAMFERA
 40
0.0
  9
$CHAMFERB
 40
0.0
  9
$CHAMFERC
 40
0.0
  9
$CHAMFERD
 40
0.0
  9
$SKPOLY
 70
     0
  9
$TDCREATE
 40
2454497.439602315
  9
$TDUCREATE
 40
2454497.397935648
  9
$TDUPDATE
 40
2454497.443124815
  9
$TDUUPDATE
 40
2454497.401458148
  9
$TDINDWG
 40
0.0035241204
  9
$TDUSRTIMER
 40
0.0035239352
  9
$USRTIMER
 70
     1
  9
$ANGBASE
 50
0.0
  9
$ANGDIR
 70
     0
  9
$PDMODE
 70
     0
  9
$PDSIZE
 40
0.0
  9
$PLINEWID
 40
0.0
  9
$SPLFRAME
 70
     0
  9
$SPLINETYPE
 70
     6
  9
$SPLINESEGS
 70
     8
  9
$HANDSEED
  5
3A5
  9
$SURFTAB1
 70
     6
  9
$SURFTAB2
 70
     6
  9
$SURFTYPE
 70
     6
  9
$SURFU
 70
     6
  9
$SURFV
 70
     6
  9
$UCSBASE
  2

  9
$UCSNAME
  2

  9
$UCSORG
 10
0.0
 20
0.0
 30
0.0
  9
$UCSXDIR
 10
1.0
 20
0.0
 30
0.0
  9
$UCSYDIR
 10
0.0
 20
1.0
 30
0.0
  9
$UCSORTHOREF
  2

  9
$UCSORTHOVIEW
 70
     0
  9
$UCSORGTOP
 10
0.0
 20
0.0
 30
0.0
  9
$UCSORGBOTTOM
 10
0.0
 20
0.0
 30
0.0
  9
$UCSORGLEFT
 10
0.0
 20
0.0
 30
0.0
  9
$UCSORGRIGHT
 10
0.0
 20
0.0
 30
0.0
  9
$UCSORGFRONT
 10
0.0
 20
0.0
 30
0.0
  9
$UCSORGBACK
 10
0.0
 20
0.0
 30
0.0
  9
$PUCSBASE
  2

  9
$PUCSNAME
  2

  9
$PUCSORG
 10
0.0
 20
0.0
 30
0.0
  9
$PUCSXDIR
 10
1.0
 20
0.0
 30
0.0
  9
$PUCSYDIR
 10
0.0
 20
1.0
 30
0.0
  9
$PUCSORTHOREF
  2

  9
$PUCSORTHOVIEW
 70
     0
  9
$PUCSORGTOP
 10
0.0
 20
0.0
 30
0.0
  9
$PUCSORGBOTTOM
 10
0.0
 20
0.0
 30
0.0
  9
$PUCSORGLEFT
 10
0.0
 20
0.0
 30
0.0
  9
$PUCSORGRIGHT
 10
0.0
 20
0.0
 30
0.0
  9
$PUCSORGFRONT
 10
0.0
 20
0.0
 30
0.0
  9
$PUCSORGBACK
 10
0.0
 20
0.0
 30
0.0
  9
$USERI1
 70
     0
  9
$USERI2
 70
     0
  9
$USERI3
 70
     0
  9
$USERI4
 70
     0
  9
$USERI5
 70
     0
  9
$USERR1
 40
0.0
  9
$USERR2
 40
0.0
  9
$USERR3
 40
0.0
  9
$USERR4
 40
0.0
  9
$USERR5
 40
0.0
  9
$WORLDVIEW
 70
     1
  9
$SHADEDGE
 70
     3
  9
$SHADEDIF
 70
    70
  9
$TILEMODE
 70
     1
  9
$MAXACTVP
 70
    16
  9
$PINSBASE
 10
0.0
 20
0.0
 30
0.0
  9
$PLIMCHECK
 70
     0
  9
$PEXTMIN
 10
1.000000000000000E+20
 20
1.000000000000000E+20
 30
1.000000000000000E+20
  9
$PEXTMAX
 10
-1.000000000000000E+20
 20
-1.000000000000000E+20
 30
-1.000000000000000E+20
  9
$PLIMMIN
 10
0.0
 20
0.0
  9
$PLIMMAX
 10
12.0
 20
9.0
  9
$UNITMODE
 70
     0
  9
$VISRETAIN
 70
     0
  9
$PLINEGEN
 70
     1
  9
$PSLTSCALE
 70
     0
  9
$TREEDEPTH
 70
  3020
  9
$CMLSTYLE
  2
Standard
  9
$CMLJUST
 70
     0
  9
$CMLSCALE
 40
1.0
  9
$PROXYGRAPHICS
 70
     0
  9
$MEASUREMENT
 70
     1
  9
$CELWEIGHT
370
     0
  9
$ENDCAPS
280
     0
  9
$JOINSTYLE
280
     0
  9
$LWDISPLAY
290
     0
  9
$INSUNITS
 70
     4
  9
$HYPERLINKBASE
  1

  9
$STYLESHEET
  1

  9
$XEDIT
290
     1
  9
$CEPSNTYPE
380
     0
  9
$PSTYLEMODE
290
     1
  9
$FINGERPRINTGUID
  2

  9
$VERSIONGUID
  2
{474FBB6F-2B20-4EE4-A518-6C16ED4FE903}
  9
$EXTNAMES
290
     1
  9
$PSVPSCALE
 40
0.0
  9
$OLESTARTUP
290
     0
  0
ENDSEC
  0
SECTION
  2
CLASSES
  0
CLASS
  1
IMAGE
  2
AcDbRasterImage
  3
ISM
 90
    34943
280
     0
281
     1
  0
CLASS
  1
DICTIONARYVAR
  2
AcDbDictionaryVar
  3
ObjectDBX Classes
 90
        0
280
     0
281
     0
  0
CLASS
  1
RASTERVARIABLES
  2
AcDbRasterVariables
  3
ISM
 90
    32768
280
     0
281
     0
  0
CLASS
  1
IMAGEDEF
  2
AcDbRasterImageDef
  3
ISM
 90
    32768
280
     0
281
     0
  0
CLASS
  1
IMAGEDEF_REACTOR
  2
AcDbRasterImageDefReactor
  3
ISM
 90
    32769
280
     0
281
     0
  0
CLASS
  1
IDBUFFER
  2
AcDbIdBuffer
  3
ObjectDBX Classes
 90
    32768
280
     0
281
     0
  0
CLASS
  1
SPATIAL_FILTER
  2
AcDbSpatialFilter
  3
ObjectDBX Classes
 90
    32768
280
     0
281
     0
  0
CLASS
  1
SORTENTSTABLE
  2
AcDbSortentsTable
  3
ObjectDBX Classes
 90
    32768
280
     0
281
     0
  0
CLASS
  1
LAYER_INDEX
  2
AcDbLayerIndex
  3
ObjectDBX Classes
 90
    32768
280
     0
281
     0
  0
CLASS
  1
SPATIAL_INDEX
  2
AcDbSpatialIndex
  3
ObjectDBX Classes
 90
    32768
280
     0
281
     0
  0
CLASS
  1
OBJECT_PTR
  2
CAseDLPNTableRecord
  3
"ASE-LPNTableRecord"
 90
    32769
280
     0
281
     0
  0
CLASS
  1
LAYOUT
  2
AcDbLayout
  3
ObjectDBX Classes
 90
        0
280
     0
281
     0
  0
CLASS
  1
PLOTSETTINGS
  2
AcDbPlotSettings
  3
ObjectDBX Classes
 90
    32768
280
     0
281
     0
  0
CLASS
  1
ACDBDICTIONARYWDFLT
  2
AcDbDictionaryWithDefault
  3
ObjectDBX Classes
 90
        0
280
     0
281
     0
  0
CLASS
  1
ACDBPLACEHOLDER
  2
AcDbPlaceHolder
  3
ObjectDBX Classes
 90
        0
280
     0
281
     0
  0
CLASS
  1
VBA_PROJECT
  2
AcDbVbaProject
  3
acad
 90
    32768
280
     0
281
     0
  0
CLASS
  1
WIPEOUT
  2
AcDbWipeout
  3
"WipeOut|Product Desc: Object Enabler for WipeOut entity                        |Company: Autodesk, Inc.                        |WEB Address: www.autodesk.com"
 90
    34943
280
     0
281
     1
  0
CLASS
  1
WIPEOUTVARIABLES
  2
AcDbWipeoutVariables
  3
"WipeOut|Product Desc:     WipeOut Dbx Application|Company:          Autodesk, Inc.|WEB Address:      www.autodesk.com"
 90
        0
280
     0
281
     0
  0
CLASS
  1
RTEXT
  2
RText
  3
RText|AutoCAD Express Tool|expresstools@autodesk.com
 90
    32768
280
     0
281
     1
  0
CLASS
  1
ARCALIGNEDTEXT
  2
AcDbArcAlignedText
  3
ATEXT|AutoCAD Express Tool|expresstools@autodesk.com
 90
    32768
280
     0
281
     1
  0
CLASS
  1
MATERIAL
  2
AcDbMaterial
  3
ObjectDBX Classes
 90
     1153
280
     0
281
     0
  0
CLASS
  1
VISUALSTYLE
  2
AcDbVisualStyle
  3
ObjectDBX Classes
 90
     4095
280
     0
281
     0
  0
CLASS
  1
TABLESTYLE
  2
AcDbTableStyle
  3
ObjectDBX Classes
 90
     4095
280
     0
281
     0
  0
CLASS
  1
SCALE
  2
AcDbScale
  3
ObjectDBX Classes
 90
     1153
280
     0
281
     0
  0
CLASS
  1
MLEADERSTYLE
  2
AcDbMLeaderStyle
  3
ACDB_MLEADERSTYLE_CLASS
 90
     4095
280
     0
281
     0
  0
CLASS
  1
AEC_VARS_DWG_SETUP
  2
AecDbVarsDwgSetup
  3
AecBase50|Product Desc: Autodesk Architectural Desktop 2007 |Company: Autodesk,Inc. |WEB Address: www.autodesk.com
 90
      129
280
     0
281
     0
  0
CLASS
  1
CELLSTYLEMAP
  2
AcDbCellStyleMap
  3
ObjectDBX Classes
 90
     1152
280
     0
281
     0
  0
ENDSEC
  0
SECTION
  2
TABLES
  0
TABLE
  2
VPORT
  5
7
330
0
100
AcDbSymbolTable
 70
     1
  0
VPORT
  5
15
330
7
100
AcDbSymbolTableRecord
100
AcDbViewportTableRecord
  2
*ACTIVE
 70
     0
 10
0.0
 20
0.0
 11
1.0
 21
1.0
 12
346.6663716329754
 22
357.242899864548
 13
0.0
 23
0.0
 14
1.0
 24
1.0
 15
0.0
 25
0.0
 16
0.0
 26
0.0
 36
1.0
 17
0.0
 27
0.0
 37
0.0
 40
636.5079103790314
 41
1.514877102199223
 42
50.0
 43
0.0
 44
0.0
 50
0.0
 51
0.0
 71
     0
 72
   100
 73
     1
 74
     1
 75
     0
 76
     0
 77
     0
 78
     0
281
     0
 65
     0
110
0.0
120
0.0
130
0.0
111
1.0
121
0.0
131
0.0
112
0.0
122
1.0
132
0.0
 79
     0
146
0.0
  0
ENDTAB
  0
TABLE
  2
LTYPE
  5
4
330
0
100
AcDbSymbolTable
 70
     1
  0
LTYPE
  5
11
330
4
100
AcDbSymbolTableRecord
100
AcDbLinetypeTableRecord
  2
ByBlock
 70
     0
  3

 72
    65
 73
     0
 40
0.0
  0
LTYPE
  5
12
330
4
100
AcDbSymbolTableRecord
100
AcDbLinetypeTableRecord
  2
ByLayer
 70
     0
  3

 72
    65
 73
     0
 40
0.0
  0
LTYPE
  5
13
330
4
100
AcDbSymbolTableRecord
100
AcDbLinetypeTableRecord
  2
Continuous
 70
     0
  3
Solid line
 72
    65
 73
     0
 40
0.0
  0
ENDTAB
  0
TABLE
  2
LAYER
  5
2
102
{ACAD_XDICTIONARY
360
2DE
102
}
330
0
100
AcDbSymbolTable
 70
     6
  0
LAYER
  5
14
102
{ACAD_XDICTIONARY
360
370
102
}
330
2
100
AcDbSymbolTableRecord
100
AcDbLayerTableRecord
  2
0
 70
     0
 62
     7
  6
Continuous
370
    -3
390
1D
  0
LAYER
  5
2D1
102
{ACAD_XDICTIONARY
360
2D2
102
}
330
2
100
AcDbSymbolTableRecord
100
AcDbLayerTableRecord
  2
A-001_Pan
 70
     0
 62
     7
  6
Continuous
370
     9
390
1D
  0
LAYER
  5
2D3
102
{ACAD_XDICTIONARY
360
2D4
102
}
330
2
100
AcDbSymbolTableRecord
100
AcDbLayerTableRecord
  2
A-043_Txt025
 70
     0
 62
     7
  6
Continuous
370
     9
390
1D
1001
AcAecLayerStandard
1000

1000

  0
LAYER
  5
2D5
102
{ACAD_XDICTIONARY
360
2D6
102
}
330
2
100
AcDbSymbolTableRecord
100
AcDbLayerTableRecord
  2
A-031_DimExt
 70
     0
 62
     7
  6
Continuous
370
     9
390
1D
1001
AcAecLayerStandard
1000

1000

  0
LAYER
  5
2D7
330
2
100
AcDbSymbolTableRecord
100
AcDbLayerTableRecord
  2
Defpoints
 70
     0
 62
     7
  6
Continuous
290
     0
370
     9
390
1D
  0
ENDTAB
  0
TABLE
  2
STYLE
  5
3
330
0
100
AcDbSymbolTable
 70
     7
  0
STYLE
  5
17
330
3
100
AcDbSymbolTableRecord
100
AcDbTextStyleTableRecord
  2
Standard
 70
     0
 40
0.0
 41
1.0
 50
0.0
 71
     0
 42
0.0
  3
txt
  4

  0
STYLE
  5
2D8
330
3
100
AcDbSymbolTableRecord
100
AcDbTextStyleTableRecord
  2
helvetica regular
 70
     0
 40
0.0
 41
1.0
 50
0.0
 71
     0
 42
20.0
  3
LTe50259.ttf
  4

1001
ACAD
1000
HelveticaNeue LT 55 Roman
1071
        2
  0
ENDTAB
  0
TABLE
  2
VIEW
  5
5
330
0
100
AcDbSymbolTable
 70
     0
  0
ENDTAB
  0
TABLE
  2
UCS
  5
6
330
0
100
AcDbSymbolTable
 70
     0
  0
ENDTAB
  0
TABLE
  2
APPID
  5
8
330
0
100
AcDbSymbolTable
 70
     9
  0
APPID
  5
16
330
8
100
AcDbSymbolTableRecord
100
AcDbRegAppTableRecord
  2
ACAD
 70
     0
  0
APPID
  5
2B3
330
8
100
AcDbSymbolTableRecord
100
AcDbRegAppTableRecord
  2
ACAD_MLEADERVER
 70
     0
  0
APPID
  5
2B8
330
8
100
AcDbSymbolTableRecord
100
AcDbRegAppTableRecord
  2
ACAD_EXEMPT_FROM_CAD_STANDARDS
 70
     0
  0
APPID
  5
2DA
330
8
100
AcDbSymbolTableRecord
100
AcDbRegAppTableRecord
  2
AcAecLayerStandard
 70
     0
  0
APPID
  5
2DB
330
8
100
AcDbSymbolTableRecord
100
AcDbRegAppTableRecord
  2
ACAD_DSTYLE_DIMJOGGED_JOGANGLE_SYMBOL
 70
     0
  0
APPID
  5
2DC
330
8
100
AcDbSymbolTableRecord
100
AcDbRegAppTableRecord
  2
ACAD_DSTYLE_DIMJAG
 70
     0
  0
APPID
  5
2DD
330
8
100
AcDbSymbolTableRecord
100
AcDbRegAppTableRecord
  2
ACAD_DSTYLE_DIMTALN
 70
     0
  0
APPID
  5
375
330
8
100
AcDbSymbolTableRecord
100
AcDbRegAppTableRecord
  2
ACAD_PSEXT
 70
     0
  0
APPID
  5
3A4
330
8
100
AcDbSymbolTableRecord
100
AcDbRegAppTableRecord
  2
ACAD_DSTYLE_DIMEXT_LENGTH
 70
     0
  0
ENDTAB
  0
TABLE
  2
DIMSTYLE
  5
9
330
0
100
AcDbSymbolTable
 70
     4
100
AcDbDimStyleTable
 71
     2
340
2D9
340
18
  0
DIMSTYLE
105
18
330
9
100
AcDbSymbolTableRecord
100
AcDbDimStyleTableRecord
  2
Standard
 70
     0
340
17
  0
DIMSTYLE
105
2D9
102
{ACAD_REACTORS
330
2E3
330
302
330
321
330
32C
330
34A
330
355
330
360
102
}
330
9
100
AcDbSymbolTableRecord
100
AcDbDimStyleTableRecord
  2
DIMEXT
 70
     0
  4
m
 40
50.0
 41
0.2
 42
0.5
 43
0.5
 44
0.2
 73
     0
 74
     0
 75
     1
 76
     1
 77
     1
 78
     1
140
0.4
141
0.1
143
0.01
147
0.1
172
     1
173
     1
174
     1
271
     0
272
     0
275
     1
276
     1
285
     8
340
2D8
343
2B9
344
2C0
1001
ACAD_DSTYLE_DIMJAG
1070
   388
1040
1.5
1001
ACAD_DSTYLE_DIMTALN
1070
   392
1070
     0
1001
ACAD_DSTYLE_DIMEXT_LENGTH
1070
   378
1040
0.2
1001
ACAD_DSTYLE_DIMJOGGED_JOGANGLE_SYMBOL
1070
   384
1040
1.570796326794896
  0
ENDTAB
  0
TABLE
  2
BLOCK_RECORD
  5
1
330
0
100
AcDbSymbolTable
 70
    32
  0
BLOCK_RECORD
  5
A
330
1
100
AcDbSymbolTableRecord
100
AcDbBlockTableRecord
  2
*MODEL_SPACE
340
20
  0
BLOCK_RECORD
  5
B
330
1
100
AcDbSymbolTableRecord
100
AcDbBlockTableRecord
  2
*PAPER_SPACE
340
21
  0
BLOCK_RECORD
  5
2B9
102
{ACAD_XDICTIONARY
360
39E
102
}
330
1
100
AcDbSymbolTableRecord
100
AcDbBlockTableRecord
  2
DIML
340
0
310
2800000020000000200000000100080000000000000400000000000000000000000000000000000000000000000080000080000000808000800000008000800080800000C0C0C000C0DCC000F0CAA6000020400000206000002080000020A0000020C0000020E00000400000004020000040400000406000004080000040A0
310
000040C0000040E00000600000006020000060400000606000006080000060A0000060C0000060E00000800000008020000080400000806000008080000080A0000080C0000080E00000A0000000A0200000A0400000A0600000A0800000A0A00000A0C00000A0E00000C0000000C0200000C0400000C0600000C0800000C0
310
A00000C0C00000C0E00000E0000000E0200000E0400000E0600000E0800000E0A00000E0C00000E0E00040000000400020004000400040006000400080004000A0004000C0004000E00040200000402020004020400040206000402080004020A0004020C0004020E000404000004040200040404000404060004040800040
310
40A0004040C0004040E00040600000406020004060400040606000406080004060A0004060C0004060E00040800000408020004080400040806000408080004080A0004080C0004080E00040A0000040A0200040A0400040A0600040A0800040A0A00040A0C00040A0E00040C0000040C0200040C0400040C0600040C08000
310
40C0A00040C0C00040C0E00040E0000040E0200040E0400040E0600040E0800040E0A00040E0C00040E0E00080000000800020008000400080006000800080008000A0008000C0008000E00080200000802020008020400080206000802080008020A0008020C0008020E00080400000804020008040400080406000804080
310
008040A0008040C0008040E00080600000806020008060400080606000806080008060A0008060C0008060E00080800000808020008080400080806000808080008080A0008080C0008080E00080A0000080A0200080A0400080A0600080A0800080A0A00080A0C00080A0E00080C0000080C0200080C0400080C0600080C0
310
800080C0A00080C0C00080C0E00080E0000080E0200080E0400080E0600080E0800080E0A00080E0C00080E0E000C0000000C0002000C0004000C0006000C0008000C000A000C000C000C000E000C0200000C0202000C0204000C0206000C0208000C020A000C020C000C020E000C0400000C0402000C0404000C0406000C0
310
408000C040A000C040C000C040E000C0600000C0602000C0604000C0606000C0608000C060A000C060C000C060E000C0800000C0802000C0804000C0806000C0808000C080A000C080C000C080E000C0A00000C0A02000C0A04000C0A06000C0A08000C0A0A000C0A0C000C0A0E000C0C00000C0C02000C0C04000C0C06000
310
C0C08000C0C0A000F0FBFF00A4A0A000808080000000FF0000FF000000FFFF00FF000000FF00FF00FFFF0000FFFFFF00000000000000000000000000000000000000000000000000000000000000000000000000000000000000000000000000FF000000000000000000000000000000000000000000000000000000000000
310
00FF00000000000000000000000000000000000000000000000000000000000000FF00000000000000000000000000000000000000000000000000000000000000FF00000000000000000000000000000000000000000000000000000000000000FF0000000000000000000000000000000000000000000000000000000000
310
0000FF00000000000000000000000000000000000000000000000000000000000000FF00000000000000000000000000000000000000000000000000000000000000FF0000000000000000000000000000000000000000000000000000000000FFFFFFFF000000000000000000000000000000000000000000000000000000
310
00FFFFFFFF0000000000000000000000000000000000000000FFFFFFFFFFFFFFFFFFFFFFFFFFFFFFFFFFFFFFFF0000000000000000000000000000000000000000FFFFFFFF0000000000000000000000000000000000000000000000000000000000FFFF000000000000000000000000000000000000000000000000000000
310
00000000FF00000000000000000000000000000000000000000000000000000000000000FF00000000000000000000000000000000000000000000000000000000000000FF00000000000000000000000000000000000000000000000000000000000000FF0000000000000000000000000000000000000000000000000000
310
0000000000FF00000000000000000000000000000000000000000000000000000000000000FF00000000000000000000000000000000000000000000000000000000000000FF00000000000000000000000000000000000000000000000000000000000000FF00000000000000000000000000000000000000000000000000
310
000000000000FF00000000000000000000000000000000000000000000000000000000000000FF00000000000000000000000000000000000000000000000000000000000000FF00000000000000000000000000000000000000000000000000000000000000FF000000000000000000000000000000000000000000000000
310
00000000000000FF00000000000000000000000000000000000000000000000000000000000000FF00000000000000000000000000000000000000000000000000000000000000FF00000000000000000000000000000000000000000000000000000000000000FF0000000000000000000000000000000000000000000000
310
0000000000000000FF0000000000000000000000000000000000000000000000000000000000000000000000000000000000000000000000
102
{BLKREFS
331
2CA
331
2F8
331
31C
331
326
331
338
331
343
331
34F
331
35A
331
365
102
}
1001
ACAD
1000
DesignCenter Data
1002
{
1070
     1
1070
     4
1002
}
  0
BLOCK_RECORD
  5
2C0
102
{ACAD_XDICTIONARY
360
3A1
102
}
330
1
100
AcDbSymbolTableRecord
100
AcDbBlockTableRecord
  2
DIMR
340
0
310
2800000020000000200000000100080000000000000400000000000000000000000000000000000000000000000080000080000000808000800000008000800080800000C0C0C000C0DCC000F0CAA6000020400000206000002080000020A0000020C0000020E00000400000004020000040400000406000004080000040A0
310
000040C0000040E00000600000006020000060400000606000006080000060A0000060C0000060E00000800000008020000080400000806000008080000080A0000080C0000080E00000A0000000A0200000A0400000A0600000A0800000A0A00000A0C00000A0E00000C0000000C0200000C0400000C0600000C0800000C0
310
A00000C0C00000C0E00000E0000000E0200000E0400000E0600000E0800000E0A00000E0C00000E0E00040000000400020004000400040006000400080004000A0004000C0004000E00040200000402020004020400040206000402080004020A0004020C0004020E000404000004040200040404000404060004040800040
310
40A0004040C0004040E00040600000406020004060400040606000406080004060A0004060C0004060E00040800000408020004080400040806000408080004080A0004080C0004080E00040A0000040A0200040A0400040A0600040A0800040A0A00040A0C00040A0E00040C0000040C0200040C0400040C0600040C08000
310
40C0A00040C0C00040C0E00040E0000040E0200040E0400040E0600040E0800040E0A00040E0C00040E0E00080000000800020008000400080006000800080008000A0008000C0008000E00080200000802020008020400080206000802080008020A0008020C0008020E00080400000804020008040400080406000804080
310
008040A0008040C0008040E00080600000806020008060400080606000806080008060A0008060C0008060E00080800000808020008080400080806000808080008080A0008080C0008080E00080A0000080A0200080A0400080A0600080A0800080A0A00080A0C00080A0E00080C0000080C0200080C0400080C0600080C0
310
800080C0A00080C0C00080C0E00080E0000080E0200080E0400080E0600080E0800080E0A00080E0C00080E0E000C0000000C0002000C0004000C0006000C0008000C000A000C000C000C000E000C0200000C0202000C0204000C0206000C0208000C020A000C020C000C020E000C0400000C0402000C0404000C0406000C0
310
408000C040A000C040C000C040E000C0600000C0602000C0604000C0606000C0608000C060A000C060C000C060E000C0800000C0802000C0804000C0806000C0808000C080A000C080C000C080E000C0A00000C0A02000C0A04000C0A06000C0A08000C0A0A000C0A0C000C0A0E000C0C00000C0C02000C0C04000C0C06000
310
C0C08000C0C0A000F0FBFF00A4A0A000808080000000FF0000FF000000FFFF00FF000000FF00FF00FFFF0000FFFFFF000000000000000000000000000000000000000000000000000000000000000000000000000000000000000000000000FF00000000000000000000000000000000000000000000000000000000000000
310
FF00000000000000000000000000000000000000000000000000000000000000FF00000000000000000000000000000000000000000000000000000000000000FF00000000000000000000000000000000000000000000000000000000000000FF000000000000000000000000000000000000000000000000000000000000
310
00FF00000000000000000000000000000000000000000000000000000000000000FF00000000000000000000000000000000000000000000000000000000000000FF00000000000000000000000000000000000000000000000000000000000000FF0000000000000000000000000000000000000000000000000000000000
310
0000FF00000000000000000000000000000000000000000000000000000000000000FF00000000000000000000000000000000000000000000000000000000000000FF00000000000000000000000000000000000000000000000000000000000000FF00000000000000000000000000000000000000000000000000000000
310
000000FF00000000000000000000000000000000000000000000000000000000000000FF00000000000000000000000000000000000000000000000000000000000000FF00000000000000000000000000000000000000000000000000000000000000FF000000000000000000000000000000000000000000000000000000
310
00000000FF000000000000000000000000000000000000000000000000000000000000FFFFFFFF0000000000000000000000000000000000000000FFFFFFFFFFFFFFFFFFFFFFFFFFFFFFFFFFFFFFFF0000000000000000000000000000000000000000FFFFFFFF000000000000000000000000000000000000000000000000
310
0000000000FFFF000000000000000000000000000000000000000000000000000000000000FF00000000000000000000000000000000000000000000000000000000000000FF00000000000000000000000000000000000000000000000000000000000000FF00000000000000000000000000000000000000000000000000
310
000000000000FF00000000000000000000000000000000000000000000000000000000000000FF00000000000000000000000000000000000000000000000000000000000000FF00000000000000000000000000000000000000000000000000000000000000FF000000000000000000000000000000000000000000000000
310
00000000000000FF000000000000000000000000000000000000000000000000000000000000000000000000000000000000000000000000
102
{BLKREFS
331
2CB
331
2F9
331
31B
331
327
331
339
331
344
331
350
331
35B
331
366
102
}
1001
ACAD
1000
DesignCenter Data
1002
{
1070
     1
1070
     4
1002
}
  0
BLOCK_RECORD
  5
303
330
1
100
AcDbSymbolTableRecord
100
AcDbBlockTableRecord
  2
*D24
340
0
  0
BLOCK_RECORD
  5
322
330
1
100
AcDbSymbolTableRecord
100
AcDbBlockTableRecord
  2
*D25
340
0
  0
BLOCK_RECORD
  5
32D
330
1
100
AcDbSymbolTableRecord
100
AcDbBlockTableRecord
  2
*D26
340
0
  0
BLOCK_RECORD
  5
34B
330
1
100
AcDbSymbolTableRecord
100
AcDbBlockTableRecord
  2
*D28
340
0
  0
BLOCK_RECORD
  5
356
330
1
100
AcDbSymbolTableRecord
100
AcDbBlockTableRecord
  2
*D29
340
0
  0
BLOCK_RECORD
  5
361
330
1
100
AcDbSymbolTableRecord
100
AcDbBlockTableRecord
  2
*D30
340
0
  0
ENDTAB
  0
ENDSEC
  0
SECTION
  2
BLOCKS
  0
BLOCK
  5
D
330
A
100
AcDbEntity
  8
0
100
AcDbBlockBegin
  2
*MODEL_SPACE
 70
     0
 10
0.0
 20
0.0
 30
0.0
  3
*MODEL_SPACE
  1

  0
ENDBLK
  5
E
330
A
100
AcDbEntity
  8
0
100
AcDbBlockEnd
  0
BLOCK
  5
F
330
B
100
AcDbEntity
 67
     1
  8
0
100
AcDbBlockBegin
  2
*PAPER_SPACE
 70
     0
 10
0.0
 20
0.0
 30
0.0
  3
*PAPER_SPACE
  1

  0
ENDBLK
  5
10
330
B
100
AcDbEntity
 67
     1
  8
0
100
AcDbBlockEnd
  0
BLOCK
  5
2BA
330
2B9
100
AcDbEntity
  8
0
100
AcDbBlockBegin
  2
DIML
 70
     0
 10
0.0
 20
0.0
 30
0.0
  3
DIML
  1

  0
LINE
  5
2BB
330
2B9
100
AcDbEntity
  8
0
 62
     0
100
AcDbLine
 10
0.0
 20
0.0000000000000071
 30
0.0
 11
0.0
 21
2.0
 31
0.0
  0
LINE
  5
2BC
330
2B9
100
AcDbEntity
  8
0
 62
     0
100
AcDbLine
 10
0.0
 20
-1.0
 30
0.0
 11
0.0
 21
0.0000000000000071
 31
0.0
  0
LINE
  5
2BD
330
2B9
100
AcDbEntity
  8
0
 62
     0
100
AcDbLine
 10
-1.0
 20
0.0
 30
0.0
 11
1.0
 21
0.0
 31
0.0
  0
LWPOLYLINE
  5
2BE
330
2B9
100
AcDbEntity
  8
0
370
     0
100
AcDbPolyline
 90
        2
 70
   129
 43
0.2
 10
-0.1000000000000014
 20
0.0
 42
1.0
 10
0.1000000000000014
 20
0.0
 42
1.0
  0
ENDBLK
  5
2BF
330
2B9
100
AcDbEntity
  8
0
100
AcDbBlockEnd
  0
BLOCK
  5
2C1
330
2C0
100
AcDbEntity
  8
0
100
AcDbBlockBegin
  2
DIMR
 70
     0
 10
0.0
 20
0.0
 30
0.0
  3
DIMR
  1

  0
LINE
  5
2C2
330
2C0
100
AcDbEntity
  8
0
 62
     0
100
AcDbLine
 10
1.000000000000007
 20
-0.0000000000000213
 30
0.0
 11
-0.9999999999999928
 21
0.0000000000000213
 31
0.0
  0
LINE
  5
2C3
330
2C0
100
AcDbEntity
  8
0
 62
     0
100
AcDbLine
 10
0.0000000000000071
 20
1.000000000000021
 30
0.0
 11
0.0
 21
0.0
 31
0.0
  0
LINE
  5
2C4
330
2C0
100
AcDbEntity
  8
0
 62
     0
100
AcDbLine
 10
0.0
 20
0.0
 30
0.0
 11
0.0000000000000071
 21
-1.999999999999978
 31
0.0
  0
LWPOLYLINE
  5
2C5
330
2C0
100
AcDbEntity
  8
0
370
     0
100
AcDbPolyline
 90
        2
 70
   129
 43
0.2
 10
-0.0999999999999943
 20
0.0
 42
1.0
 10
0.1000000000000085
 20
0.0
 42
1.0
  0
ENDBLK
  5
2C6
330
2C0
100
AcDbEntity
  8
0
100
AcDbBlockEnd
  0
BLOCK
  5
304
330
303
100
AcDbEntity
  8
0
370
     0
100
AcDbBlockBegin
  2
*D24
 70
     1
 10
0.0
 20
0.0
 30
0.0
  3
*D24
  1

  0
LINE
  5
318
330
303
100
AcDbEntity
  8
A-031_DimExt
 62
     0
370
    -2
100
AcDbLine
 10
590.6398827394723
 20
51.49648222849628
 30
0.0
 11
600.6398827394723
 21
51.49648222849628
 31
0.0
  0
LINE
  5
319
330
303
100
AcDbEntity
  8
A-031_DimExt
 62
     0
370
    -2
100
AcDbLine
 10
552.6856667869035
 20
51.49648222849628
 30
0.0
 11
505.0946303723376
 21
51.49648222849628
 31
0.0
  0
LINE
  5
31A
330
303
100
AcDbEntity
  8
A-031_DimExt
 62
     0
370
    -2
100
AcDbLine
 10
580.6398827394723
 20
51.49648222849628
 30
0.0
 11
562.6856667869035
 21
51.49648222849628
 31
0.0
  0
INSERT
  5
31B
330
303
100
AcDbEntity
  8
A-031_DimExt
 62
     0
370
    -2
100
AcDbBlockReference
  2
DIMR
 10
580.6398827394723
 20
51.49648222849628
 30
0.0
 41
10.0
 42
10.0
 43
10.0
 50
180.0
  0
INSERT
  5
31C
330
303
100
AcDbEntity
  8
A-031_DimExt
 62
     0
370
    -2
100
AcDbBlockReference
  2
DIML
 10
562.6856667869035
 20
51.49648222849628
 30
0.0
 41
10.0
 42
10.0
 43
10.0
  0
MTEXT
  5
31D
330
303
100
AcDbEntity
  8
A-031_DimExt
 62
     0
370
     0
100
AcDbMText
 10
523.8901485796206
 20
66.66454945538703
 30
0.0
 40
20.0
 41
0.0
 71
     5
 72
     1
  1
\A1;18
  7
helvetica regular
 73
     1
 44
1.0
1001
ACAD
1000
MTEXTBEGIN
1070
    73
1070
     1
1070
    44
1040
1.0
1070
    74
1070
     0
1000
MTEXTEND
  0
POINT
  5
31E
330
303
100
AcDbEntity
  8
Defpoints
 62
     0
370
     0
100
AcDbPoint
 10
562.6856667869035
 20
165.0645071452871
 30
0.0
  0
POINT
  5
31F
330
303
100
AcDbEntity
  8
Defpoints
 62
     0
370
     0
100
AcDbPoint
 10
580.6398827394723
 20
165.0645071454995
 30
0.0
  0
POINT
  5
320
330
303
100
AcDbEntity
  8
Defpoints
 62
     0
370
     0
100
AcDbPoint
 10
580.6398827394723
 20
51.49648222849628
 30
0.0
  0
ENDBLK
  5
305
330
303
100
AcDbEntity
  8
0
370
     0
100
AcDbBlockEnd
  0
BLOCK
  5
323
330
322
100
AcDbEntity
  8
0
370
     0
100
AcDbBlockBegin
  2
*D25
 70
     1
 10
0.0
 20
0.0
 30
0.0
  3
*D25
  1

  0
LINE
  5
325
330
322
100
AcDbEntity
  8
A-031_DimExt
 62
     0
370
    -2
100
AcDbLine
 10
152.6789106509502
 20
124.5380135159312
 30
0.0
 11
152.6789106509503
 21
454.5134099999999
 31
0.0
  0
INSERT
  5
326
330
322
100
AcDbEntity
  8
A-031_DimExt
 62
     0
370
    -2
100
AcDbBlockReference
  2
DIML
 10
152.6789106509502
 20
114.5380135159312
 30
0.0
 41
10.0
 42
10.0
 43
10.0
 50
270.0
  0
INSERT
  5
327
330
322
100
AcDbEntity
  8
A-031_DimExt
 62
     0
370
    -2
100
AcDbBlockReference
  2
DIMR
 10
152.6789106509503
 20
464.5134099999999
 30
0.0
 41
10.0
 42
10.0
 43
10.0
 50
90.0
  0
MTEXT
  5
328
330
322
100
AcDbEntity
  8
A-031_DimExt
 62
     0
370
     0
100
AcDbMText
 10
137.5108434240595
 20
289.5257117579656
 30
0.0
 40
20.0
 41
0.0
 71
     5
 72
     1
  1
\A1;350
  7
helvetica regular
 11
0.0000000000000001
 21
1.0
 31
0.0
 73
     1
 44
1.0
1001
ACAD
1000
MTEXTBEGIN
1070
    73
1070
     1
1070
    44
1040
1.0
1070
    74
1070
     0
1000
MTEXTEND
  0
POINT
  5
329
330
322
100
AcDbEntity
  8
Defpoints
 62
     0
370
     0
100
AcDbPoint
 10
221.946698965976
 20
114.5380135159312
 30
0.0
  0
POINT
  5
32A
330
322
100
AcDbEntity
  8
Defpoints
 62
     0
370
     0
100
AcDbPoint
 10
225.5797550468769
 20
464.5134099999999
 30
0.0
  0
POINT
  5
32B
330
322
100
AcDbEntity
  8
Defpoints
 62
     0
370
     0
100
AcDbPoint
 10
152.6789106509503
 20
464.5134099999999
 30
0.0
  0
ENDBLK
  5
324
330
322
100
AcDbEntity
  8
0
370
     0
100
AcDbBlockEnd
  0
BLOCK
  5
32E
330
32D
100
AcDbEntity
  8
0
370
     0
100
AcDbBlockBegin
  2
*D26
 70
     1
 10
0.0
 20
0.0
 30
0.0
  3
*D26
  1

  0
LINE
  5
337
330
32D
100
AcDbEntity
  8
A-031_DimExt
 62
     0
370
    -2
100
AcDbLine
 10
112.6789106509502
 20
96.51341051013236
 30
0.0
 11
112.6789106509503
 21
454.51341
 31
0.0
  0
INSERT
  5
338
330
32D
100
AcDbEntity
  8
A-031_DimExt
 62
     0
370
    -2
100
AcDbBlockReference
  2
DIML
 10
112.6789106509502
 20
86.51341051013236
 30
0.0
 41
10.0
 42
10.0
 43
10.0
 50
270.0
  0
INSERT
  5
339
330
32D
100
AcDbEntity
  8
A-031_DimExt
 62
     0
370
    -2
100
AcDbBlockReference
  2
DIMR
 10
112.6789106509503
 20
464.5134099999999
 30
0.0
 41
10.0
 42
10.0
 43
10.0
 50
90.0
  0
MTEXT
  5
33A
330
32D
100
AcDbEntity
  8
A-031_DimExt
 62
     0
370
     0
100
AcDbMText
 10
97.51084342405949
 20
275.5134102550662
 30
0.0
 40
20.0
 41
0.0
 71
     5
 72
     1
  1
\A1;378
  7
helvetica regular
 11
0.0000000000000001
 21
1.0
 31
0.0
 73
     1
 44
1.0
1001
ACAD
1000
MTEXTBEGIN
1070
    73
1070
     1
1070
    44
1040
1.0
1070
    74
1070
     0
1000
MTEXTEND
  0
POINT
  5
33B
330
32D
100
AcDbEntity
  8
Defpoints
 62
     0
370
     0
100
AcDbPoint
 10
319.9246796892645
 20
86.51341051013231
 30
0.0
  0
POINT
  5
33C
330
32D
100
AcDbEntity
  8
Defpoints
 62
     0
370
     0
100
AcDbPoint
 10
225.5797550468769
 20
464.5134099999999
 30
0.0
  0
POINT
  5
33D
330
32D
100
AcDbEntity
  8
Defpoints
 62
     0
370
     0
100
AcDbPoint
 10
112.6789106509503
 20
464.5134099999999
 30
0.0
  0
ENDBLK
  5
32F
330
32D
100
AcDbEntity
  8
0
370
     0
100
AcDbBlockEnd
  0
BLOCK
  5
34C
330
34B
100
AcDbEntity
  8
0
370
     0
100
AcDbBlockBegin
  2
*D28
 70
     1
 10
0.0
 20
0.0
 30
0.0
  3
*D28
  1

  0
LINE
  5
34E
330
34B
100
AcDbEntity
  8
A-031_DimExt
 62
     0
370
    -2
100
AcDbLine
 10
404.684000636614
 20
553.0023594481008
 30
0.0
 11
234.6467212582322
 21
553.0023594481008
 31
0.0
  0
INSERT
  5
34F
330
34B
100
AcDbEntity
  8
A-031_DimExt
 62
     0
370
    -2
100
AcDbBlockReference
  2
DIML
 10
414.684000636614
 20
553.0023594481008
 30
0.0
 41
10.0
 42
10.0
 43
10.0
  0
INSERT
  5
350
330
34B
100
AcDbEntity
  8
A-031_DimExt
 62
     0
370
    -2
100
AcDbBlockReference
  2
DIMR
 10
224.6467212582321
 20
553.0023594481008
 30
0.0
 41
10.0
 42
10.0
 43
10.0
 50
180.0
  0
MTEXT
  5
351
330
34B
100
AcDbEntity
  8
A-031_DimExt
 62
     0
370
     0
100
AcDbMText
 10
319.6653609474231
 20
568.1704266749916
 30
0.0
 40
20.0
 41
0.0
 71
     5
 72
     1
  1
\A1;190
  7
helvetica regular
 73
     1
 44
1.0
1001
ACAD
1000
MTEXTBEGIN
1070
    73
1070
     1
1070
    44
1040
1.0
1070
    74
1070
     0
1000
MTEXTEND
  0
POINT
  5
352
330
34B
100
AcDbEntity
  8
Defpoints
 62
     0
370
     0
100
AcDbPoint
 10
414.684000636614
 20
560.0140232040797
 30
0.0
  0
POINT
  5
353
330
34B
100
AcDbEntity
  8
Defpoints
 62
     0
370
     0
100
AcDbPoint
 10
224.6467212582321
 20
560.0140232040796
 30
0.0
  0
POINT
  5
354
330
34B
100
AcDbEntity
  8
Defpoints
 62
     0
370
     0
100
AcDbPoint
 10
224.6467212582321
 20
553.0023594481008
 30
0.0
  0
ENDBLK
  5
34D
330
34B
100
AcDbEntity
  8
0
370
     0
100
AcDbBlockEnd
  0
BLOCK
  5
357
330
356
100
AcDbEntity
  8
0
370
     0
100
AcDbBlockBegin
  2
*D29
 70
     1
 10
0.0
 20
0.0
 30
0.0
  3
*D29
  1

  0
LINE
  5
359
330
356
100
AcDbEntity
  8
A-031_DimExt
 62
     0
370
    -2
100
AcDbLine
 10
436.6492232166721
 20
513.0023594481008
 30
0.0
 11
202.6789125221587
 21
513.0023594481008
 31
0.0
  0
INSERT
  5
35A
330
356
100
AcDbEntity
  8
A-031_DimExt
 62
     0
370
    -2
100
AcDbBlockReference
  2
DIML
 10
446.6492232166721
 20
513.0023594481008
 30
0.0
 41
10.0
 42
10.0
 43
10.0
  0
INSERT
  5
35B
330
356
100
AcDbEntity
  8
A-031_DimExt
 62
     0
370
    -2
100
AcDbBlockReference
  2
DIMR
 10
192.6789125221587
 20
513.0023594481008
 30
0.0
 41
10.0
 42
10.0
 43
10.0
 50
180.0
  0
MTEXT
  5
35C
330
356
100
AcDbEntity
  8
A-031_DimExt
 62
     0
370
     0
100
AcDbMText
 10
319.6640678694154
 20
528.1704266749916
 30
0.0
 40
20.0
 41
0.0
 71
     5
 72
     1
  1
\A1;254
  7
helvetica regular
 73
     1
 44
1.0
1001
ACAD
1000
MTEXTBEGIN
1070
    73
1070
     1
1070
    44
1040
1.0
1070
    74
1070
     0
1000
MTEXTEND
  0
POINT
  5
35D
330
356
100
AcDbEntity
  8
Defpoints
 62
     0
370
     0
100
AcDbPoint
 10
446.6492232166721
 20
601.6159031666123
 30
0.0
  0
POINT
  5
35E
330
356
100
AcDbEntity
  8
Defpoints
 62
     0
370
     0
100
AcDbPoint
 10
192.6789125221587
 20
601.6159031666123
 30
0.0
  0
POINT
  5
35F
330
356
100
AcDbEntity
  8
Defpoints
 62
     0
370
     0
100
AcDbPoint
 10
192.6789125221587
 20
513.0023594481008
 30
0.0
  0
ENDBLK
  5
358
330
356
100
AcDbEntity
  8
0
370
     0
100
AcDbBlockEnd
  0
BLOCK
  5
362
330
361
100
AcDbEntity
  8
0
370
     0
100
AcDbBlockBegin
  2
*D30
 70
     1
 10
0.0
 20
0.0
 30
0.0
  3
*D30
  1

  0
LINE
  5
364
330
361
100
AcDbEntity
  8
A-031_DimExt
 62
     0
370
    -2
100
AcDbLine
 10
532.6229541517569
 20
513.0023594481008
 30
0.0
 11
592.644135601495
 21
513.0023594481008
 31
0.0
  0
INSERT
  5
365
330
361
100
AcDbEntity
  8
A-031_DimExt
 62
     0
370
    -2
100
AcDbBlockReference
  2
DIML
 10
522.6229541517568
 20
513.0023594481008
 30
0.0
 41
10.0
 42
10.0
 43
10.0
 50
180.0
  0
INSERT
  5
366
330
361
100
AcDbEntity
  8
A-031_DimExt
 62
     0
370
    -2
100
AcDbBlockReference
  2
DIMR
 10
602.644135601495
 20
513.0023594481008
 30
0.0
 41
10.0
 42
10.0
 43
10.0
  0
MTEXT
  5
367
330
361
100
AcDbEntity
  8
A-031_DimExt
 62
     0
370
     0
100
AcDbMText
 10
562.6335448766259
 20
528.1704266749916
 30
0.0
 40
20.0
 41
0.0
 71
     5
 72
     1
  1
\A1;80
  7
helvetica regular
 73
     1
 44
1.0
1001
ACAD
1000
MTEXTBEGIN
1070
    73
1070
     1
1070
    44
1040
1.0
1070
    74
1070
     0
1000
MTEXTEND
  0
POINT
  5
368
330
361
100
AcDbEntity
  8
Defpoints
 62
     0
370
     0
100
AcDbPoint
 10
522.6229541517568
 20
464.5134099999999
 30
0.0
  0
POINT
  5
369
330
361
100
AcDbEntity
  8
Defpoints
 62
     0
370
     0
100
AcDbPoint
 10
602.644135601495
 20
443.4050273061214
 30
0.0
  0
POINT
  5
36A
330
361
100
AcDbEntity
  8
Defpoints
 62
     0
370
     0
100
AcDbPoint
 10
602.644135601495
 20
513.0023594481008
 30
0.0
  0
ENDBLK
  5
363
330
361
100
AcDbEntity
  8
0
370
     0
100
AcDbBlockEnd
  0
ENDSEC
  0
SECTION
  2
ENTITIES
  0
POLYLINE
  5
D3
330
A
100
AcDbEntity
  8
A-001_Pan
100
AcDb2dPolyline
 66
     1
 10
0.0
 20
0.0
 30
0.0
  0
VERTEX
  5
D4
330
D3
100
AcDbEntity
  8
A-001_Pan
100
AcDbVertex
100
AcDb2dVertex
 10
427.967878646532
 20
96.58120928649971
 30
0.0
  0
VERTEX
  5
D5
330
D3
100
AcDbEntity
  8
A-001_Pan
100
AcDbVertex
100
AcDb2dVertex
 10
427.967878646532
 20
94.50665553120201
 30
0.0
  0
VERTEX
  5
D6
330
D3
100
AcDbEntity
  8
A-001_Pan
100
AcDbVertex
100
AcDb2dVertex
 10
427.8636330567943
 20
93.98801834274445
 30
0.0
  0
VERTEX
  5
D7
330
D3
100
AcDbEntity
  8
A-001_Pan
100
AcDbVertex
100
AcDb2dVertex
 10
427.657727636082
 20
93.36513056308167
 30
0.0
  0
VERTEX
  5
D8
330
D3
100
AcDbEntity
  8
A-001_Pan
100
AcDbVertex
100
AcDb2dVertex
 10
427.4492414580745
 20
92.84649337462417
 30
0.0
  0
VERTEX
  5
D9
330
D3
100
AcDbEntity
  8
A-001_Pan
100
AcDbVertex
100
AcDb2dVertex
 10
427.0348448578868
 20
92.42951601714134
 30
0.0
  0
VERTEX
  5
DA
330
D3
100
AcDbEntity
  8
A-001_Pan
100
AcDbVertex
100
AcDb2dVertex
 10
426.6178675004041
 20
92.0151194169539
 30
0.0
  0
VERTEX
  5
DB
330
D3
100
AcDbEntity
  8
A-001_Pan
100
AcDbVertex
100
AcDb2dVertex
 10
426.0992253104791
 20
91.80662823747866
 30
0.0
  0
VERTEX
  5
DC
330
D3
100
AcDbEntity
  8
A-001_Pan
100
AcDbVertex
100
AcDb2dVertex
 10
425.4763425322837
 20
91.60072781823391
 30
0.0
  0
VERTEX
  5
DD
330
D3
100
AcDbEntity
  8
A-001_Pan
100
AcDbVertex
100
AcDb2dVertex
 10
424.9577053438263
 20
91.49648222849629
 30
0.0
  0
VERTEX
  5
DE
330
D3
100
AcDbEntity
  8
A-001_Pan
100
AcDbVertex
100
AcDb2dVertex
 10
319.9246795416519
 20
91.49648222849629
 30
0.0
  0
VERTEX
  5
DF
330
D3
100
AcDbEntity
  8
A-001_Pan
100
AcDbVertex
100
AcDb2dVertex
 10
214.9933135704519
 20
91.49648222849629
 30
0.0
  0
VERTEX
  5
E0
330
D3
100
AcDbEntity
  8
A-001_Pan
100
AcDbVertex
100
AcDb2dVertex
 10
214.370430792257
 20
91.60072781823391
 30
0.0
  0
VERTEX
  5
E1
330
D3
100
AcDbEntity
  8
A-001_Pan
100
AcDbVertex
100
AcDb2dVertex
 10
213.8517936037993
 20
91.80662823747866
 30
0.0
  0
VERTEX
  5
E2
330
D3
100
AcDbEntity
  8
A-001_Pan
100
AcDbVertex
100
AcDb2dVertex
 10
213.3331514138742
 20
92.0151194169539
 30
0.0
  0
VERTEX
  5
E3
330
D3
100
AcDbEntity
  8
A-001_Pan
100
AcDbVertex
100
AcDb2dVertex
 10
212.8145142254167
 20
92.42951601714134
 30
0.0
  0
VERTEX
  5
E4
330
D3
100
AcDbEntity
  8
A-001_Pan
100
AcDbVertex
100
AcDb2dVertex
 10
212.5017774562039
 20
92.84649337462417
 30
0.0
  0
VERTEX
  5
E5
330
D3
100
AcDbEntity
  8
A-001_Pan
100
AcDbVertex
100
AcDb2dVertex
 10
212.1916314472215
 20
93.36513056308167
 30
0.0
  0
VERTEX
  5
E6
330
D3
100
AcDbEntity
  8
A-001_Pan
100
AcDbVertex
100
AcDb2dVertex
 10
211.9831402677465
 20
93.98801834274445
 30
0.0
  0
VERTEX
  5
E7
330
D3
100
AcDbEntity
  8
A-001_Pan
100
AcDbVertex
100
AcDb2dVertex
 10
211.9831402677465
 20
94.50665553120201
 30
0.0
  0
VERTEX
  5
E8
330
D3
100
AcDbEntity
  8
A-001_Pan
100
AcDbVertex
100
AcDb2dVertex
 10
211.9831402677465
 20
96.58120928649971
 30
0.0
  0
VERTEX
  5
E9
330
D3
100
AcDbEntity
  8
A-001_Pan
100
AcDbVertex
100
AcDb2dVertex
 10
211.9831402677465
 20
99.17699099048542
 30
0.0
  0
VERTEX
  5
EA
330
D3
100
AcDbEntity
  8
A-001_Pan
100
AcDbVertex
100
AcDb2dVertex
 10
211.9831402677465
 20
99.69562817894292
 30
0.0
  0
VERTEX
  5
EB
330
D3
100
AcDbEntity
  8
A-001_Pan
100
AcDbVertex
100
AcDb2dVertex
 10
212.087385857484
 20
100.2142703688681
 30
0.0
  0
VERTEX
  5
EC
330
D3
100
AcDbEntity
  8
A-001_Pan
100
AcDbVertex
100
AcDb2dVertex
 10
212.2958770369592
 20
100.6286619675879
 30
0.0
  0
VERTEX
  5
ED
330
D3
100
AcDbEntity
  8
A-001_Pan
100
AcDbVertex
100
AcDb2dVertex
 10
212.6060230459415
 20
101.0456443265384
 30
0.0
  0
VERTEX
  5
EE
330
D3
100
AcDbEntity
  8
A-001_Pan
100
AcDbVertex
100
AcDb2dVertex
 10
212.9187598151542
 20
101.4600359252583
 30
0.0
  0
VERTEX
  5
EF
330
D3
100
AcDbEntity
  8
A-001_Pan
100
AcDbVertex
100
AcDb2dVertex
 10
213.3331514138742
 20
101.7701869357082
 30
0.0
  0
VERTEX
  5
F0
330
D3
100
AcDbEntity
  8
A-001_Pan
100
AcDbVertex
100
AcDb2dVertex
 10
213.7475480140617
 20
101.9786781151835
 30
0.0
  0
VERTEX
  5
F1
330
D3
100
AcDbEntity
  8
A-001_Pan
100
AcDbVertex
100
AcDb2dVertex
 10
214.1645253715446
 20
102.0829187034534
 30
0.0
  0
VERTEX
  5
F2
330
D3
100
AcDbEntity
  8
A-001_Pan
100
AcDbVertex
100
AcDb2dVertex
 10
216.9662124962427
 20
102.9117069023609
 30
0.0
  0
VERTEX
  5
F3
330
D3
100
AcDbEntity
  8
A-001_Pan
100
AcDbVertex
100
AcDb2dVertex
 10
219.7678946194731
 20
103.6388402717613
 30
0.0
  0
VERTEX
  5
F4
330
D3
100
AcDbEntity
  8
A-001_Pan
100
AcDbVertex
100
AcDb2dVertex
 10
220.1822912196606
 20
103.7430808600312
 30
0.0
  0
VERTEX
  5
F5
330
D3
100
AcDbEntity
  8
A-001_Pan
100
AcDbVertex
100
AcDb2dVertex
 10
220.5992685771434
 20
104.0532318704811
 30
0.0
  0
VERTEX
  5
F6
330
D3
100
AcDbEntity
  8
A-001_Pan
100
AcDbVertex
100
AcDb2dVertex
 10
221.013665177331
 20
104.2617230499564
 30
0.0
  0
VERTEX
  5
F7
330
D3
100
AcDbEntity
  8
A-001_Pan
100
AcDbVertex
100
AcDb2dVertex
 10
221.3238111863133
 20
104.6761146486763
 30
0.0
  0
VERTEX
  5
F8
330
D3
100
AcDbEntity
  8
A-001_Pan
100
AcDbVertex
100
AcDb2dVertex
 10
221.636547955526
 20
105.0930970076267
 30
0.0
  0
VERTEX
  5
F9
330
D3
100
AcDbEntity
  8
A-001_Pan
100
AcDbVertex
100
AcDb2dVertex
 10
221.8450391350013
 20
105.5074886063466
 30
0.0
  0
VERTEX
  5
FA
330
D3
100
AcDbEntity
  8
A-001_Pan
100
AcDbVertex
100
AcDb2dVertex
 10
221.946698965976
 20
106.0261257948041
 30
0.0
  0
VERTEX
  5
FB
330
D3
100
AcDbEntity
  8
A-001_Pan
100
AcDbVertex
100
AcDb2dVertex
 10
221.946698965976
 20
106.5447679847293
 30
0.0
  0
VERTEX
  5
FC
330
D3
100
AcDbEntity
  8
A-001_Pan
100
AcDbVertex
100
AcDb2dVertex
 10
221.946698965976
 20
114.5380135159312
 30
0.0
  0
VERTEX
  5
FD
330
D3
100
AcDbEntity
  8
A-001_Pan
100
AcDbVertex
100
AcDb2dVertex
 10
221.946698965976
 20
122.4244276986326
 30
0.0
  0
VERTEX
  5
FE
330
D3
100
AcDbEntity
  8
A-001_Pan
100
AcDbVertex
100
AcDb2dVertex
 10
221.946698965976
 20
122.9430648870901
 30
0.0
  0
VERTEX
  5
FF
330
D3
100
AcDbEntity
  8
A-001_Pan
100
AcDbVertex
100
AcDb2dVertex
 10
221.8450391350013
 20
123.4617070770154
 30
0.0
  0
VERTEX
  5
100
330
D3
100
AcDbEntity
  8
A-001_Pan
100
AcDbVertex
100
AcDb2dVertex
 10
221.5323023657884
 20
123.8786844344981
 30
0.0
  0
VERTEX
  5
101
330
D3
100
AcDbEntity
  8
A-001_Pan
100
AcDbVertex
100
AcDb2dVertex
 10
221.2221513553384
 20
124.293076033218
 30
0.0
  0
VERTEX
  5
102
330
D3
100
AcDbEntity
  8
A-001_Pan
100
AcDbVertex
100
AcDb2dVertex
 10
220.9094195875933
 20
124.7074726334056
 30
0.0
  0
VERTEX
  5
103
330
D3
100
AcDbEntity
  8
A-001_Pan
100
AcDbVertex
100
AcDb2dVertex
 10
220.4950229874059
 20
125.0202044011507
 30
0.0
  0
VERTEX
  5
104
330
D3
100
AcDbEntity
  8
A-001_Pan
100
AcDbVertex
100
AcDb2dVertex
 10
219.9763857989482
 20
125.2261098218631
 30
0.0
  0
VERTEX
  5
105
330
D3
100
AcDbEntity
  8
A-001_Pan
100
AcDbVertex
100
AcDb2dVertex
 10
219.4577486104907
 20
125.3303554116007
 30
0.0
  0
VERTEX
  5
106
330
D3
100
AcDbEntity
  8
A-001_Pan
100
AcDbVertex
100
AcDb2dVertex
 10
213.4373970036118
 20
126.3702205487462
 30
0.0
  0
VERTEX
  5
107
330
D3
100
AcDbEntity
  8
A-001_Pan
100
AcDbVertex
100
AcDb2dVertex
 10
209.5958497432357
 20
127.0947631579161
 30
0.0
  0
VERTEX
  5
108
330
D3
100
AcDbEntity
  8
A-001_Pan
100
AcDbVertex
100
AcDb2dVertex
 10
208.6628159545907
 20
127.3032543373912
 30
0.0
  0
VERTEX
  5
109
330
D3
100
AcDbEntity
  8
A-001_Pan
100
AcDbVertex
100
AcDb2dVertex
 10
207.7297821659456
 20
127.7176459361112
 30
0.0
  0
VERTEX
  5
10A
330
D3
100
AcDbEntity
  8
A-001_Pan
100
AcDbVertex
100
AcDb2dVertex
 10
207.002653798013
 20
128.3405287143063
 30
0.0
  0
VERTEX
  5
10B
330
D3
100
AcDbEntity
  8
A-001_Pan
100
AcDbVertex
100
AcDb2dVertex
 10
206.2755254300802
 20
128.963416493969
 30
0.0
  0
VERTEX
  5
10C
330
D3
100
AcDbEntity
  8
A-001_Pan
100
AcDbVertex
100
AcDb2dVertex
 10
205.7568882416228
 20
129.7947854501718
 30
0.0
  0
VERTEX
  5
10D
330
D3
100
AcDbEntity
  8
A-001_Pan
100
AcDbVertex
100
AcDb2dVertex
 10
205.3424916414351
 20
130.6235786505469
 30
0.0
  0
VERTEX
  5
10E
330
D3
100
AcDbEntity
  8
A-001_Pan
100
AcDbVertex
100
AcDb2dVertex
 10
205.02975987369
 20
131.6634387862248
 30
0.0
  0
VERTEX
  5
10F
330
D3
100
AcDbEntity
  8
A-001_Pan
100
AcDbVertex
100
AcDb2dVertex
 10
204.9255142839524
 20
132.5964725748699
 30
0.0
  0
VERTEX
  5
110
330
D3
100
AcDbEntity
  8
A-001_Pan
100
AcDbVertex
100
AcDb2dVertex
 10
204.9255142839524
 20
133.219355353065
 30
0.0
  0
VERTEX
  5
111
330
D3
100
AcDbEntity
  8
A-001_Pan
100
AcDbVertex
100
AcDb2dVertex
 10
205.02975987369
 20
133.7379975429902
 30
0.0
  0
VERTEX
  5
112
330
D3
100
AcDbEntity
  8
A-001_Pan
100
AcDbVertex
100
AcDb2dVertex
 10
205.02975987369
 20
134.2566347314476
 30
0.0
  0
VERTEX
  5
113
330
D3
100
AcDbEntity
  8
A-001_Pan
100
AcDbVertex
100
AcDb2dVertex
 10
205.02975987369
 20
134.7752719199052
 30
0.0
  0
VERTEX
  5
114
330
D3
100
AcDbEntity
  8
A-001_Pan
100
AcDbVertex
100
AcDb2dVertex
 10
205.1340054634276
 20
135.1922542788555
 30
0.0
  0
VERTEX
  5
115
330
D3
100
AcDbEntity
  8
A-001_Pan
100
AcDbVertex
100
AcDb2dVertex
 10
205.1340054634276
 20
135.7108914673131
 30
0.0
  0
VERTEX
  5
116
330
D3
100
AcDbEntity
  8
A-001_Pan
100
AcDbVertex
100
AcDb2dVertex
 10
205.2382460516976
 20
136.2295286557706
 30
0.0
  0
VERTEX
  5
117
330
D3
100
AcDbEntity
  8
A-001_Pan
100
AcDbVertex
100
AcDb2dVertex
 10
205.3424916414351
 20
136.6439252559582
 30
0.0
  0
VERTEX
  5
118
330
D3
100
AcDbEntity
  8
A-001_Pan
100
AcDbVertex
100
AcDb2dVertex
 10
205.4441514724098
 20
137.1625624444157
 30
0.0
  0
VERTEX
  5
119
330
D3
100
AcDbEntity
  8
A-001_Pan
100
AcDbVertex
100
AcDb2dVertex
 10
205.6526426518852
 20
137.5769590446032
 30
0.0
  0
VERTEX
  5
11A
330
D3
100
AcDbEntity
  8
A-001_Pan
100
AcDbVertex
100
AcDb2dVertex
 10
205.7568882416228
 20
138.0981819918236
 30
0.0
  0
VERTEX
  5
11B
330
D3
100
AcDbEntity
  8
A-001_Pan
100
AcDbVertex
100
AcDb2dVertex
 10
205.9653794210979
 20
138.5125785920112
 30
0.0
  0
VERTEX
  5
11C
330
D3
100
AcDbEntity
  8
A-001_Pan
100
AcDbVertex
100
AcDb2dVertex
 10
206.0670392520727
 20
139.0312157804687
 30
0.0
  0
VERTEX
  5
11D
330
D3
100
AcDbEntity
  8
A-001_Pan
100
AcDbVertex
100
AcDb2dVertex
 10
206.2755254300802
 20
139.4456073791887
 30
0.0
  0
VERTEX
  5
11E
330
D3
100
AcDbEntity
  8
A-001_Pan
100
AcDbVertex
100
AcDb2dVertex
 10
206.4840166095556
 20
139.9642495691138
 30
0.0
  0
VERTEX
  5
11F
330
D3
100
AcDbEntity
  8
A-001_Pan
100
AcDbVertex
100
AcDb2dVertex
 10
206.6899220302679
 20
140.3812269265966
 30
0.0
  0
VERTEX
  5
120
330
D3
100
AcDbEntity
  8
A-001_Pan
100
AcDbVertex
100
AcDb2dVertex
 10
207.002653798013
 20
140.7956235267841
 30
0.0
  0
VERTEX
  5
121
330
D3
100
AcDbEntity
  8
A-001_Pan
100
AcDbVertex
100
AcDb2dVertex
 10
207.2085592187252
 20
141.210015125504
 30
0.0
  0
VERTEX
  5
122
330
D3
100
AcDbEntity
  8
A-001_Pan
100
AcDbVertex
100
AcDb2dVertex
 10
207.4170503982006
 20
141.6269974844545
 30
0.0
  0
VERTEX
  5
123
330
D3
100
AcDbEntity
  8
A-001_Pan
100
AcDbVertex
100
AcDb2dVertex
 10
207.625536576208
 20
142.1456346729119
 30
0.0
  0
VERTEX
  5
124
330
D3
100
AcDbEntity
  8
A-001_Pan
100
AcDbVertex
100
AcDb2dVertex
 10
207.8314419969204
 20
142.5600262716319
 30
0.0
  0
VERTEX
  5
125
330
D3
100
AcDbEntity
  8
A-001_Pan
100
AcDbVertex
100
AcDb2dVertex
 10
208.0399331763956
 20
142.9744228718194
 30
0.0
  0
VERTEX
  5
126
330
D3
100
AcDbEntity
  8
A-001_Pan
100
AcDbVertex
100
AcDb2dVertex
 10
208.1441787661333
 20
143.493060060277
 30
0.0
  0
VERTEX
  5
127
330
D3
100
AcDbEntity
  8
A-001_Pan
100
AcDbVertex
100
AcDb2dVertex
 10
208.3500841868456
 20
143.9100424192274
 30
0.0
  0
VERTEX
  5
128
330
D3
100
AcDbEntity
  8
A-001_Pan
100
AcDbVertex
100
AcDb2dVertex
 10
208.4543297765833
 20
144.4286796076849
 30
0.0
  0
VERTEX
  5
129
330
D3
100
AcDbEntity
  8
A-001_Pan
100
AcDbVertex
100
AcDb2dVertex
 10
208.5585703648532
 20
144.9473167961424
 30
0.0
  0
VERTEX
  5
12A
330
D3
100
AcDbEntity
  8
A-001_Pan
100
AcDbVertex
100
AcDb2dVertex
 10
208.6628159545907
 20
145.36171339633
 30
0.0
  0
VERTEX
  5
12B
330
D3
100
AcDbEntity
  8
A-001_Pan
100
AcDbVertex
100
AcDb2dVertex
 10
208.7670615443283
 20
145.8803505847875
 30
0.0
  0
VERTEX
  5
12C
330
D3
100
AcDbEntity
  8
A-001_Pan
100
AcDbVertex
100
AcDb2dVertex
 10
208.8713071340661
 20
146.3989927747126
 30
0.0
  0
VERTEX
  5
12D
330
D3
100
AcDbEntity
  8
A-001_Pan
100
AcDbVertex
100
AcDb2dVertex
 10
208.8713071340661
 20
146.8159701321954
 30
0.0
  0
VERTEX
  5
12E
330
D3
100
AcDbEntity
  8
A-001_Pan
100
AcDbVertex
100
AcDb2dVertex
 10
208.9729669650407
 20
147.334607320653
 30
0.0
  0
VERTEX
  5
12F
330
D3
100
AcDbEntity
  8
A-001_Pan
100
AcDbVertex
100
AcDb2dVertex
 10
208.9729669650407
 20
147.8532495105781
 30
0.0
  0
VERTEX
  5
130
330
D3
100
AcDbEntity
  8
A-001_Pan
100
AcDbVertex
100
AcDb2dVertex
 10
208.9729669650407
 20
148.3718866990356
 30
0.0
  0
VERTEX
  5
131
330
D3
100
AcDbEntity
  8
A-001_Pan
100
AcDbVertex
100
AcDb2dVertex
 10
208.9729669650407
 20
278.729488723418
 30
0.0
  0
VERTEX
  5
132
330
D3
100
AcDbEntity
  8
A-001_Pan
100
AcDbVertex
100
AcDb2dVertex
 10
208.9729669650407
 20
406.8066315717903
 30
0.0
  0
VERTEX
  5
133
330
D3
100
AcDbEntity
  8
A-001_Pan
100
AcDbVertex
100
AcDb2dVertex
 10
208.9729669650407
 20
407.5311741809602
 30
0.0
  0
VERTEX
  5
134
330
D3
100
AcDbEntity
  8
A-001_Pan
100
AcDbVertex
100
AcDb2dVertex
 10
208.8713071340661
 20
408.3625481386305
 30
0.0
  0
VERTEX
  5
135
330
D3
100
AcDbEntity
  8
A-001_Pan
100
AcDbVertex
100
AcDb2dVertex
 10
208.8713071340661
 20
409.0896765065632
 30
0.0
  0
VERTEX
  5
136
330
D3
100
AcDbEntity
  8
A-001_Pan
100
AcDbVertex
100
AcDb2dVertex
 10
208.7670615443283
 20
409.8168048744959
 30
0.0
  0
VERTEX
  5
137
330
D3
100
AcDbEntity
  8
A-001_Pan
100
AcDbVertex
100
AcDb2dVertex
 10
208.6628159545907
 20
410.5413474836659
 30
0.0
  0
VERTEX
  5
138
330
D3
100
AcDbEntity
  8
A-001_Pan
100
AcDbVertex
100
AcDb2dVertex
 10
208.4543297765833
 20
411.2684758515984
 30
0.0
  0
VERTEX
  5
139
330
D3
100
AcDbEntity
  8
A-001_Pan
100
AcDbVertex
100
AcDb2dVertex
 10
208.2484243558709
 20
411.9956042195312
 30
0.0
  0
VERTEX
  5
13A
330
D3
100
AcDbEntity
  8
A-001_Pan
100
AcDbVertex
100
AcDb2dVertex
 10
208.0399331763956
 20
412.8243924184388
 30
0.0
  0
VERTEX
  5
13B
330
D3
100
AcDbEntity
  8
A-001_Pan
100
AcDbVertex
100
AcDb2dVertex
 10
207.8314419969204
 20
413.4472751966339
 30
0.0
  0
VERTEX
  5
13C
330
D3
100
AcDbEntity
  8
A-001_Pan
100
AcDbVertex
100
AcDb2dVertex
 10
207.5212959879381
 20
414.1744035645666
 30
0.0
  0
VERTEX
  5
13D
330
D3
100
AcDbEntity
  8
A-001_Pan
100
AcDbVertex
100
AcDb2dVertex
 10
207.2085592187252
 20
414.9015319324993
 30
0.0
  0
VERTEX
  5
13E
330
D3
100
AcDbEntity
  8
A-001_Pan
100
AcDbVertex
100
AcDb2dVertex
 10
206.8984082082754
 20
415.6286603004319
 30
0.0
  0
VERTEX
  5
13F
330
D3
100
AcDbEntity
  8
A-001_Pan
100
AcDbVertex
100
AcDb2dVertex
 10
206.5856764405302
 20
416.2515480800949
 30
0.0
  0
VERTEX
  5
140
330
D3
100
AcDbEntity
  8
A-001_Pan
100
AcDbVertex
100
AcDb2dVertex
 10
206.1712798403426
 20
416.9760906892647
 30
0.0
  0
VERTEX
  5
141
330
D3
100
AcDbEntity
  8
A-001_Pan
100
AcDbVertex
100
AcDb2dVertex
 10
205.8611338313603
 20
417.5989734674597
 30
0.0
  0
VERTEX
  5
142
330
D3
100
AcDbEntity
  8
A-001_Pan
100
AcDbVertex
100
AcDb2dVertex
 10
205.4441514724098
 20
418.2218562456549
 30
0.0
  0
VERTEX
  5
143
330
D3
100
AcDbEntity
  8
A-001_Pan
100
AcDbVertex
100
AcDb2dVertex
 10
202.1238271592543
 20
422.8921917049383
 30
0.0
  0
VERTEX
  5
144
330
D3
100
AcDbEntity
  8
A-001_Pan
100
AcDbVertex
100
AcDb2dVertex
 10
197.1433456909885
 20
430.1583088682074
 30
0.0
  0
VERTEX
  5
145
330
D3
100
AcDbEntity
  8
A-001_Pan
100
AcDbVertex
100
AcDb2dVertex
 10
197.039100101251
 20
430.2625544579452
 30
0.0
  0
VERTEX
  5
146
330
D3
100
AcDbEntity
  8
A-001_Pan
100
AcDbVertex
100
AcDb2dVertex
 10
196.9348545115133
 20
430.4684598786574
 30
0.0
  0
VERTEX
  5
147
330
D3
100
AcDbEntity
  8
A-001_Pan
100
AcDbVertex
100
AcDb2dVertex
 10
196.8306089217756
 20
430.6769510581327
 30
0.0
  0
VERTEX
  5
148
330
D3
100
AcDbEntity
  8
A-001_Pan
100
AcDbVertex
100
AcDb2dVertex
 10
196.6221177423006
 20
430.7811916464027
 30
0.0
  0
VERTEX
  5
149
330
D3
100
AcDbEntity
  8
A-001_Pan
100
AcDbVertex
100
AcDb2dVertex
 10
196.5204579113257
 20
430.9896828258779
 30
0.0
  0
VERTEX
  5
14A
330
D3
100
AcDbEntity
  8
A-001_Pan
100
AcDbVertex
100
AcDb2dVertex
 10
196.4162173230557
 20
431.0913426568526
 30
0.0
  0
VERTEX
  5
14B
330
D3
100
AcDbEntity
  8
A-001_Pan
100
AcDbVertex
100
AcDb2dVertex
 10
196.3119717333182
 20
431.2998338363279
 30
0.0
  0
VERTEX
  5
14C
330
D3
100
AcDbEntity
  8
A-001_Pan
100
AcDbVertex
100
AcDb2dVertex
 10
196.3119717333182
 20
431.4040794260654
 30
0.0
  0
VERTEX
  5
14D
330
D3
100
AcDbEntity
  8
A-001_Pan
100
AcDbVertex
100
AcDb2dVertex
 10
196.2077261435806
 20
431.6125656040729
 30
0.0
  0
VERTEX
  5
14E
330
D3
100
AcDbEntity
  8
A-001_Pan
100
AcDbVertex
100
AcDb2dVertex
 10
196.103480553843
 20
431.8184710247854
 30
0.0
  0
VERTEX
  5
14F
330
D3
100
AcDbEntity
  8
A-001_Pan
100
AcDbVertex
100
AcDb2dVertex
 10
195.9992349641053
 20
431.9227166145229
 30
0.0
  0
VERTEX
  5
150
330
D3
100
AcDbEntity
  8
A-001_Pan
100
AcDbVertex
100
AcDb2dVertex
 10
195.8975751331306
 20
432.1312077939983
 30
0.0
  0
VERTEX
  5
151
330
D3
100
AcDbEntity
  8
A-001_Pan
100
AcDbVertex
100
AcDb2dVertex
 10
195.793329543393
 20
432.2328676249729
 30
0.0
  0
VERTEX
  5
152
330
D3
100
AcDbEntity
  8
A-001_Pan
100
AcDbVertex
100
AcDb2dVertex
 10
195.6890889551232
 20
432.4413538029804
 30
0.0
  0
VERTEX
  5
153
330
D3
100
AcDbEntity
  8
A-001_Pan
100
AcDbVertex
100
AcDb2dVertex
 10
195.5848433653854
 20
432.6498449824557
 30
0.0
  0
VERTEX
  5
154
330
D3
100
AcDbEntity
  8
A-001_Pan
100
AcDbVertex
100
AcDb2dVertex
 10
195.4805977756479
 20
432.7540905721932
 30
0.0
  0
VERTEX
  5
155
330
D3
100
AcDbEntity
  8
A-001_Pan
100
AcDbVertex
100
AcDb2dVertex
 10
195.3789379446732
 20
432.9599959929057
 30
0.0
  0
VERTEX
  5
156
330
D3
100
AcDbEntity
  8
A-001_Pan
100
AcDbVertex
100
AcDb2dVertex
 10
195.2746923549355
 20
433.1684821709132
 30
0.0
  0
VERTEX
  5
157
330
D3
100
AcDbEntity
  8
A-001_Pan
100
AcDbVertex
100
AcDb2dVertex
 10
195.1704467651979
 20
433.2727277606507
 30
0.0
  0
VERTEX
  5
158
330
D3
100
AcDbEntity
  8
A-001_Pan
100
AcDbVertex
100
AcDb2dVertex
 10
195.1704467651979
 20
433.4786331813631
 30
0.0
  0
VERTEX
  5
159
330
D3
100
AcDbEntity
  8
A-001_Pan
100
AcDbVertex
100
AcDb2dVertex
 10
195.0662011754602
 20
433.6871243608382
 30
0.0
  0
VERTEX
  5
15A
330
D3
100
AcDbEntity
  8
A-001_Pan
100
AcDbVertex
100
AcDb2dVertex
 10
194.9619605871904
 20
433.791369950576
 30
0.0
  0
VERTEX
  5
15B
330
D3
100
AcDbEntity
  8
A-001_Pan
100
AcDbVertex
100
AcDb2dVertex
 10
194.8577149974527
 20
433.9972703698206
 30
0.0
  0
VERTEX
  5
15C
330
D3
100
AcDbEntity
  8
A-001_Pan
100
AcDbVertex
100
AcDb2dVertex
 10
194.756055166478
 20
434.2057615492959
 30
0.0
  0
VERTEX
  5
15D
330
D3
100
AcDbEntity
  8
A-001_Pan
100
AcDbVertex
100
AcDb2dVertex
 10
194.6518095767405
 20
434.3100071390334
 30
0.0
  0
VERTEX
  5
15E
330
D3
100
AcDbEntity
  8
A-001_Pan
100
AcDbVertex
100
AcDb2dVertex
 10
194.6518095767405
 20
434.5184983185087
 30
0.0
  0
VERTEX
  5
15F
330
D3
100
AcDbEntity
  8
A-001_Pan
100
AcDbVertex
100
AcDb2dVertex
 10
194.5475639870027
 20
434.724403739221
 30
0.0
  0
VERTEX
  5
160
330
D3
100
AcDbEntity
  8
A-001_Pan
100
AcDbVertex
100
AcDb2dVertex
 10
194.4433183972651
 20
434.8286443274909
 30
0.0
  0
VERTEX
  5
161
330
D3
100
AcDbEntity
  8
A-001_Pan
100
AcDbVertex
100
AcDb2dVertex
 10
194.3390728075276
 20
435.0371355069661
 30
0.0
  0
VERTEX
  5
162
330
D3
100
AcDbEntity
  8
A-001_Pan
100
AcDbVertex
100
AcDb2dVertex
 10
194.3390728075276
 20
435.2430409276784
 30
0.0
  0
VERTEX
  5
163
330
D3
100
AcDbEntity
  8
A-001_Pan
100
AcDbVertex
100
AcDb2dVertex
 10
194.2348272177899
 20
435.347286517416
 30
0.0
  0
VERTEX
  5
164
330
D3
100
AcDbEntity
  8
A-001_Pan
100
AcDbVertex
100
AcDb2dVertex
 10
194.1331673868151
 20
435.5557726954237
 30
0.0
  0
VERTEX
  5
165
330
D3
100
AcDbEntity
  8
A-001_Pan
100
AcDbVertex
100
AcDb2dVertex
 10
194.0289267985452
 20
435.9701692956112
 30
0.0
  0
VERTEX
  5
166
330
D3
100
AcDbEntity
  8
A-001_Pan
100
AcDbVertex
100
AcDb2dVertex
 10
193.9246812088077
 20
436.2829010633565
 30
0.0
  0
VERTEX
  5
167
330
D3
100
AcDbEntity
  8
A-001_Pan
100
AcDbVertex
100
AcDb2dVertex
 10
193.7161900293324
 20
436.5930520738063
 30
0.0
  0
VERTEX
  5
168
330
D3
100
AcDbEntity
  8
A-001_Pan
100
AcDbVertex
100
AcDb2dVertex
 10
193.6145301983577
 20
437.0074486739938
 30
0.0
  0
VERTEX
  5
169
330
D3
100
AcDbEntity
  8
A-001_Pan
100
AcDbVertex
100
AcDb2dVertex
 10
193.5102846086202
 20
437.4244260314767
 30
0.0
  0
VERTEX
  5
16A
330
D3
100
AcDbEntity
  8
A-001_Pan
100
AcDbVertex
100
AcDb2dVertex
 10
193.4060390188825
 20
437.7345770419267
 30
0.0
  0
VERTEX
  5
16B
330
D3
100
AcDbEntity
  8
A-001_Pan
100
AcDbVertex
100
AcDb2dVertex
 10
193.3017984306124
 20
438.1489686406466
 30
0.0
  0
VERTEX
  5
16C
330
D3
100
AcDbEntity
  8
A-001_Pan
100
AcDbVertex
100
AcDb2dVertex
 10
193.3017984306124
 20
438.4617054098593
 30
0.0
  0
VERTEX
  5
16D
330
D3
100
AcDbEntity
  8
A-001_Pan
100
AcDbVertex
100
AcDb2dVertex
 10
193.1975528408749
 20
438.8760970085792
 30
0.0
  0
VERTEX
  5
16E
330
D3
100
AcDbEntity
  8
A-001_Pan
100
AcDbVertex
100
AcDb2dVertex
 10
193.0933072511374
 20
439.2904936087669
 30
0.0
  0
VERTEX
  5
16F
330
D3
100
AcDbEntity
  8
A-001_Pan
100
AcDbVertex
100
AcDb2dVertex
 10
193.0933072511374
 20
439.603225376512
 30
0.0
  0
VERTEX
  5
170
330
D3
100
AcDbEntity
  8
A-001_Pan
100
AcDbVertex
100
AcDb2dVertex
 10
192.9916474201625
 20
440.0176219766996
 30
0.0
  0
VERTEX
  5
171
330
D3
100
AcDbEntity
  8
A-001_Pan
100
AcDbVertex
100
AcDb2dVertex
 10
192.9916474201625
 20
440.4345993341824
 30
0.0
  0
VERTEX
  5
172
330
D3
100
AcDbEntity
  8
A-001_Pan
100
AcDbVertex
100
AcDb2dVertex
 10
192.9916474201625
 20
440.7447503446323
 30
0.0
  0
VERTEX
  5
173
330
D3
100
AcDbEntity
  8
A-001_Pan
100
AcDbVertex
100
AcDb2dVertex
 10
192.9916474201625
 20
441.1591419433523
 30
0.0
  0
VERTEX
  5
174
330
D3
100
AcDbEntity
  8
A-001_Pan
100
AcDbVertex
100
AcDb2dVertex
 10
192.9916474201625
 20
441.5761243023026
 30
0.0
  0
VERTEX
  5
175
330
D3
100
AcDbEntity
  8
A-001_Pan
100
AcDbVertex
100
AcDb2dVertex
 10
192.9916474201625
 20
444.1693202475256
 30
0.0
  0
VERTEX
  5
176
330
D3
100
AcDbEntity
  8
A-001_Pan
100
AcDbVertex
100
AcDb2dVertex
 10
192.9916474201625
 20
444.4820520152706
 30
0.0
  0
VERTEX
  5
177
330
D3
100
AcDbEntity
  8
A-001_Pan
100
AcDbVertex
100
AcDb2dVertex
 10
192.9916474201625
 20
445.2065946244405
 30
0.0
  0
VERTEX
  5
178
330
D3
100
AcDbEntity
  8
A-001_Pan
100
AcDbVertex
100
AcDb2dVertex
 10
192.9916474201625
 20
445.8294824041033
 30
0.0
  0
VERTEX
  5
179
330
D3
100
AcDbEntity
  8
A-001_Pan
100
AcDbVertex
100
AcDb2dVertex
 10
193.0933072511374
 20
446.4523651822984
 30
0.0
  0
VERTEX
  5
17A
330
D3
100
AcDbEntity
  8
A-001_Pan
100
AcDbVertex
100
AcDb2dVertex
 10
193.1975528408749
 20
447.0752479604935
 30
0.0
  0
VERTEX
  5
17B
330
D3
100
AcDbEntity
  8
A-001_Pan
100
AcDbVertex
100
AcDb2dVertex
 10
193.3017984306124
 20
447.6981307386887
 30
0.0
  0
VERTEX
  5
17C
330
D3
100
AcDbEntity
  8
A-001_Pan
100
AcDbVertex
100
AcDb2dVertex
 10
193.4060390188825
 20
448.4252591066215
 30
0.0
  0
VERTEX
  5
17D
330
D3
100
AcDbEntity
  8
A-001_Pan
100
AcDbVertex
100
AcDb2dVertex
 10
193.6145301983577
 20
449.0481418848164
 30
0.0
  0
VERTEX
  5
17E
330
D3
100
AcDbEntity
  8
A-001_Pan
100
AcDbVertex
100
AcDb2dVertex
 10
193.8204356190702
 20
449.6710296644792
 30
0.0
  0
VERTEX
  5
17F
330
D3
100
AcDbEntity
  8
A-001_Pan
100
AcDbVertex
100
AcDb2dVertex
 10
194.0289267985452
 20
450.1896668529368
 30
0.0
  0
VERTEX
  5
180
330
D3
100
AcDbEntity
  8
A-001_Pan
100
AcDbVertex
100
AcDb2dVertex
 10
194.3390728075276
 20
450.812549631132
 30
0.0
  0
VERTEX
  5
181
330
D3
100
AcDbEntity
  8
A-001_Pan
100
AcDbVertex
100
AcDb2dVertex
 10
194.5475639870027
 20
451.435432409327
 30
0.0
  0
VERTEX
  5
182
330
D3
100
AcDbEntity
  8
A-001_Pan
100
AcDbVertex
100
AcDb2dVertex
 10
194.8577149974527
 20
451.9540745992522
 30
0.0
  0
VERTEX
  5
183
330
D3
100
AcDbEntity
  8
A-001_Pan
100
AcDbVertex
100
AcDb2dVertex
 10
195.1704467651979
 20
452.5769573774475
 30
0.0
  0
VERTEX
  5
184
330
D3
100
AcDbEntity
  8
A-001_Pan
100
AcDbVertex
100
AcDb2dVertex
 10
195.5848433653854
 20
453.0955945659049
 30
0.0
  0
VERTEX
  5
185
330
D3
100
AcDbEntity
  8
A-001_Pan
100
AcDbVertex
100
AcDb2dVertex
 10
195.8975751331306
 20
453.6142367558301
 30
0.0
  0
VERTEX
  5
186
330
D3
100
AcDbEntity
  8
A-001_Pan
100
AcDbVertex
100
AcDb2dVertex
 10
196.3119717333182
 20
454.1328739442874
 30
0.0
  0
VERTEX
  5
187
330
D3
100
AcDbEntity
  8
A-001_Pan
100
AcDbVertex
100
AcDb2dVertex
 10
196.7263633320381
 20
454.6515111327451
 30
0.0
  0
VERTEX
  5
188
330
D3
100
AcDbEntity
  8
A-001_Pan
100
AcDbVertex
100
AcDb2dVertex
 10
197.1433456909885
 20
455.1701533226701
 30
0.0
  0
VERTEX
  5
189
330
D3
100
AcDbEntity
  8
A-001_Pan
100
AcDbVertex
100
AcDb2dVertex
 10
197.5577372897084
 20
455.5871306801529
 30
0.0
  0
VERTEX
  5
18A
330
D3
100
AcDbEntity
  8
A-001_Pan
100
AcDbVertex
100
AcDb2dVertex
 10
198.0763794796336
 20
456.1057728700781
 30
0.0
  0
VERTEX
  5
18B
330
D3
100
AcDbEntity
  8
A-001_Pan
100
AcDbVertex
100
AcDb2dVertex
 10
198.4907710783536
 20
456.5201644687981
 30
0.0
  0
VERTEX
  5
18C
330
D3
100
AcDbEntity
  8
A-001_Pan
100
AcDbVertex
100
AcDb2dVertex
 10
199.0094082668111
 20
456.9345610689856
 30
0.0
  0
VERTEX
  5
18D
330
D3
100
AcDbEntity
  8
A-001_Pan
100
AcDbVertex
100
AcDb2dVertex
 10
199.5280504567361
 20
457.2472928367308
 30
0.0
  0
VERTEX
  5
18E
330
D3
100
AcDbEntity
  8
A-001_Pan
100
AcDbVertex
100
AcDb2dVertex
 10
200.1509332349313
 20
457.6616894369183
 30
0.0
  0
VERTEX
  5
18F
330
D3
100
AcDbEntity
  8
A-001_Pan
100
AcDbVertex
100
AcDb2dVertex
 10
200.6721561821517
 20
457.9744212046635
 30
0.0
  0
VERTEX
  5
190
330
D3
100
AcDbEntity
  8
A-001_Pan
100
AcDbVertex
100
AcDb2dVertex
 10
201.1907983720769
 20
458.2845722151134
 30
0.0
  0
VERTEX
  5
191
330
D3
100
AcDbEntity
  8
A-001_Pan
100
AcDbVertex
100
AcDb2dVertex
 10
201.8136811502718
 20
458.5973039828586
 30
0.0
  0
VERTEX
  5
192
330
D3
100
AcDbEntity
  8
A-001_Pan
100
AcDbVertex
100
AcDb2dVertex
 10
202.3323183387296
 20
458.9074549933085
 30
0.0
  0
VERTEX
  5
193
330
D3
100
AcDbEntity
  8
A-001_Pan
100
AcDbVertex
100
AcDb2dVertex
 10
202.9552011169247
 20
459.1159461727837
 30
0.0
  0
VERTEX
  5
194
330
D3
100
AcDbEntity
  8
A-001_Pan
100
AcDbVertex
100
AcDb2dVertex
 10
203.5780888965874
 20
459.4260921817661
 30
0.0
  0
VERTEX
  5
195
330
D3
100
AcDbEntity
  8
A-001_Pan
100
AcDbVertex
100
AcDb2dVertex
 10
204.2009716747826
 20
459.6345833612414
 30
0.0
  0
VERTEX
  5
196
330
D3
100
AcDbEntity
  8
A-001_Pan
100
AcDbVertex
100
AcDb2dVertex
 10
204.8212686942148
 20
459.7388289509789
 30
0.0
  0
VERTEX
  5
197
330
D3
100
AcDbEntity
  8
A-001_Pan
100
AcDbVertex
100
AcDb2dVertex
 10
211.2585976585765
 20
461.5032366972942
 30
0.0
  0
VERTEX
  5
198
330
D3
100
AcDbEntity
  8
A-001_Pan
100
AcDbVertex
100
AcDb2dVertex
 10
220.4950229874059
 20
463.8905272218049
 30
0.0
  0
VERTEX
  5
199
330
D3
100
AcDbEntity
  8
A-001_Pan
100
AcDbVertex
100
AcDb2dVertex
 10
220.8051739978557
 20
463.9921870527796
 30
0.0
  0
VERTEX
  5
19A
330
D3
100
AcDbEntity
  8
A-001_Pan
100
AcDbVertex
100
AcDb2dVertex
 10
221.1179057656009
 20
463.9921870527796
 30
0.0
  0
VERTEX
  5
19B
330
D3
100
AcDbEntity
  8
A-001_Pan
100
AcDbVertex
100
AcDb2dVertex
 10
221.4280567760508
 20
464.0964326425171
 30
0.0
  0
VERTEX
  5
19C
330
D3
100
AcDbEntity
  8
A-001_Pan
100
AcDbVertex
100
AcDb2dVertex
 10
221.7407935452637
 20
464.2006732307871
 30
0.0
  0
VERTEX
  5
19D
330
D3
100
AcDbEntity
  8
A-001_Pan
100
AcDbVertex
100
AcDb2dVertex
 10
222.0509395542461
 20
464.2006732307871
 30
0.0
  0
VERTEX
  5
19E
330
D3
100
AcDbEntity
  8
A-001_Pan
100
AcDbVertex
100
AcDb2dVertex
 10
222.3636763234587
 20
464.3049188205247
 30
0.0
  0
VERTEX
  5
19F
330
D3
100
AcDbEntity
  8
A-001_Pan
100
AcDbVertex
100
AcDb2dVertex
 10
222.6738273339087
 20
464.3049188205247
 30
0.0
  0
VERTEX
  5
1A0
330
D3
100
AcDbEntity
  8
A-001_Pan
100
AcDbVertex
100
AcDb2dVertex
 10
222.9865591016539
 20
464.4091644102624
 30
0.0
  0
VERTEX
  5
1A1
330
D3
100
AcDbEntity
  8
A-001_Pan
100
AcDbVertex
100
AcDb2dVertex
 10
223.2967101121039
 20
464.4091644102624
 30
0.0
  0
VERTEX
  5
1A2
330
D3
100
AcDbEntity
  8
A-001_Pan
100
AcDbVertex
100
AcDb2dVertex
 10
223.6094418798489
 20
464.4091644102624
 30
0.0
  0
VERTEX
  5
1A3
330
D3
100
AcDbEntity
  8
A-001_Pan
100
AcDbVertex
100
AcDb2dVertex
 10
223.9195928902989
 20
464.5134099999999
 30
0.0
  0
VERTEX
  5
1A4
330
D3
100
AcDbEntity
  8
A-001_Pan
100
AcDbVertex
100
AcDb2dVertex
 10
224.2297439007489
 20
464.5134099999999
 30
0.0
  0
VERTEX
  5
1A5
330
D3
100
AcDbEntity
  8
A-001_Pan
100
AcDbVertex
100
AcDb2dVertex
 10
224.6467212582317
 20
464.5134099999999
 30
0.0
  0
VERTEX
  5
1A6
330
D3
100
AcDbEntity
  8
A-001_Pan
100
AcDbVertex
100
AcDb2dVertex
 10
224.9568722686816
 20
464.5134099999999
 30
0.0
  0
VERTEX
  5
1A7
330
D3
100
AcDbEntity
  8
A-001_Pan
100
AcDbVertex
100
AcDb2dVertex
 10
225.2696040364269
 20
464.5134099999999
 30
0.0
  0
VERTEX
  5
1A8
330
D3
100
AcDbEntity
  8
A-001_Pan
100
AcDbVertex
100
AcDb2dVertex
 10
225.5797550468769
 20
464.5134099999999
 30
0.0
  0
VERTEX
  5
1A9
330
D3
100
AcDbEntity
  8
A-001_Pan
100
AcDbVertex
100
AcDb2dVertex
 10
319.9246795416519
 20
464.5134099999999
 30
0.0
  0
VERTEX
  5
1AA
330
D3
100
AcDbEntity
  8
A-001_Pan
100
AcDbVertex
100
AcDb2dVertex
 10
414.3712638674016
 20
464.5134099999999
 30
0.0
  0
VERTEX
  5
1AB
330
D3
100
AcDbEntity
  8
A-001_Pan
100
AcDbVertex
100
AcDb2dVertex
 10
414.6840006366145
 20
464.5134099999999
 30
0.0
  0
VERTEX
  5
1AC
330
D3
100
AcDbEntity
  8
A-001_Pan
100
AcDbVertex
100
AcDb2dVertex
 10
414.9941466455967
 20
464.5134099999999
 30
0.0
  0
VERTEX
  5
1AD
330
D3
100
AcDbEntity
  8
A-001_Pan
100
AcDbVertex
100
AcDb2dVertex
 10
415.3068834148093
 20
464.5134099999999
 30
0.0
  0
VERTEX
  5
1AE
330
D3
100
AcDbEntity
  8
A-001_Pan
100
AcDbVertex
100
AcDb2dVertex
 10
415.6170344252593
 20
464.5134099999999
 30
0.0
  0
VERTEX
  5
1AF
330
D3
100
AcDbEntity
  8
A-001_Pan
100
AcDbVertex
100
AcDb2dVertex
 10
415.9297661930045
 20
464.5134099999999
 30
0.0
  0
VERTEX
  5
1B0
330
D3
100
AcDbEntity
  8
A-001_Pan
100
AcDbVertex
100
AcDb2dVertex
 10
416.2399172034545
 20
464.4091644102624
 30
0.0
  0
VERTEX
  5
1B1
330
D3
100
AcDbEntity
  8
A-001_Pan
100
AcDbVertex
100
AcDb2dVertex
 10
416.5500632124367
 20
464.4091644102624
 30
0.0
  0
VERTEX
  5
1B2
330
D3
100
AcDbEntity
  8
A-001_Pan
100
AcDbVertex
100
AcDb2dVertex
 10
416.8627999816496
 20
464.4091644102624
 30
0.0
  0
VERTEX
  5
1B3
330
D3
100
AcDbEntity
  8
A-001_Pan
100
AcDbVertex
100
AcDb2dVertex
 10
417.2771965818371
 20
464.3049188205247
 30
0.0
  0
VERTEX
  5
1B4
330
D3
100
AcDbEntity
  8
A-001_Pan
100
AcDbVertex
100
AcDb2dVertex
 10
417.5899283495824
 20
464.3049188205247
 30
0.0
  0
VERTEX
  5
1B5
330
D3
100
AcDbEntity
  8
A-001_Pan
100
AcDbVertex
100
AcDb2dVertex
 10
417.9000793600322
 20
464.2006732307871
 30
0.0
  0
VERTEX
  5
1B6
330
D3
100
AcDbEntity
  8
A-001_Pan
100
AcDbVertex
100
AcDb2dVertex
 10
418.2128111277775
 20
464.2006732307871
 30
0.0
  0
VERTEX
  5
1B7
330
D3
100
AcDbEntity
  8
A-001_Pan
100
AcDbVertex
100
AcDb2dVertex
 10
418.5229621382275
 20
464.0964326425171
 30
0.0
  0
VERTEX
  5
1B8
330
D3
100
AcDbEntity
  8
A-001_Pan
100
AcDbVertex
100
AcDb2dVertex
 10
418.8356939059726
 20
463.9921870527796
 30
0.0
  0
VERTEX
  5
1B9
330
D3
100
AcDbEntity
  8
A-001_Pan
100
AcDbVertex
100
AcDb2dVertex
 10
419.1458449164226
 20
463.9921870527796
 30
0.0
  0
VERTEX
  5
1BA
330
D3
100
AcDbEntity
  8
A-001_Pan
100
AcDbVertex
100
AcDb2dVertex
 10
419.4585816856353
 20
463.8905272218049
 30
0.0
  0
VERTEX
  5
1BB
330
D3
100
AcDbEntity
  8
A-001_Pan
100
AcDbVertex
100
AcDb2dVertex
 10
428.590761424727
 20
461.5032366972942
 30
0.0
  0
VERTEX
  5
1BC
330
D3
100
AcDbEntity
  8
A-001_Pan
100
AcDbVertex
100
AcDb2dVertex
 10
435.0255046303258
 20
459.7388289509789
 30
0.0
  0
VERTEX
  5
1BD
330
D3
100
AcDbEntity
  8
A-001_Pan
100
AcDbVertex
100
AcDb2dVertex
 10
435.6483874085212
 20
459.6345833612414
 30
0.0
  0
VERTEX
  5
1BE
330
D3
100
AcDbEntity
  8
A-001_Pan
100
AcDbVertex
100
AcDb2dVertex
 10
436.2712751881838
 20
459.4260921817661
 30
0.0
  0
VERTEX
  5
1BF
330
D3
100
AcDbEntity
  8
A-001_Pan
100
AcDbVertex
100
AcDb2dVertex
 10
436.8941579663789
 20
459.1159461727837
 30
0.0
  0
VERTEX
  5
1C0
330
D3
100
AcDbEntity
  8
A-001_Pan
100
AcDbVertex
100
AcDb2dVertex
 10
437.517040744574
 20
458.9074549933085
 30
0.0
  0
VERTEX
  5
1C1
330
D3
100
AcDbEntity
  8
A-001_Pan
100
AcDbVertex
100
AcDb2dVertex
 10
438.1399235227691
 20
458.5973039828586
 30
0.0
  0
VERTEX
  5
1C2
330
D3
100
AcDbEntity
  8
A-001_Pan
100
AcDbVertex
100
AcDb2dVertex
 10
438.6585657126944
 20
458.2845722151134
 30
0.0
  0
VERTEX
  5
1C3
330
D3
100
AcDbEntity
  8
A-001_Pan
100
AcDbVertex
100
AcDb2dVertex
 10
439.2814484908894
 20
457.9744212046635
 30
0.0
  0
VERTEX
  5
1C4
330
D3
100
AcDbEntity
  8
A-001_Pan
100
AcDbVertex
100
AcDb2dVertex
 10
439.8000856793471
 20
457.6616894369183
 30
0.0
  0
VERTEX
  5
1C5
330
D3
100
AcDbEntity
  8
A-001_Pan
100
AcDbVertex
100
AcDb2dVertex
 10
440.3187228678045
 20
457.2472928367308
 30
0.0
  0
VERTEX
  5
1C6
330
D3
100
AcDbEntity
  8
A-001_Pan
100
AcDbVertex
100
AcDb2dVertex
 10
440.8373650577296
 20
456.9345610689856
 30
0.0
  0
VERTEX
  5
1C7
330
D3
100
AcDbEntity
  8
A-001_Pan
100
AcDbVertex
100
AcDb2dVertex
 10
441.3560022461871
 20
456.5201644687981
 30
0.0
  0
VERTEX
  5
1C8
330
D3
100
AcDbEntity
  8
A-001_Pan
100
AcDbVertex
100
AcDb2dVertex
 10
441.875504688544
 20
456.1057728700781
 30
0.0
  0
VERTEX
  5
1C9
330
D3
100
AcDbEntity
  8
A-001_Pan
100
AcDbVertex
100
AcDb2dVertex
 10
442.291621793595
 20
455.5871306801529
 30
0.0
  0
VERTEX
  5
1CA
330
D3
100
AcDbEntity
  8
A-001_Pan
100
AcDbVertex
100
AcDb2dVertex
 10
442.8102589820526
 20
455.1701533226701
 30
0.0
  0
VERTEX
  5
1CB
330
D3
100
AcDbEntity
  8
A-001_Pan
100
AcDbVertex
100
AcDb2dVertex
 10
443.2246555822401
 20
454.6515111327451
 30
0.0
  0
VERTEX
  5
1CC
330
D3
100
AcDbEntity
  8
A-001_Pan
100
AcDbVertex
100
AcDb2dVertex
 10
443.6399124348593
 20
454.1328739442874
 30
0.0
  0
VERTEX
  5
1CD
330
D3
100
AcDbEntity
  8
A-001_Pan
100
AcDbVertex
100
AcDb2dVertex
 10
443.9517839501728
 20
453.6142367558301
 30
0.0
  0
VERTEX
  5
1CE
330
D3
100
AcDbEntity
  8
A-001_Pan
100
AcDbVertex
100
AcDb2dVertex
 10
444.3661755488928
 20
453.0955945659049
 30
0.0
  0
VERTEX
  5
1CF
330
D3
100
AcDbEntity
  8
A-001_Pan
100
AcDbVertex
100
AcDb2dVertex
 10
444.6789123181057
 20
452.5769573774475
 30
0.0
  0
VERTEX
  5
1D0
330
D3
100
AcDbEntity
  8
A-001_Pan
100
AcDbVertex
100
AcDb2dVertex
 10
444.9890633285555
 20
451.9540745992522
 30
0.0
  0
VERTEX
  5
1D1
330
D3
100
AcDbEntity
  8
A-001_Pan
100
AcDbVertex
100
AcDb2dVertex
 10
445.3017950963008
 20
451.435432409327
 30
0.0
  0
VERTEX
  5
1D2
330
D3
100
AcDbEntity
  8
A-001_Pan
100
AcDbVertex
100
AcDb2dVertex
 10
445.6119461067508
 20
450.812549631132
 30
0.0
  0
VERTEX
  5
1D3
330
D3
100
AcDbEntity
  8
A-001_Pan
100
AcDbVertex
100
AcDb2dVertex
 10
445.8204322847582
 20
450.1896668529368
 30
0.0
  0
VERTEX
  5
1D4
330
D3
100
AcDbEntity
  8
A-001_Pan
100
AcDbVertex
100
AcDb2dVertex
 10
446.1305832952082
 20
449.6710296644792
 30
0.0
  0
VERTEX
  5
1D5
330
D3
100
AcDbEntity
  8
A-001_Pan
100
AcDbVertex
100
AcDb2dVertex
 10
446.2348288849457
 20
449.0481418848164
 30
0.0
  0
VERTEX
  5
1D6
330
D3
100
AcDbEntity
  8
A-001_Pan
100
AcDbVertex
100
AcDb2dVertex
 10
446.4433200644211
 20
448.4252591066215
 30
0.0
  0
VERTEX
  5
1D7
330
D3
100
AcDbEntity
  8
A-001_Pan
100
AcDbVertex
100
AcDb2dVertex
 10
446.6492254851334
 20
447.6981307386887
 30
0.0
  0
VERTEX
  5
1D8
330
D3
100
AcDbEntity
  8
A-001_Pan
100
AcDbVertex
100
AcDb2dVertex
 10
446.7534660734033
 20
447.0752479604935
 30
0.0
  0
VERTEX
  5
1D9
330
D3
100
AcDbEntity
  8
A-001_Pan
100
AcDbVertex
100
AcDb2dVertex
 10
446.8577116631409
 20
446.4523651822984
 30
0.0
  0
VERTEX
  5
1DA
330
D3
100
AcDbEntity
  8
A-001_Pan
100
AcDbVertex
100
AcDb2dVertex
 10
446.8577116631409
 20
445.8294824041033
 30
0.0
  0
VERTEX
  5
1DB
330
D3
100
AcDbEntity
  8
A-001_Pan
100
AcDbVertex
100
AcDb2dVertex
 10
446.9619572528785
 20
445.2065946244405
 30
0.0
  0
VERTEX
  5
1DC
330
D3
100
AcDbEntity
  8
A-001_Pan
100
AcDbVertex
100
AcDb2dVertex
 10
446.9619572528785
 20
444.4820520152706
 30
0.0
  0
VERTEX
  5
1DD
330
D3
100
AcDbEntity
  8
A-001_Pan
100
AcDbVertex
100
AcDb2dVertex
 10
446.9619572528785
 20
444.1693202475256
 30
0.0
  0
VERTEX
  5
1DE
330
D3
100
AcDbEntity
  8
A-001_Pan
100
AcDbVertex
100
AcDb2dVertex
 10
446.9619572528785
 20
441.5761243023026
 30
0.0
  0
VERTEX
  5
1DF
330
D3
100
AcDbEntity
  8
A-001_Pan
100
AcDbVertex
100
AcDb2dVertex
 10
446.9619572528785
 20
441.1591419433523
 30
0.0
  0
VERTEX
  5
1E0
330
D3
100
AcDbEntity
  8
A-001_Pan
100
AcDbVertex
100
AcDb2dVertex
 10
446.9619572528785
 20
440.7447503446323
 30
0.0
  0
VERTEX
  5
1E1
330
D3
100
AcDbEntity
  8
A-001_Pan
100
AcDbVertex
100
AcDb2dVertex
 10
446.8577116631409
 20
440.4345993341824
 30
0.0
  0
VERTEX
  5
1E2
330
D3
100
AcDbEntity
  8
A-001_Pan
100
AcDbVertex
100
AcDb2dVertex
 10
446.8577116631409
 20
440.0176219766996
 30
0.0
  0
VERTEX
  5
1E3
330
D3
100
AcDbEntity
  8
A-001_Pan
100
AcDbVertex
100
AcDb2dVertex
 10
446.8577116631409
 20
439.603225376512
 30
0.0
  0
VERTEX
  5
1E4
330
D3
100
AcDbEntity
  8
A-001_Pan
100
AcDbVertex
100
AcDb2dVertex
 10
446.7534660734033
 20
439.2904936087669
 30
0.0
  0
VERTEX
  5
1E5
330
D3
100
AcDbEntity
  8
A-001_Pan
100
AcDbVertex
100
AcDb2dVertex
 10
446.7534660734033
 20
438.8760970085792
 30
0.0
  0
VERTEX
  5
1E6
330
D3
100
AcDbEntity
  8
A-001_Pan
100
AcDbVertex
100
AcDb2dVertex
 10
446.6492254851334
 20
438.4617054098593
 30
0.0
  0
VERTEX
  5
1E7
330
D3
100
AcDbEntity
  8
A-001_Pan
100
AcDbVertex
100
AcDb2dVertex
 10
446.5449798953957
 20
438.1489686406466
 30
0.0
  0
VERTEX
  5
1E8
330
D3
100
AcDbEntity
  8
A-001_Pan
100
AcDbVertex
100
AcDb2dVertex
 10
446.4433200644211
 20
437.7345770419267
 30
0.0
  0
VERTEX
  5
1E9
330
D3
100
AcDbEntity
  8
A-001_Pan
100
AcDbVertex
100
AcDb2dVertex
 10
446.3390744746835
 20
437.4244260314767
 30
0.0
  0
VERTEX
  5
1EA
330
D3
100
AcDbEntity
  8
A-001_Pan
100
AcDbVertex
100
AcDb2dVertex
 10
446.2348288849457
 20
437.0074486739938
 30
0.0
  0
VERTEX
  5
1EB
330
D3
100
AcDbEntity
  8
A-001_Pan
100
AcDbVertex
100
AcDb2dVertex
 10
446.1305832952082
 20
436.5930520738063
 30
0.0
  0
VERTEX
  5
1EC
330
D3
100
AcDbEntity
  8
A-001_Pan
100
AcDbVertex
100
AcDb2dVertex
 10
446.0263377054705
 20
436.2829010633565
 30
0.0
  0
VERTEX
  5
1ED
330
D3
100
AcDbEntity
  8
A-001_Pan
100
AcDbVertex
100
AcDb2dVertex
 10
445.9246778744957
 20
435.9701692956112
 30
0.0
  0
VERTEX
  5
1EE
330
D3
100
AcDbEntity
  8
A-001_Pan
100
AcDbVertex
100
AcDb2dVertex
 10
445.7161916964883
 20
435.5557726954237
 30
0.0
  0
VERTEX
  5
1EF
330
D3
100
AcDbEntity
  8
A-001_Pan
100
AcDbVertex
100
AcDb2dVertex
 10
445.7161916964883
 20
435.347286517416
 30
0.0
  0
VERTEX
  5
1F0
330
D3
100
AcDbEntity
  8
A-001_Pan
100
AcDbVertex
100
AcDb2dVertex
 10
445.6119461067508
 20
435.2430409276784
 30
0.0
  0
VERTEX
  5
1F1
330
D3
100
AcDbEntity
  8
A-001_Pan
100
AcDbVertex
100
AcDb2dVertex
 10
445.507700517013
 20
435.0371355069661
 30
0.0
  0
VERTEX
  5
1F2
330
D3
100
AcDbEntity
  8
A-001_Pan
100
AcDbVertex
100
AcDb2dVertex
 10
445.4043151797072
 20
434.8286443274909
 30
0.0
  0
VERTEX
  5
1F3
330
D3
100
AcDbEntity
  8
A-001_Pan
100
AcDbVertex
100
AcDb2dVertex
 10
445.4043151797072
 20
434.724403739221
 30
0.0
  0
VERTEX
  5
1F4
330
D3
100
AcDbEntity
  8
A-001_Pan
100
AcDbVertex
100
AcDb2dVertex
 10
445.3017950963008
 20
434.5184983185087
 30
0.0
  0
VERTEX
  5
1F5
330
D3
100
AcDbEntity
  8
A-001_Pan
100
AcDbVertex
100
AcDb2dVertex
 10
445.1975495065631
 20
434.3100071390334
 30
0.0
  0
VERTEX
  5
1F6
330
D3
100
AcDbEntity
  8
A-001_Pan
100
AcDbVertex
100
AcDb2dVertex
 10
445.0933039168256
 20
434.2057615492959
 30
0.0
  0
VERTEX
  5
1F7
330
D3
100
AcDbEntity
  8
A-001_Pan
100
AcDbVertex
100
AcDb2dVertex
 10
444.9890633285555
 20
433.9972703698206
 30
0.0
  0
VERTEX
  5
1F8
330
D3
100
AcDbEntity
  8
A-001_Pan
100
AcDbVertex
100
AcDb2dVertex
 10
444.9890633285555
 20
433.791369950576
 30
0.0
  0
VERTEX
  5
1F9
330
D3
100
AcDbEntity
  8
A-001_Pan
100
AcDbVertex
100
AcDb2dVertex
 10
444.884817738818
 20
433.6871243608382
 30
0.0
  0
VERTEX
  5
1FA
330
D3
100
AcDbEntity
  8
A-001_Pan
100
AcDbVertex
100
AcDb2dVertex
 10
444.7805721490803
 20
433.4786331813631
 30
0.0
  0
VERTEX
  5
1FB
330
D3
100
AcDbEntity
  8
A-001_Pan
100
AcDbVertex
100
AcDb2dVertex
 10
444.6789123181057
 20
433.2727277606507
 30
0.0
  0
VERTEX
  5
1FC
330
D3
100
AcDbEntity
  8
A-001_Pan
100
AcDbVertex
100
AcDb2dVertex
 10
444.574666728368
 20
433.1684821709132
 30
0.0
  0
VERTEX
  5
1FD
330
D3
100
AcDbEntity
  8
A-001_Pan
100
AcDbVertex
100
AcDb2dVertex
 10
444.4704211386303
 20
432.9599959929057
 30
0.0
  0
VERTEX
  5
1FE
330
D3
100
AcDbEntity
  8
A-001_Pan
100
AcDbVertex
100
AcDb2dVertex
 10
444.4704211386303
 20
432.7540905721932
 30
0.0
  0
VERTEX
  5
1FF
330
D3
100
AcDbEntity
  8
A-001_Pan
100
AcDbVertex
100
AcDb2dVertex
 10
444.3661755488928
 20
432.6498449824557
 30
0.0
  0
VERTEX
  5
200
330
D3
100
AcDbEntity
  8
A-001_Pan
100
AcDbVertex
100
AcDb2dVertex
 10
444.2619349606228
 20
432.4413538029804
 30
0.0
  0
VERTEX
  5
201
330
D3
100
AcDbEntity
  8
A-001_Pan
100
AcDbVertex
100
AcDb2dVertex
 10
444.1602751296481
 20
432.2328676249729
 30
0.0
  0
VERTEX
  5
202
330
D3
100
AcDbEntity
  8
A-001_Pan
100
AcDbVertex
100
AcDb2dVertex
 10
444.0560295399105
 20
432.1312077939983
 30
0.0
  0
VERTEX
  5
203
330
D3
100
AcDbEntity
  8
A-001_Pan
100
AcDbVertex
100
AcDb2dVertex
 10
443.9517839501728
 20
431.9227166145229
 30
0.0
  0
VERTEX
  5
204
330
D3
100
AcDbEntity
  8
A-001_Pan
100
AcDbVertex
100
AcDb2dVertex
 10
443.8475383604354
 20
431.8184710247854
 30
0.0
  0
VERTEX
  5
205
330
D3
100
AcDbEntity
  8
A-001_Pan
100
AcDbVertex
100
AcDb2dVertex
 10
443.7432927706975
 20
431.6125656040729
 30
0.0
  0
VERTEX
  5
206
330
D3
100
AcDbEntity
  8
A-001_Pan
100
AcDbVertex
100
AcDb2dVertex
 10
443.6399124348593
 20
431.4040794260654
 30
0.0
  0
VERTEX
  5
207
330
D3
100
AcDbEntity
  8
A-001_Pan
100
AcDbVertex
100
AcDb2dVertex
 10
443.5373873499853
 20
431.2998338363279
 30
0.0
  0
VERTEX
  5
208
330
D3
100
AcDbEntity
  8
A-001_Pan
100
AcDbVertex
100
AcDb2dVertex
 10
443.4331417602478
 20
431.0913426568526
 30
0.0
  0
VERTEX
  5
209
330
D3
100
AcDbEntity
  8
A-001_Pan
100
AcDbVertex
100
AcDb2dVertex
 10
443.3289011719778
 20
430.9896828258779
 30
0.0
  0
VERTEX
  5
20A
330
D3
100
AcDbEntity
  8
A-001_Pan
100
AcDbVertex
100
AcDb2dVertex
 10
443.2246555822401
 20
430.7811916464027
 30
0.0
  0
VERTEX
  5
20B
330
D3
100
AcDbEntity
  8
A-001_Pan
100
AcDbVertex
100
AcDb2dVertex
 10
443.1204099925026
 20
430.6769510581327
 30
0.0
  0
VERTEX
  5
20C
330
D3
100
AcDbEntity
  8
A-001_Pan
100
AcDbVertex
100
AcDb2dVertex
 10
443.0161644027649
 20
430.4684598786574
 30
0.0
  0
VERTEX
  5
20D
330
D3
100
AcDbEntity
  8
A-001_Pan
100
AcDbVertex
100
AcDb2dVertex
 10
442.9145045717903
 20
430.2625544579452
 30
0.0
  0
VERTEX
  5
20E
330
D3
100
AcDbEntity
  8
A-001_Pan
100
AcDbVertex
100
AcDb2dVertex
 10
442.8102589820526
 20
430.1583088682074
 30
0.0
  0
VERTEX
  5
20F
330
D3
100
AcDbEntity
  8
A-001_Pan
100
AcDbVertex
100
AcDb2dVertex
 10
437.7229461652864
 20
422.8921917049383
 30
0.0
  0
VERTEX
  5
210
330
D3
100
AcDbEntity
  8
A-001_Pan
100
AcDbVertex
100
AcDb2dVertex
 10
434.5068674418684
 20
418.2218562456549
 30
0.0
  0
VERTEX
  5
211
330
D3
100
AcDbEntity
  8
A-001_Pan
100
AcDbVertex
100
AcDb2dVertex
 10
434.0924708416807
 20
417.5989734674597
 30
0.0
  0
VERTEX
  5
212
330
D3
100
AcDbEntity
  8
A-001_Pan
100
AcDbVertex
100
AcDb2dVertex
 10
433.6754934841981
 20
416.9760906892647
 30
0.0
  0
VERTEX
  5
213
330
D3
100
AcDbEntity
  8
A-001_Pan
100
AcDbVertex
100
AcDb2dVertex
 10
433.3653424737481
 20
416.2515480800949
 30
0.0
  0
VERTEX
  5
214
330
D3
100
AcDbEntity
  8
A-001_Pan
100
AcDbVertex
100
AcDb2dVertex
 10
432.9509508750282
 20
415.6286603004319
 30
0.0
  0
VERTEX
  5
215
330
D3
100
AcDbEntity
  8
A-001_Pan
100
AcDbVertex
100
AcDb2dVertex
 10
432.6382141058154
 20
414.9015319324993
 30
0.0
  0
VERTEX
  5
216
330
D3
100
AcDbEntity
  8
A-001_Pan
100
AcDbVertex
100
AcDb2dVertex
 10
432.3280630953654
 20
414.1744035645666
 30
0.0
  0
VERTEX
  5
217
330
D3
100
AcDbEntity
  8
A-001_Pan
100
AcDbVertex
100
AcDb2dVertex
 10
432.1195769173579
 20
413.4472751966339
 30
0.0
  0
VERTEX
  5
218
330
D3
100
AcDbEntity
  8
A-001_Pan
100
AcDbVertex
100
AcDb2dVertex
 10
431.8094259069079
 20
412.722732587464
 30
0.0
  0
VERTEX
  5
219
330
D3
100
AcDbEntity
  8
A-001_Pan
100
AcDbVertex
100
AcDb2dVertex
 10
431.6009347274327
 20
411.9956042195312
 30
0.0
  0
VERTEX
  5
21A
330
D3
100
AcDbEntity
  8
A-001_Pan
100
AcDbVertex
100
AcDb2dVertex
 10
431.4966941391626
 20
411.2684758515984
 30
0.0
  0
VERTEX
  5
21B
330
D3
100
AcDbEntity
  8
A-001_Pan
100
AcDbVertex
100
AcDb2dVertex
 10
431.2890632121193
 20
410.5413474836659
 30
0.0
  0
VERTEX
  5
21C
330
D3
100
AcDbEntity
  8
A-001_Pan
100
AcDbVertex
100
AcDb2dVertex
 10
431.1865431287127
 20
409.8168048744959
 30
0.0
  0
VERTEX
  5
21D
330
D3
100
AcDbEntity
  8
A-001_Pan
100
AcDbVertex
100
AcDb2dVertex
 10
431.0822975389752
 20
409.0896765065632
 30
0.0
  0
VERTEX
  5
21E
330
D3
100
AcDbEntity
  8
A-001_Pan
100
AcDbVertex
100
AcDb2dVertex
 10
430.9780519492377
 20
408.3625481386305
 30
0.0
  0
VERTEX
  5
21F
330
D3
100
AcDbEntity
  8
A-001_Pan
100
AcDbVertex
100
AcDb2dVertex
 10
430.9780519492377
 20
407.5311741809602
 30
0.0
  0
VERTEX
  5
220
330
D3
100
AcDbEntity
  8
A-001_Pan
100
AcDbVertex
100
AcDb2dVertex
 10
430.9780519492377
 20
406.8066315717903
 30
0.0
  0
VERTEX
  5
221
330
D3
100
AcDbEntity
  8
A-001_Pan
100
AcDbVertex
100
AcDb2dVertex
 10
430.9780519492377
 20
278.729488723418
 30
0.0
  0
VERTEX
  5
222
330
D3
100
AcDbEntity
  8
A-001_Pan
100
AcDbVertex
100
AcDb2dVertex
 10
430.9780519492377
 20
148.3718866990356
 30
0.0
  0
VERTEX
  5
223
330
D3
100
AcDbEntity
  8
A-001_Pan
100
AcDbVertex
100
AcDb2dVertex
 10
430.9780519492377
 20
147.8532495105781
 30
0.0
  0
VERTEX
  5
224
330
D3
100
AcDbEntity
  8
A-001_Pan
100
AcDbVertex
100
AcDb2dVertex
 10
430.9780519492377
 20
147.334607320653
 30
0.0
  0
VERTEX
  5
225
330
D3
100
AcDbEntity
  8
A-001_Pan
100
AcDbVertex
100
AcDb2dVertex
 10
430.9780519492377
 20
146.8159701321954
 30
0.0
  0
VERTEX
  5
226
330
D3
100
AcDbEntity
  8
A-001_Pan
100
AcDbVertex
100
AcDb2dVertex
 10
431.0822975389752
 20
146.3989927747126
 30
0.0
  0
VERTEX
  5
227
330
D3
100
AcDbEntity
  8
A-001_Pan
100
AcDbVertex
100
AcDb2dVertex
 10
431.0822975389752
 20
145.8803505847875
 30
0.0
  0
VERTEX
  5
228
330
D3
100
AcDbEntity
  8
A-001_Pan
100
AcDbVertex
100
AcDb2dVertex
 10
431.1865431287127
 20
145.36171339633
 30
0.0
  0
VERTEX
  5
229
330
D3
100
AcDbEntity
  8
A-001_Pan
100
AcDbVertex
100
AcDb2dVertex
 10
431.2890632121193
 20
144.9473167961424
 30
0.0
  0
VERTEX
  5
22A
330
D3
100
AcDbEntity
  8
A-001_Pan
100
AcDbVertex
100
AcDb2dVertex
 10
431.3924485494252
 20
144.4286796076849
 30
0.0
  0
VERTEX
  5
22B
330
D3
100
AcDbEntity
  8
A-001_Pan
100
AcDbVertex
100
AcDb2dVertex
 10
431.6009347274327
 20
143.9100424192274
 30
0.0
  0
VERTEX
  5
22C
330
D3
100
AcDbEntity
  8
A-001_Pan
100
AcDbVertex
100
AcDb2dVertex
 10
431.7051803171704
 20
143.493060060277
 30
0.0
  0
VERTEX
  5
22D
330
D3
100
AcDbEntity
  8
A-001_Pan
100
AcDbVertex
100
AcDb2dVertex
 10
431.9110857378825
 20
142.9744228718194
 30
0.0
  0
VERTEX
  5
22E
330
D3
100
AcDbEntity
  8
A-001_Pan
100
AcDbVertex
100
AcDb2dVertex
 10
432.1195769173579
 20
142.5600262716319
 30
0.0
  0
VERTEX
  5
22F
330
D3
100
AcDbEntity
  8
A-001_Pan
100
AcDbVertex
100
AcDb2dVertex
 10
432.2238225070954
 20
142.1456346729119
 30
0.0
  0
VERTEX
  5
230
330
D3
100
AcDbEntity
  8
A-001_Pan
100
AcDbVertex
100
AcDb2dVertex
 10
432.4297229263401
 20
141.6269974844545
 30
0.0
  0
VERTEX
  5
231
330
D3
100
AcDbEntity
  8
A-001_Pan
100
AcDbVertex
100
AcDb2dVertex
 10
432.742459695553
 20
141.210015125504
 30
0.0
  0
VERTEX
  5
232
330
D3
100
AcDbEntity
  8
A-001_Pan
100
AcDbVertex
100
AcDb2dVertex
 10
432.9509508750282
 20
140.7956235267841
 30
0.0
  0
VERTEX
  5
233
330
D3
100
AcDbEntity
  8
A-001_Pan
100
AcDbVertex
100
AcDb2dVertex
 10
433.1568562957404
 20
140.3812269265966
 30
0.0
  0
VERTEX
  5
234
330
D3
100
AcDbEntity
  8
A-001_Pan
100
AcDbVertex
100
AcDb2dVertex
 10
433.3653424737481
 20
139.9642495691138
 30
0.0
  0
VERTEX
  5
235
330
D3
100
AcDbEntity
  8
A-001_Pan
100
AcDbVertex
100
AcDb2dVertex
 10
433.5738336532233
 20
139.4456073791887
 30
0.0
  0
VERTEX
  5
236
330
D3
100
AcDbEntity
  8
A-001_Pan
100
AcDbVertex
100
AcDb2dVertex
 10
433.7797390739356
 20
139.0312157804687
 30
0.0
  0
VERTEX
  5
237
330
D3
100
AcDbEntity
  8
A-001_Pan
100
AcDbVertex
100
AcDb2dVertex
 10
433.9882252519432
 20
138.5125785920112
 30
0.0
  0
VERTEX
  5
238
330
D3
100
AcDbEntity
  8
A-001_Pan
100
AcDbVertex
100
AcDb2dVertex
 10
434.0924708416807
 20
138.0981819918236
 30
0.0
  0
VERTEX
  5
239
330
D3
100
AcDbEntity
  8
A-001_Pan
100
AcDbVertex
100
AcDb2dVertex
 10
434.2983762623932
 20
137.5769590446032
 30
0.0
  0
VERTEX
  5
23A
330
D3
100
AcDbEntity
  8
A-001_Pan
100
AcDbVertex
100
AcDb2dVertex
 10
434.4026218521307
 20
137.1625624444157
 30
0.0
  0
VERTEX
  5
23B
330
D3
100
AcDbEntity
  8
A-001_Pan
100
AcDbVertex
100
AcDb2dVertex
 10
434.5068674418684
 20
136.6439252559582
 30
0.0
  0
VERTEX
  5
23C
330
D3
100
AcDbEntity
  8
A-001_Pan
100
AcDbVertex
100
AcDb2dVertex
 10
434.6111130316059
 20
136.2295286557706
 30
0.0
  0
VERTEX
  5
23D
330
D3
100
AcDbEntity
  8
A-001_Pan
100
AcDbVertex
100
AcDb2dVertex
 10
434.7153536198759
 20
135.7108914673131
 30
0.0
  0
VERTEX
  5
23E
330
D3
100
AcDbEntity
  8
A-001_Pan
100
AcDbVertex
100
AcDb2dVertex
 10
434.8178787047501
 20
135.1922542788555
 30
0.0
  0
VERTEX
  5
23F
330
D3
100
AcDbEntity
  8
A-001_Pan
100
AcDbVertex
100
AcDb2dVertex
 10
434.8178787047501
 20
134.7752719199052
 30
0.0
  0
VERTEX
  5
240
330
D3
100
AcDbEntity
  8
A-001_Pan
100
AcDbVertex
100
AcDb2dVertex
 10
434.9212590405883
 20
134.2566347314476
 30
0.0
  0
VERTEX
  5
241
330
D3
100
AcDbEntity
  8
A-001_Pan
100
AcDbVertex
100
AcDb2dVertex
 10
434.9212590405883
 20
133.7379975429902
 30
0.0
  0
VERTEX
  5
242
330
D3
100
AcDbEntity
  8
A-001_Pan
100
AcDbVertex
100
AcDb2dVertex
 10
434.9212590405883
 20
133.219355353065
 30
0.0
  0
VERTEX
  5
243
330
D3
100
AcDbEntity
  8
A-001_Pan
100
AcDbVertex
100
AcDb2dVertex
 10
434.9212590405883
 20
132.5964725748699
 30
0.0
  0
VERTEX
  5
244
330
D3
100
AcDbEntity
  8
A-001_Pan
100
AcDbVertex
100
AcDb2dVertex
 10
434.8178787047501
 20
131.6634387862248
 30
0.0
  0
VERTEX
  5
245
330
D3
100
AcDbEntity
  8
A-001_Pan
100
AcDbVertex
100
AcDb2dVertex
 10
434.6111130316059
 20
130.6235786505469
 30
0.0
  0
VERTEX
  5
246
330
D3
100
AcDbEntity
  8
A-001_Pan
100
AcDbVertex
100
AcDb2dVertex
 10
434.1941306726556
 20
129.7947854501718
 30
0.0
  0
VERTEX
  5
247
330
D3
100
AcDbEntity
  8
A-001_Pan
100
AcDbVertex
100
AcDb2dVertex
 10
433.5738336532233
 20
128.963416493969
 30
0.0
  0
VERTEX
  5
248
330
D3
100
AcDbEntity
  8
A-001_Pan
100
AcDbVertex
100
AcDb2dVertex
 10
432.9509508750282
 20
128.3405287143063
 30
0.0
  0
VERTEX
  5
249
330
D3
100
AcDbEntity
  8
A-001_Pan
100
AcDbVertex
100
AcDb2dVertex
 10
432.1195769173579
 20
127.7176459361112
 30
0.0
  0
VERTEX
  5
24A
330
D3
100
AcDbEntity
  8
A-001_Pan
100
AcDbVertex
100
AcDb2dVertex
 10
431.2890632121193
 20
127.3032543373912
 30
0.0
  0
VERTEX
  5
24B
330
D3
100
AcDbEntity
  8
A-001_Pan
100
AcDbVertex
100
AcDb2dVertex
 10
430.250923581305
 20
127.0947631579161
 30
0.0
  0
VERTEX
  5
24C
330
D3
100
AcDbEntity
  8
A-001_Pan
100
AcDbVertex
100
AcDb2dVertex
 10
426.4119620796916
 20
126.3702205487462
 30
0.0
  0
VERTEX
  5
24D
330
D3
100
AcDbEntity
  8
A-001_Pan
100
AcDbVertex
100
AcDb2dVertex
 10
420.3916154742803
 20
125.3303554116007
 30
0.0
  0
VERTEX
  5
24E
330
D3
100
AcDbEntity
  8
A-001_Pan
100
AcDbVertex
100
AcDb2dVertex
 10
419.8729732843553
 20
125.2261098218631
 30
0.0
  0
VERTEX
  5
24F
330
D3
100
AcDbEntity
  8
A-001_Pan
100
AcDbVertex
100
AcDb2dVertex
 10
419.4585816856353
 20
125.0202044011507
 30
0.0
  0
VERTEX
  5
250
330
D3
100
AcDbEntity
  8
A-001_Pan
100
AcDbVertex
100
AcDb2dVertex
 10
419.0415993266848
 20
124.7074726334056
 30
0.0
  0
VERTEX
  5
251
330
D3
100
AcDbEntity
  8
A-001_Pan
100
AcDbVertex
100
AcDb2dVertex
 10
418.627207727965
 20
124.293076033218
 30
0.0
  0
VERTEX
  5
252
330
D3
100
AcDbEntity
  8
A-001_Pan
100
AcDbVertex
100
AcDb2dVertex
 10
418.3144709587522
 20
123.8786844344981
 30
0.0
  0
VERTEX
  5
253
330
D3
100
AcDbEntity
  8
A-001_Pan
100
AcDbVertex
100
AcDb2dVertex
 10
418.1085655380399
 20
123.4617070770154
 30
0.0
  0
VERTEX
  5
254
330
D3
100
AcDbEntity
  8
A-001_Pan
100
AcDbVertex
100
AcDb2dVertex
 10
418.0043249497699
 20
122.9430648870901
 30
0.0
  0
VERTEX
  5
255
330
D3
100
AcDbEntity
  8
A-001_Pan
100
AcDbVertex
100
AcDb2dVertex
 10
417.9000793600322
 20
122.4244276986326
 30
0.0
  0
VERTEX
  5
256
330
D3
100
AcDbEntity
  8
A-001_Pan
100
AcDbVertex
100
AcDb2dVertex
 10
417.9000793600322
 20
114.5380135159312
 30
0.0
  0
VERTEX
  5
257
330
D3
100
AcDbEntity
  8
A-001_Pan
100
AcDbVertex
100
AcDb2dVertex
 10
417.9000793600322
 20
106.5447679847293
 30
0.0
  0
VERTEX
  5
258
330
D3
100
AcDbEntity
  8
A-001_Pan
100
AcDbVertex
100
AcDb2dVertex
 10
418.0043249497699
 20
106.0261257948041
 30
0.0
  0
VERTEX
  5
259
330
D3
100
AcDbEntity
  8
A-001_Pan
100
AcDbVertex
100
AcDb2dVertex
 10
418.1085655380399
 20
105.5074886063466
 30
0.0
  0
VERTEX
  5
25A
330
D3
100
AcDbEntity
  8
A-001_Pan
100
AcDbVertex
100
AcDb2dVertex
 10
418.3144709587522
 20
105.0930970076267
 30
0.0
  0
VERTEX
  5
25B
330
D3
100
AcDbEntity
  8
A-001_Pan
100
AcDbVertex
100
AcDb2dVertex
 10
418.5229621382275
 20
104.6761146486763
 30
0.0
  0
VERTEX
  5
25C
330
D3
100
AcDbEntity
  8
A-001_Pan
100
AcDbVertex
100
AcDb2dVertex
 10
418.8356939059726
 20
104.2617230499564
 30
0.0
  0
VERTEX
  5
25D
330
D3
100
AcDbEntity
  8
A-001_Pan
100
AcDbVertex
100
AcDb2dVertex
 10
419.2500905061602
 20
104.0532318704811
 30
0.0
  0
VERTEX
  5
25E
330
D3
100
AcDbEntity
  8
A-001_Pan
100
AcDbVertex
100
AcDb2dVertex
 10
419.6644871063476
 20
103.7430808600312
 30
0.0
  0
VERTEX
  5
25F
330
D3
100
AcDbEntity
  8
A-001_Pan
100
AcDbVertex
100
AcDb2dVertex
 10
420.1831242948053
 20
103.6388402717613
 30
0.0
  0
VERTEX
  5
260
330
D3
100
AcDbEntity
  8
A-001_Pan
100
AcDbVertex
100
AcDb2dVertex
 10
422.883146587061
 20
102.9117069023609
 30
0.0
  0
VERTEX
  5
261
330
D3
100
AcDbEntity
  8
A-001_Pan
100
AcDbVertex
100
AcDb2dVertex
 10
425.684833711759
 20
102.0829187034534
 30
0.0
  0
VERTEX
  5
262
330
D3
100
AcDbEntity
  8
A-001_Pan
100
AcDbVertex
100
AcDb2dVertex
 10
426.2034709002166
 20
101.9786781151835
 30
0.0
  0
VERTEX
  5
263
330
D3
100
AcDbEntity
  8
A-001_Pan
100
AcDbVertex
100
AcDb2dVertex
 10
426.6178675004041
 20
101.7701869357082
 30
0.0
  0
VERTEX
  5
264
330
D3
100
AcDbEntity
  8
A-001_Pan
100
AcDbVertex
100
AcDb2dVertex
 10
426.9305992681493
 20
101.4600359252583
 30
0.0
  0
VERTEX
  5
265
330
D3
100
AcDbEntity
  8
A-001_Pan
100
AcDbVertex
100
AcDb2dVertex
 10
427.3449958683367
 20
101.0456443265384
 30
0.0
  0
VERTEX
  5
266
330
D3
100
AcDbEntity
  8
A-001_Pan
100
AcDbVertex
100
AcDb2dVertex
 10
427.5534820463445
 20
100.6286619675879
 30
0.0
  0
VERTEX
  5
267
330
D3
100
AcDbEntity
  8
A-001_Pan
100
AcDbVertex
100
AcDb2dVertex
 10
427.7602527209561
 20
100.2142703688681
 30
0.0
  0
VERTEX
  5
268
330
D3
100
AcDbEntity
  8
A-001_Pan
100
AcDbVertex
100
AcDb2dVertex
 10
427.8636330567943
 20
99.69562817894292
 30
0.0
  0
VERTEX
  5
269
330
D3
100
AcDbEntity
  8
A-001_Pan
100
AcDbVertex
100
AcDb2dVertex
 10
427.967878646532
 20
99.17699099048542
 30
0.0
  0
VERTEX
  5
26A
330
D3
100
AcDbEntity
  8
A-001_Pan
100
AcDbVertex
100
AcDb2dVertex
 10
427.967878646532
 20
96.58120928649971
 30
0.0
  0
SEQEND
  5
26B
330
D3
100
AcDbEntity
  8
A-001_Pan
  0
SPLINE
  5
D2
330
A
100
AcDbEntity
  8
A-001_Pan
100
AcDbSpline
210
0.0
220
0.0
230
1.0
 70
     9
 71
     3
 72
   275
 73
   271
 74
     0
 42
0.0000000001
 43
0.0000000001
 40
0.0
 40
0.0
 40
0.0
 40
0.0
 40
1.0
 40
1.0
 40
1.0
 40
2.0
 40
2.0
 40
2.0
 40
3.0
 40
3.0
 40
3.0
 40
4.0
 40
4.0
 40
4.0
 40
5.0
 40
5.0
 40
5.0
 40
6.0
 40
6.0
 40
6.0
 40
7.0
 40
7.0
 40
7.0
 40
8.0
 40
8.0
 40
8.0
 40
9.0
 40
9.0
 40
9.0
 40
10.0
 40
10.0
 40
10.0
 40
11.0
 40
11.0
 40
11.0
 40
12.0
 40
12.0
 40
12.0
 40
13.0
 40
13.0
 40
13.0
 40
14.0
 40
14.0
 40
14.0
 40
15.0
 40
15.0
 40
15.0
 40
16.0
 40
16.0
 40
16.0
 40
17.0
 40
17.0
 40
17.0
 40
18.0
 40
18.0
 40
18.0
 40
19.0
 40
19.0
 40
19.0
 40
20.0
 40
20.0
 40
20.0
 40
21.0
 40
21.0
 40
21.0
 40
22.0
 40
22.0
 40
22.0
 40
23.0
 40
23.0
 40
23.0
 40
24.0
 40
24.0
 40
24.0
 40
25.0
 40
25.0
 40
25.0
 40
26.0
 40
26.0
 40
26.0
 40
27.0
 40
27.0
 40
27.0
 40
28.0
 40
28.0
 40
28.0
 40
29.0
 40
29.0
 40
29.0
 40
30.0
 40
30.0
 40
30.0
 40
31.0
 40
31.0
 40
31.0
 40
32.0
 40
32.0
 40
32.0
 40
33.0
 40
33.0
 40
33.0
 40
34.0
 40
34.0
 40
34.0
 40
35.0
 40
35.0
 40
35.0
 40
36.0
 40
36.0
 40
36.0
 40
37.0
 40
37.0
 40
37.0
 40
38.0
 40
38.0
 40
38.0
 40
39.0
 40
39.0
 40
39.0
 40
40.0
 40
40.0
 40
40.0
 40
41.0
 40
41.0
 40
41.0
 40
42.0
 40
42.0
 40
42.0
 40
43.0
 40
43.0
 40
43.0
 40
44.0
 40
44.0
 40
44.0
 40
45.0
 40
45.0
 40
45.0
 40
46.0
 40
46.0
 40
46.0
 40
47.0
 40
47.0
 40
47.0
 40
48.0
 40
48.0
 40
48.0
 40
49.0
 40
49.0
 40
49.0
 40
50.0
 40
50.0
 40
50.0
 40
51.0
 40
51.0
 40
51.0
 40
52.0
 40
52.0
 40
52.0
 40
53.0
 40
53.0
 40
53.0
 40
54.0
 40
54.0
 40
54.0
 40
55.0
 40
55.0
 40
55.0
 40
56.0
 40
56.0
 40
56.0
 40
57.0
 40
57.0
 40
57.0
 40
58.0
 40
58.0
 40
58.0
 40
59.0
 40
59.0
 40
59.0
 40
60.0
 40
60.0
 40
60.0
 40
61.0
 40
61.0
 40
61.0
 40
62.0
 40
62.0
 40
62.0
 40
63.0
 40
63.0
 40
63.0
 40
64.0
 40
64.0
 40
64.0
 40
65.0
 40
65.0
 40
65.0
 40
66.0
 40
66.0
 40
66.0
 40
67.0
 40
67.0
 40
67.0
 40
68.0
 40
68.0
 40
68.0
 40
69.0
 40
69.0
 40
69.0
 40
70.0
 40
70.0
 40
70.0
 40
71.0
 40
71.0
 40
71.0
 40
72.0
 40
72.0
 40
72.0
 40
73.0
 40
73.0
 40
73.0
 40
74.0
 40
74.0
 40
74.0
 40
75.0
 40
75.0
 40
75.0
 40
76.0
 40
76.0
 40
76.0
 40
77.0
 40
77.0
 40
77.0
 40
78.0
 40
78.0
 40
78.0
 40
79.0
 40
79.0
 40
79.0
 40
80.0
 40
80.0
 40
80.0
 40
81.0
 40
81.0
 40
81.0
 40
82.0
 40
82.0
 40
82.0
 40
83.0
 40
83.0
 40
83.0
 40
84.0
 40
84.0
 40
84.0
 40
85.0
 40
85.0
 40
85.0
 40
86.0
 40
86.0
 40
86.0
 40
87.0
 40
87.0
 40
87.0
 40
88.0
 40
88.0
 40
88.0
 40
89.0
 40
89.0
 40
89.0
 40
90.0
 40
90.0
 40
90.0
 40
90.0
 10
427.9678787485583
 20
96.58121125973487
 30
0.0
 10
427.9678787485583
 20
96.58121125973487
 30
0.0
 10
427.9678787485583
 20
94.50665502106955
 30
0.0
 10
427.9678787485583
 20
94.50665502106955
 30
0.0
 10
427.9678787485583
 20
92.84477006077651
 30
0.0
 10
426.6195894987614
 20
91.4964808109795
 30
0.0
 10
424.9577045384684
 20
91.4964808109795
 30
0.0
 10
424.9577045384684
 20
91.4964808109795
 30
0.0
 10
319.9246796892645
 20
91.4964808109795
 30
0.0
 10
319.9246796892645
 20
91.4964808109795
 30
0.0
 10
319.9246796892645
 20
91.4964808109795
 30
0.0
 10
319.9246796892645
 20
91.4964808109795
 30
0.0
 10
319.9246796892645
 20
91.4964808109795
 30
0.0
 10
319.9246796892645
 20
91.4964808109795
 30
0.0
 10
214.9933149879686
 20
91.4964808109795
 30
0.0
 10
214.9933149879686
 20
91.4964808109795
 30
0.0
 10
213.3314300276756
 20
91.4964808109795
 30
0.0
 10
211.9831407778786
 20
92.84477006077651
 30
0.0
 10
211.9831407778786
 20
94.50665502106955
 30
0.0
 10
211.9831407778786
 20
94.50665502106955
 30
0.0
 10
211.9831407778786
 20
96.58121125973487
 30
0.0
 10
211.9831407778786
 20
96.58121125973487
 30
0.0
 10
211.9831407778786
 20
96.58121125973487
 30
0.0
 10
211.9831407778786
 20
96.58121125973487
 30
0.0
 10
211.9831407778786
 20
96.58121125973487
 30
0.0
 10
211.9831407778786
 20
96.58121125973487
 30
0.0
 10
211.9831407778786
 20
99.17699113809824
 30
0.0
 10
211.9831407778786
 20
99.17699113809824
 30
0.0
 10
211.9831407778786
 20
100.584725728621
 30
0.0
 10
212.8782669954755
 20
101.7753555964929
 30
0.0
 10
214.1645263245152
 20
102.0829206202486
 30
0.0
 10
214.1645263245152
 20
102.0829206202486
 30
0.0
 10
216.9662110787261
 20
102.9117092837019
 30
0.0
 10
216.9662110787261
 20
102.9117092837019
 30
0.0
 10
216.9662110787261
 20
102.9117092837019
 30
0.0
 10
216.9662110787261
 20
102.9117092837019
 30
0.0
 10
216.9662110787261
 20
102.9117092837019
 30
0.0
 10
216.9662110787261
 20
102.9117092837019
 30
0.0
 10
219.7678958329368
 20
103.6388377992476
 30
0.0
 10
219.7678958329368
 20
103.6388377992476
 30
0.0
 10
221.0541551619763
 20
103.9464028230031
 30
0.0
 10
221.9466967995418
 20
105.137032690875
 30
0.0
 10
221.9466967995418
 20
106.5447672813979
 30
0.0
 10
221.9466967995418
 20
106.5447672813979
 30
0.0
 10
221.9466967995418
 20
114.5380117923352
 30
0.0
 10
221.9466967995418
 20
114.5380117923352
 30
0.0
 10
221.9466967995418
 20
114.5380117923352
 30
0.0
 10
221.9466967995418
 20
114.5380117923352
 30
0.0
 10
221.9466967995418
 20
114.5380117923352
 30
0.0
 10
221.9466967995418
 20
114.5380117923352
 30
0.0
 10
221.9466967995418
 20
122.4244269953012
 30
0.0
 10
221.9466967995418
 20
122.4244269953012
 30
0.0
 10
221.9466967995418
 20
123.8657611262344
 30
0.0
 10
220.8973573067283
 20
125.0908520611938
 30
0.0
 10
219.4577462291495
 20
125.3303564774517
 30
0.0
 10
219.4577462291495
 20
125.3303564774517
 30
0.0
 10
213.4373978089696
 20
126.3702191768159
 30
0.0
 10
213.4373978089696
 20
126.3702191768159
 30
0.0
 10
213.4373978089696
 20
126.3702191768159
 30
0.0
 10
213.4373978089696
 20
126.3702191768159
 30
0.0
 10
213.4373978089696
 20
126.3702191768159
 30
0.0
 10
213.4373978089696
 20
126.3702191768159
 30
0.0
 10
209.5958503553945
 20
127.0947631123297
 30
0.0
 10
209.5958503553945
 20
127.0947631123297
 30
0.0
 10
206.8949642224146
 20
127.5746334715226
 30
0.0
 10
204.9255142383661
 20
129.8955863398633
 30
0.0
 10
204.9255142383661
 20
132.5964724728434
 30
0.0
 10
204.9255142383661
 20
132.5964724728434
 30
0.0
 10
204.9255142383661
 20
132.5964724728434
 30
0.0
 10
204.9255142383661
 20
132.5964724728434
 30
0.0
 10
204.9255142383661
 20
132.5964724728434
 30
0.0
 10
204.9255142383661
 20
133.2193562604494
 30
0.0
 10
204.9255142383661
 20
133.2193562604494
 30
0.0
 10
204.9255142383661
 20
135.8711353728295
 30
0.0
 10
205.6423044337853
 20
138.4841457847365
 30
0.0
 10
207.0026550570631
 20
140.7956218596282
 30
0.0
 10
207.0026550570631
 20
140.7956218596282
 30
0.0
 10
207.0026550570631
 20
140.7956218596282
 30
0.0
 10
207.0026550570631
 20
140.7956218596282
 30
0.0
 10
208.2940835461656
 20
143.1070979345199
 30
0.0
 10
208.9729665677889
 20
145.7201083464268
 30
0.0
 10
208.9729665677889
 20
148.3718874588071
 30
0.0
 10
208.9729665677889
 20
148.3718874588071
 30
0.0
 10
208.9729665677889
 20
278.7294889839111
 30
0.0
 10
208.9729665677889
 20
278.7294889839111
 30
0.0
 10
208.9729665677889
 20
278.7294889839111
 30
0.0
 10
208.9729665677889
 20
278.7294889839111
 30
0.0
 10
208.9729665677889
 20
278.7294889839111
 30
0.0
 10
208.9729665677889
 20
278.7294889839111
 30
0.0
 10
208.9729665677889
 20
406.8066293945021
 30
0.0
 10
208.9729665677889
 20
406.8066293945021
 30
0.0
 10
208.9729665677889
 20
410.8592508839877
 30
0.0
 10
207.7418449460889
 20
414.8446732926529
 30
0.0
 10
205.4441532980323
 20
418.2218578672245
 30
0.0
 10
205.4441532980323
 20
418.2218578672245
 30
0.0
 10
202.123829484155
 20
422.892193984253
 30
0.0
 10
202.123829484155
 20
422.892193984253
 30
0.0
 10
202.123829484155
 20
422.892193984253
 30
0.0
 10
202.123829484155
 20
422.892193984253
 30
0.0
 10
202.123829484155
 20
422.892193984253
 30
0.0
 10
202.123829484155
 20
422.892193984253
 30
0.0
 10
197.1433437633395
 20
430.1583099796446
 30
0.0
 10
197.1433437633395
 20
430.1583099796446
 30
0.0
 10
195.9699444290115
 20
431.8150257798745
 30
0.0
 10
194.9602351633487
 20
433.623370275289
 30
0.0
 10
194.1331695532495
 20
435.5557746122189
 30
0.0
 10
194.1331695532495
 20
435.5557746122189
 30
0.0
 10
194.1331695532495
 20
435.5557746122189
 30
0.0
 10
194.1331695532495
 20
435.5557746122189
 30
0.0
 10
193.3776106573569
 20
437.4752560489905
 30
0.0
 10
192.9916467059773
 20
439.5187973272771
 30
0.0
 10
192.9916467059773
 20
441.5761230323987
 30
0.0
 10
192.9916467059773
 20
441.5761230323987
 30
0.0
 10
192.9916467059773
 20
444.1693183307304
 30
0.0
 10
192.9916467059773
 20
444.1693183307304
 30
0.0
 10
192.9916467059773
 20
444.1693183307304
 30
0.0
 10
192.9916467059773
 20
444.1693183307304
 30
0.0
 10
192.9916467059773
 20
444.1693183307304
 30
0.0
 10
192.9916467059773
 20
444.1693183307304
 30
0.0
 10
192.9916467059773
 20
444.482052514549
 30
0.0
 10
192.9916467059773
 20
444.482052514549
 30
0.0
 10
192.9916467059773
 20
447.9789892972496
 30
0.0
 10
194.159015353565
 20
451.3751274587191
 30
0.0
 10
196.3119705198543
 20
454.1328743523933
 30
0.0
 10
196.3119705198543
 20
454.1328743523933
 30
0.0
 10
196.3119705198543
 20
454.1328743523933
 30
0.0
 10
196.3119705198543
 20
454.1328743523933
 30
0.0
 10
198.4683717928524
 20
456.8940673527765
 30
0.0
 10
201.4552847826585
 20
458.8617942834707
 30
0.0
 10
204.8212695104265
 20
459.7388284408465
 30
0.0
 10
204.8212695104265
 20
459.7388284408465
 30
0.0
 10
211.2585968423648
 20
461.5032350757247
 30
0.0
 10
211.2585968423648
 20
461.5032350757247
 30
0.0
 10
211.2585968423648
 20
461.5032350757247
 30
0.0
 10
211.2585968423648
 20
461.5032350757247
 30
0.0
 10
211.2585968423648
 20
461.5032350757247
 30
0.0
 10
211.2585968423648
 20
461.5032350757247
 30
0.0
 10
220.4950243484822
 20
463.8905254982085
 30
0.0
 10
220.4950243484822
 20
463.8905254982085
 30
0.0
 10
222.1482940420031
 20
464.303196776581
 30
0.0
 10
223.8575629695414
 20
464.5134092858147
 30
0.0
 10
225.5797547972375
 20
464.5134092858147
 30
0.0
 10
225.5797547972375
 20
464.5134092858147
 30
0.0
 10
319.9246796892645
 20
464.5134092858147
 30
0.0
 10
319.9246796892645
 20
464.5134092858147
 30
0.0
 10
319.9246796892645
 20
464.5134092858147
 30
0.0
 10
319.9246796892645
 20
464.5134092858147
 30
0.0
 10
319.9246796892645
 20
464.5134092858147
 30
0.0
 10
319.9246796892645
 20
464.5134092858147
 30
0.0
 10
414.3712647291994
 20
464.5134092858147
 30
0.0
 10
414.3712647291994
 20
464.5134092858147
 30
0.0
 10
416.0934565568956
 20
464.5134092858147
 30
0.0
 10
417.8035870111108
 20
464.303196776581
 30
0.0
 10
419.4585797579864
 20
463.8905254982085
 30
0.0
 10
419.4585797579864
 20
463.8905254982085
 30
0.0
 10
428.5907625361645
 20
461.5032350757247
 30
0.0
 10
428.5907625361645
 20
461.5032350757247
 30
0.0
 10
428.5907625361645
 20
461.5032350757247
 30
0.0
 10
428.5907625361645
 20
461.5032350757247
 30
0.0
 10
428.5907625361645
 20
461.5032350757247
 30
0.0
 10
428.5907625361645
 20
461.5032350757247
 30
0.0
 10
435.0255052880708
 20
459.7388284408465
 30
0.0
 10
435.0255052880708
 20
459.7388284408465
 30
0.0
 10
438.4612736766908
 20
458.8617942834707
 30
0.0
 10
441.4852323136158
 20
456.8940673527765
 30
0.0
 10
443.63991053326
 20
454.1328743523933
 30
0.0
 10
443.63991053326
 20
454.1328743523933
 30
0.0
 10
443.63991053326
 20
454.1328743523933
 30
0.0
 10
443.63991053326
 20
454.1328743523933
 30
0.0
 10
445.7920041728717
 20
451.3751274587191
 30
0.0
 10
446.9619574004913
 20
447.9789892972496
 30
0.0
 10
446.9619574004913
 20
444.482052514549
 30
0.0
 10
446.9619574004913
 20
444.482052514549
 30
0.0
 10
446.9619574004913
 20
444.1693183307304
 30
0.0
 10
446.9619574004913
 20
444.1693183307304
 30
0.0
 10
446.9619574004913
 20
444.1693183307304
 30
0.0
 10
446.9619574004913
 20
444.1693183307304
 30
0.0
 10
446.9619574004913
 20
444.1693183307304
 30
0.0
 10
446.9619574004913
 20
444.1693183307304
 30
0.0
 10
446.9619574004913
 20
441.5761230323987
 30
0.0
 10
446.9619574004913
 20
441.5761230323987
 30
0.0
 10
446.9619574004913
 20
439.5205203806315
 30
0.0
 10
446.5380862753156
 20
437.4735329956362
 30
0.0
 10
445.7161898252793
 20
435.5557746122189
 30
0.0
 10
445.7161898252793
 20
435.5557746122189
 30
0.0
 10
445.7161898252793
 20
435.5557746122189
 30
0.0
 10
445.7161898252793
 20
435.5557746122189
 30
0.0
 10
444.957184822678
 20
433.623370275289
 30
0.0
 10
443.9836596774574
 20
431.8150257798745
 30
0.0
 10
442.810260343129
 20
430.1583099796446
 30
0.0
 10
442.810260343129
 20
430.1583099796446
 30
0.0
 10
437.7229453143422
 20
422.892193984253
 30
0.0
 10
437.7229453143422
 20
422.892193984253
 30
0.0
 10
437.7229453143422
 20
422.892193984253
 30
0.0
 10
437.7229453143422
 20
422.892193984253
 30
0.0
 10
437.7229453143422
 20
422.892193984253
 30
0.0
 10
437.7229453143422
 20
422.892193984253
 30
0.0
 10
434.5068662284044
 20
418.2218578672245
 30
0.0
 10
434.5068662284044
 20
418.2218578672245
 30
0.0
 10
432.2091745803481
 20
414.8446732926529
 30
0.0
 10
430.9780529586483
 20
410.8592508839877
 30
0.0
 10
430.9780529586483
 20
406.8066293945021
 30
0.0
 10
430.9780529586483
 20
406.8066293945021
 30
0.0
 10
430.9780529586483
 20
278.7294889839111
 30
0.0
 10
430.9780529586483
 20
278.7294889839111
 30
0.0
 10
430.9780529586483
 20
278.7294889839111
 30
0.0
 10
430.9780529586483
 20
278.7294889839111
 30
0.0
 10
430.9780529586483
 20
278.7294889839111
 30
0.0
 10
430.9780529586483
 20
278.7294889839111
 30
0.0
 10
430.9780529586483
 20
148.3718874588071
 30
0.0
 10
430.9780529586483
 20
148.3718874588071
 30
0.0
 10
430.9780529586483
 20
145.7201083464268
 30
0.0
 10
431.6577975069486
 20
143.1070979345199
 30
0.0
 10
432.9509490494056
 20
140.7956218596282
 30
0.0
 10
432.9509490494056
 20
140.7956218596282
 30
0.0
 10
432.9509490494056
 20
140.7956218596282
 30
0.0
 10
432.9509490494056
 20
140.7956218596282
 30
0.0
 10
434.2423775385082
 20
138.4841457847365
 30
0.0
 10
434.9212605601314
 20
135.8711353728295
 30
0.0
 10
434.9212605601314
 20
133.2193562604494
 30
0.0
 10
434.9212605601314
 20
133.2193562604494
 30
0.0
 10
434.9212605601314
 20
132.5964724728434
 30
0.0
 10
434.9212605601314
 20
132.5964724728434
 30
0.0
 10
434.9212605601314
 20
132.5964724728434
 30
0.0
 10
434.9212605601314
 20
132.5964724728434
 30
0.0
 10
434.9212605601314
 20
132.5964724728434
 30
0.0
 10
434.9212605601314
 20
129.8955863398633
 30
0.0
 10
432.9526721027601
 20
127.5746334715226
 30
0.0
 10
430.250924443103
 20
127.0947631123297
 30
0.0
 10
430.250924443103
 20
127.0947631123297
 30
0.0
 10
426.4119615695592
 20
126.3702191768159
 30
0.0
 10
426.4119615695592
 20
126.3702191768159
 30
0.0
 10
426.4119615695592
 20
126.3702191768159
 30
0.0
 10
426.4119615695592
 20
126.3702191768159
 30
0.0
 10
426.4119615695592
 20
126.3702191768159
 30
0.0
 10
426.4119615695592
 20
126.3702191768159
 30
0.0
 10
420.3916131493795
 20
125.3303564774517
 30
0.0
 10
420.3916131493795
 20
125.3303564774517
 30
0.0
 10
418.9502790184461
 20
125.0908520611938
 30
0.0
 10
417.9000779989557
 20
123.8657611262344
 30
0.0
 10
417.9000779989557
 20
122.4244269953012
 30
0.0
 10
417.9000779989557
 20
122.4244269953012
 30
0.0
 10
417.9000779989557
 20
114.5380117923352
 30
0.0
 10
417.9000779989557
 20
114.5380117923352
 30
0.0
 10
417.9000779989557
 20
114.5380117923352
 30
0.0
 10
417.9000779989557
 20
114.5380117923352
 30
0.0
 10
417.9000779989557
 20
114.5380117923352
 30
0.0
 10
417.9000779989557
 20
114.5380117923352
 30
0.0
 10
417.9000779989557
 20
106.5447672813979
 30
0.0
 10
417.9000779989557
 20
106.5447672813979
 30
0.0
 10
417.9000779989557
 20
105.137032690875
 30
0.0
 10
418.8374190237347
 20
103.9464028230031
 30
0.0
 10
420.1831236935002
 20
103.6388377992476
 30
0.0
 10
420.1831236935002
 20
103.6388377992476
 30
0.0
 10
422.883148299803
 20
102.9117092837019
 30
0.0
 10
422.883148299803
 20
102.9117092837019
 30
0.0
 10
422.883148299803
 20
102.9117092837019
 30
0.0
 10
422.883148299803
 20
102.9117092837019
 30
0.0
 10
422.883148299803
 20
102.9117092837019
 30
0.0
 10
422.883148299803
 20
102.9117092837019
 30
0.0
 10
425.6848330540141
 20
102.0829206202486
 30
0.0
 10
425.6848330540141
 20
102.0829206202486
 30
0.0
 10
427.0313992504565
 20
101.7753555964929
 30
0.0
 10
427.9678787485583
 20
100.584725728621
 30
0.0
 10
427.9678787485583
 20
99.17699113809824
 30
0.0
 10
427.9678787485583
 20
99.17699113809824
 30
0.0
 10
427.9678787485583
 20
96.58121125973487
 30
0.0
 10
427.9678787485583
 20
96.58121125973487
 30
0.0
 10
427.9678787485583
 20
96.58121125973487
 30
0.0
 10
427.9678787485583
 20
96.58121125973487
 30
0.0
 10
427.9678787485583
 20
96.58121125973487
 30
0.0
  0
LINE
  5
CC
330
A
100
AcDbEntity
  8
A-001_Pan
100
AcDbLine
 10
522.6229541517568
 20
464.5134099999999
 30
0.0
 11
522.6229541517568
 21
454.5498513017703
 31
0.0
  0
LINE
  5
CB
330
A
100
AcDbEntity
  8
A-001_Pan
100
AcDbLine
 10
522.6229541517568
 20
431.1955882465901
 30
0.0
 11
522.6229541517568
 21
125.7473377705511
 31
0.0
  0
SPLINE
  5
CA
330
A
100
AcDbEntity
  8
A-001_Pan
100
AcDbSpline
210
0.0
220
0.0
230
1.0
 70
     8
 71
     3
 72
    17
 73
    13
 74
     0
 42
0.0000000001
 43
0.0000000001
 40
0.0
 40
0.0
 40
0.0
 40
0.0
 40
1.0
 40
1.0
 40
1.0
 40
2.0
 40
2.0
 40
2.0
 40
3.0
 40
3.0
 40
3.0
 40
4.0
 40
4.0
 40
4.0
 40
4.0
 10
446.6492232166721
 20
601.6159031666123
 30
0.0
 10
419.7316837146543
 20
645.9224971209651
 30
0.0
 10
371.5154816992292
 20
673.0235418052234
 30
0.0
 10
319.6119455054458
 20
673.0235418052234
 30
0.0
 10
319.6119455054458
 20
673.0235418052234
 30
0.0
 10
319.6119455054458
 20
673.0235418052234
 30
0.0
 10
319.6119455054458
 20
673.0235418052234
 30
0.0
 10
267.7738853391283
 20
673.0235418052234
 30
0.0
 10
219.5964520241766
 20
645.9224971209651
 30
0.0
 10
192.6789125221587
 20
601.6159031666123
 30
0.0
 10
192.6789125221587
 20
601.6159031666123
 30
0.0
 10
192.6789125221587
 20
601.6159031666123
 30
0.0
 10
192.6789125221587
 20
601.6159031666123
 30
0.0
  0
LINE
  5
C9
330
A
100
AcDbEntity
  8
A-001_Pan
100
AcDbLine
 10
430.45941476078
 20
597.2583025488927
 30
0.0
 11
446.6492254851334
 21
601.6159012389635
 31
0.0
  0
LINE
  5
C8
330
A
100
AcDbEntity
  8
A-001_Pan
100
AcDbLine
 10
208.8713071340661
 20
597.2583025488927
 30
0.0
 11
192.6789106509497
 21
601.6159012389635
 31
0.0
  0
LINE
  5
C7
330
A
100
AcDbEntity
  8
A-001_Pan
100
AcDbLine
 10
572.6492238179774
 20
464.5134099999999
 30
0.0
 11
522.6229541517568
 21
464.5134099999999
 31
0.0
  0
LINE
  5
C6
330
A
100
AcDbEntity
  8
A-001_Pan
100
AcDbLine
 10
562.6856651197479
 20
91.49648222849629
 30
0.0
 11
522.6229541517568
 21
91.49648222849629
 31
0.0
  0
LINE
  5
C5
330
A
100
AcDbEntity
  8
A-001_Pan
100
AcDbLine
 10
552.7221114229858
 20
125.7473377705511
 30
0.0
 11
522.6229541517568
 21
125.7473377705511
 31
0.0
  0
SPLINE
  5
C4
330
A
100
AcDbEntity
  8
A-001_Pan
100
AcDbSpline
210
0.0
220
0.0
230
1.0
 70
     8
 71
     3
 72
    17
 73
    13
 74
     0
 42
0.0000000001
 43
0.0000000001
 40
0.0
 40
0.0
 40
0.0
 40
0.0
 40
1.0
 40
1.0
 40
1.0
 40
2.0
 40
2.0
 40
2.0
 40
3.0
 40
3.0
 40
3.0
 40
4.0
 40
4.0
 40
4.0
 40
4.0
 10
522.6229532443726
 20
125.7473353892099
 30
0.0
 10
521.3117096416945
 20
120.1594733609777
 30
0.0
 10
520.6500571536152
 20
114.4139519508202
 30
0.0
 10
520.6500571536152
 20
108.6219081000948
 30
0.0
 10
520.6500571536152
 20
108.6219081000948
 30
0.0
 10
520.6500571536152
 20
108.6219081000948
 30
0.0
 10
520.6500571536152
 20
108.6219081000948
 30
0.0
 10
520.6500571536152
 20
102.8962018035125
 30
0.0
 10
521.3117096416945
 20
97.15154192003234
 30
0.0
 10
522.6229532443726
 20
91.4964808109795
 30
0.0
 10
522.6229532443726
 20
91.4964808109795
 30
0.0
 10
522.6229532443726
 20
91.4964808109795
 30
0.0
 10
522.6229532443726
 20
91.4964808109795
 30
0.0
  0
LINE
  5
C3
330
A
100
AcDbEntity
  8
A-001_Pan
100
AcDbLine
 10
572.6492238179774
 20
454.5498513017703
 30
0.0
 11
522.6229541517568
 21
454.5498513017703
 31
0.0
  0
LINE
  5
C2
330
A
100
AcDbEntity
  8
A-001_Pan
100
AcDbLine
 10
572.6492238179774
 20
431.1955882465901
 30
0.0
 11
522.6229541517568
 21
431.1955882465901
 31
0.0
  0
SPLINE
  5
C1
330
A
100
AcDbEntity
  8
A-001_Pan
100
AcDbSpline
210
0.0
220
0.0
230
1.0
 70
     8
 71
     3
 72
    17
 73
    13
 74
     0
 42
0.0000000001
 43
0.0000000001
 40
0.0
 40
0.0
 40
0.0
 40
0.0
 40
1.0
 40
1.0
 40
1.0
 40
2.0
 40
2.0
 40
2.0
 40
3.0
 40
3.0
 40
3.0
 40
4.0
 40
4.0
 40
4.0
 40
4.0
 10
522.6229532443726
 20
431.1955880989775
 30
0.0
 10
525.2471635030828
 20
434.4917891658933
 30
0.0
 10
526.6704055737952
 20
438.5831793558526
 30
0.0
 10
526.6704055737952
 20
442.8193060275789
 30
0.0
 10
526.6704055737952
 20
442.8193060275789
 30
0.0
 10
526.6704055737952
 20
442.8193060275789
 30
0.0
 10
526.6704055737952
 20
442.8193060275789
 30
0.0
 10
526.6704055737952
 20
447.0580172793368
 30
0.0
 10
525.2471635030828
 20
451.1864531164152
 30
0.0
 10
522.6229532443726
 20
454.5498532641516
 30
0.0
 10
522.6229532443726
 20
454.5498532641516
 30
0.0
 10
522.6229532443726
 20
454.5498532641516
 30
0.0
 10
522.6229532443726
 20
454.5498532641516
 30
0.0
  0
SPLINE
  5
3B
330
A
100
AcDbEntity
  8
A-001_Pan
100
AcDbSpline
210
0.0
220
0.0
230
1.0
 70
     9
 71
     3
 72
    44
 73
    40
 74
     0
 42
0.0000000001
 43
0.0000000001
 40
0.0
 40
0.0
 40
0.0
 40
0.0
 40
1.0
 40
1.0
 40
1.0
 40
2.0
 40
2.0
 40
2.0
 40
3.0
 40
3.0
 40
3.0
 40
4.0
 40
4.0
 40
4.0
 40
5.0
 40
5.0
 40
5.0
 40
6.0
 40
6.0
 40
6.0
 40
7.0
 40
7.0
 40
7.0
 40
8.0
 40
8.0
 40
8.0
 40
9.0
 40
9.0
 40
9.0
 40
10.0
 40
10.0
 40
10.0
 40
11.0
 40
11.0
 40
11.0
 40
12.0
 40
12.0
 40
12.0
 40
13.0
 40
13.0
 40
13.0
 40
13.0
 10
319.9246796892645
 20
86.51341051013231
 30
0.0
 10
319.9246796892645
 20
86.51341051013231
 30
0.0
 10
326.6695720449583
 20
86.51341051013231
 30
0.0
 10
326.6695720449583
 20
86.51341051013231
 30
0.0
 10
327.4673457480331
 20
86.51341051013231
 30
0.0
 10
328.2134278504766
 20
86.85026744091226
 30
0.0
 10
328.7467128636552
 20
87.44902848155687
 30
0.0
 10
328.7467128636552
 20
87.44902848155687
 30
0.0
 10
332.0670366775326
 20
90.66510756749449
 30
0.0
 10
332.0670366775326
 20
90.66510756749449
 30
0.0
 10
332.0670366775326
 20
90.66510756749449
 30
0.0
 10
332.0670366775326
 20
90.66510756749449
 30
0.0
 10
332.0670366775326
 20
90.66510756749449
 30
0.0
 10
332.5985986373563
 20
91.19839258067305
 30
0.0
 10
333.3464037931545
 20
91.4964808109795
 30
0.0
 10
334.1441774962293
 20
91.4964808109795
 30
0.0
 10
334.1441774962293
 20
91.4964808109795
 30
0.0
 10
334.1441774962293
 20
91.4964808109795
 30
0.0
 10
334.1441774962293
 20
91.4964808109795
 30
0.0
 10
334.1441774962293
 20
91.4964808109795
 30
0.0
 10
305.8094266102391
 20
91.4964808109795
 30
0.0
 10
305.8094266102391
 20
91.4964808109795
 30
0.0
 10
306.607200313314
 20
91.4964808109795
 30
0.0
 10
307.3532824157577
 20
91.19839258067305
 30
0.0
 10
307.8839828489047
 20
90.66510756749449
 30
0.0
 10
307.8839828489047
 20
90.66510756749449
 30
0.0
 10
307.8839828489047
 20
90.66510756749449
 30
0.0
 10
307.8839828489047
 20
90.66510756749449
 30
0.0
 10
307.8839828489047
 20
90.66510756749449
 30
0.0
 10
311.1026465148736
 20
87.44902848155687
 30
0.0
 10
311.1026465148736
 20
87.44902848155687
 30
0.0
 10
311.7005460288412
 20
86.85026744091226
 30
0.0
 10
312.4466281312848
 20
86.51341051013231
 30
0.0
 10
313.1772027535389
 20
86.51341051013231
 30
0.0
 10
313.1772027535389
 20
86.51341051013231
 30
0.0
 10
319.9246796892645
 20
86.51341051013231
 30
0.0
 10
319.9246796892645
 20
86.51341051013231
 30
0.0
 10
319.9246796892645
 20
86.51341051013231
 30
0.0
 10
319.9246796892645
 20
86.51341051013231
 30
0.0
 10
319.9246796892645
 20
86.51341051013231
 30
0.0
  0
SPLINE
  5
3A
330
A
100
AcDbEntity
  8
A-001_Pan
100
AcDbSpline
210
0.0
220
0.0
230
1.0
 70
     9
 71
     3
 72
   275
 73
   271
 74
     0
 42
0.0000000001
 43
0.0000000001
 40
0.0
 40
0.0
 40
0.0
 40
0.0
 40
1.0
 40
1.0
 40
1.0
 40
2.0
 40
2.0
 40
2.0
 40
3.0
 40
3.0
 40
3.0
 40
4.0
 40
4.0
 40
4.0
 40
5.0
 40
5.0
 40
5.0
 40
6.0
 40
6.0
 40
6.0
 40
7.0
 40
7.0
 40
7.0
 40
8.0
 40
8.0
 40
8.0
 40
9.0
 40
9.0
 40
9.0
 40
10.0
 40
10.0
 40
10.0
 40
11.0
 40
11.0
 40
11.0
 40
12.0
 40
12.0
 40
12.0
 40
13.0
 40
13.0
 40
13.0
 40
14.0
 40
14.0
 40
14.0
 40
15.0
 40
15.0
 40
15.0
 40
16.0
 40
16.0
 40
16.0
 40
17.0
 40
17.0
 40
17.0
 40
18.0
 40
18.0
 40
18.0
 40
19.0
 40
19.0
 40
19.0
 40
20.0
 40
20.0
 40
20.0
 40
21.0
 40
21.0
 40
21.0
 40
22.0
 40
22.0
 40
22.0
 40
23.0
 40
23.0
 40
23.0
 40
24.0
 40
24.0
 40
24.0
 40
25.0
 40
25.0
 40
25.0
 40
26.0
 40
26.0
 40
26.0
 40
27.0
 40
27.0
 40
27.0
 40
28.0
 40
28.0
 40
28.0
 40
29.0
 40
29.0
 40
29.0
 40
30.0
 40
30.0
 40
30.0
 40
31.0
 40
31.0
 40
31.0
 40
32.0
 40
32.0
 40
32.0
 40
33.0
 40
33.0
 40
33.0
 40
34.0
 40
34.0
 40
34.0
 40
35.0
 40
35.0
 40
35.0
 40
36.0
 40
36.0
 40
36.0
 40
37.0
 40
37.0
 40
37.0
 40
38.0
 40
38.0
 40
38.0
 40
39.0
 40
39.0
 40
39.0
 40
40.0
 40
40.0
 40
40.0
 40
41.0
 40
41.0
 40
41.0
 40
42.0
 40
42.0
 40
42.0
 40
43.0
 40
43.0
 40
43.0
 40
44.0
 40
44.0
 40
44.0
 40
45.0
 40
45.0
 40
45.0
 40
46.0
 40
46.0
 40
46.0
 40
47.0
 40
47.0
 40
47.0
 40
48.0
 40
48.0
 40
48.0
 40
49.0
 40
49.0
 40
49.0
 40
50.0
 40
50.0
 40
50.0
 40
51.0
 40
51.0
 40
51.0
 40
52.0
 40
52.0
 40
52.0
 40
53.0
 40
53.0
 40
53.0
 40
54.0
 40
54.0
 40
54.0
 40
55.0
 40
55.0
 40
55.0
 40
56.0
 40
56.0
 40
56.0
 40
57.0
 40
57.0
 40
57.0
 40
58.0
 40
58.0
 40
58.0
 40
59.0
 40
59.0
 40
59.0
 40
60.0
 40
60.0
 40
60.0
 40
61.0
 40
61.0
 40
61.0
 40
62.0
 40
62.0
 40
62.0
 40
63.0
 40
63.0
 40
63.0
 40
64.0
 40
64.0
 40
64.0
 40
65.0
 40
65.0
 40
65.0
 40
66.0
 40
66.0
 40
66.0
 40
67.0
 40
67.0
 40
67.0
 40
68.0
 40
68.0
 40
68.0
 40
69.0
 40
69.0
 40
69.0
 40
70.0
 40
70.0
 40
70.0
 40
71.0
 40
71.0
 40
71.0
 40
72.0
 40
72.0
 40
72.0
 40
73.0
 40
73.0
 40
73.0
 40
74.0
 40
74.0
 40
74.0
 40
75.0
 40
75.0
 40
75.0
 40
76.0
 40
76.0
 40
76.0
 40
77.0
 40
77.0
 40
77.0
 40
78.0
 40
78.0
 40
78.0
 40
79.0
 40
79.0
 40
79.0
 40
80.0
 40
80.0
 40
80.0
 40
81.0
 40
81.0
 40
81.0
 40
82.0
 40
82.0
 40
82.0
 40
83.0
 40
83.0
 40
83.0
 40
84.0
 40
84.0
 40
84.0
 40
85.0
 40
85.0
 40
85.0
 40
86.0
 40
86.0
 40
86.0
 40
87.0
 40
87.0
 40
87.0
 40
88.0
 40
88.0
 40
88.0
 40
89.0
 40
89.0
 40
89.0
 40
90.0
 40
90.0
 40
90.0
 40
90.0
 10
427.9678787485583
 20
96.58121125973487
 30
0.0
 10
427.9678787485583
 20
96.58121125973487
 30
0.0
 10
427.9678787485583
 20
94.50665502106955
 30
0.0
 10
427.9678787485583
 20
94.50665502106955
 30
0.0
 10
427.9678787485583
 20
92.84477006077651
 30
0.0
 10
426.6195894987614
 20
91.4964808109795
 30
0.0
 10
424.9577045384684
 20
91.4964808109795
 30
0.0
 10
424.9577045384684
 20
91.4964808109795
 30
0.0
 10
319.9246796892645
 20
91.4964808109795
 30
0.0
 10
319.9246796892645
 20
91.4964808109795
 30
0.0
 10
319.9246796892645
 20
91.4964808109795
 30
0.0
 10
319.9246796892645
 20
91.4964808109795
 30
0.0
 10
319.9246796892645
 20
91.4964808109795
 30
0.0
 10
319.9246796892645
 20
91.4964808109795
 30
0.0
 10
214.9933149879686
 20
91.4964808109795
 30
0.0
 10
214.9933149879686
 20
91.4964808109795
 30
0.0
 10
213.3314300276756
 20
91.4964808109795
 30
0.0
 10
211.9831407778786
 20
92.84477006077651
 30
0.0
 10
211.9831407778786
 20
94.50665502106955
 30
0.0
 10
211.9831407778786
 20
94.50665502106955
 30
0.0
 10
211.9831407778786
 20
96.58121125973487
 30
0.0
 10
211.9831407778786
 20
96.58121125973487
 30
0.0
 10
211.9831407778786
 20
96.58121125973487
 30
0.0
 10
211.9831407778786
 20
96.58121125973487
 30
0.0
 10
211.9831407778786
 20
96.58121125973487
 30
0.0
 10
211.9831407778786
 20
96.58121125973487
 30
0.0
 10
211.9831407778786
 20
99.17699113809824
 30
0.0
 10
211.9831407778786
 20
99.17699113809824
 30
0.0
 10
211.9831407778786
 20
100.584725728621
 30
0.0
 10
212.8782669954755
 20
101.7753555964929
 30
0.0
 10
214.1645263245152
 20
102.0829206202486
 30
0.0
 10
214.1645263245152
 20
102.0829206202486
 30
0.0
 10
216.9662110787261
 20
102.9117092837019
 30
0.0
 10
216.9662110787261
 20
102.9117092837019
 30
0.0
 10
216.9662110787261
 20
102.9117092837019
 30
0.0
 10
216.9662110787261
 20
102.9117092837019
 30
0.0
 10
216.9662110787261
 20
102.9117092837019
 30
0.0
 10
216.9662110787261
 20
102.9117092837019
 30
0.0
 10
219.7678958329368
 20
103.6388377992476
 30
0.0
 10
219.7678958329368
 20
103.6388377992476
 30
0.0
 10
221.0541551619763
 20
103.9464028230031
 30
0.0
 10
221.9466967995418
 20
105.137032690875
 30
0.0
 10
221.9466967995418
 20
106.5447672813979
 30
0.0
 10
221.9466967995418
 20
106.5447672813979
 30
0.0
 10
221.9466967995418
 20
114.5380117923352
 30
0.0
 10
221.9466967995418
 20
114.5380117923352
 30
0.0
 10
221.9466967995418
 20
114.5380117923352
 30
0.0
 10
221.9466967995418
 20
114.5380117923352
 30
0.0
 10
221.9466967995418
 20
114.5380117923352
 30
0.0
 10
221.9466967995418
 20
114.5380117923352
 30
0.0
 10
221.9466967995418
 20
122.4244269953012
 30
0.0
 10
221.9466967995418
 20
122.4244269953012
 30
0.0
 10
221.9466967995418
 20
123.8657611262344
 30
0.0
 10
220.8973573067283
 20
125.0908520611938
 30
0.0
 10
219.4577462291495
 20
125.3303564774517
 30
0.0
 10
219.4577462291495
 20
125.3303564774517
 30
0.0
 10
213.4373978089696
 20
126.3702191768159
 30
0.0
 10
213.4373978089696
 20
126.3702191768159
 30
0.0
 10
213.4373978089696
 20
126.3702191768159
 30
0.0
 10
213.4373978089696
 20
126.3702191768159
 30
0.0
 10
213.4373978089696
 20
126.3702191768159
 30
0.0
 10
213.4373978089696
 20
126.3702191768159
 30
0.0
 10
209.5958503553945
 20
127.0947631123297
 30
0.0
 10
209.5958503553945
 20
127.0947631123297
 30
0.0
 10
206.8949642224146
 20
127.5746334715226
 30
0.0
 10
204.9255142383661
 20
129.8955863398633
 30
0.0
 10
204.9255142383661
 20
132.5964724728434
 30
0.0
 10
204.9255142383661
 20
132.5964724728434
 30
0.0
 10
204.9255142383661
 20
132.5964724728434
 30
0.0
 10
204.9255142383661
 20
132.5964724728434
 30
0.0
 10
204.9255142383661
 20
132.5964724728434
 30
0.0
 10
204.9255142383661
 20
133.2193562604494
 30
0.0
 10
204.9255142383661
 20
133.2193562604494
 30
0.0
 10
204.9255142383661
 20
135.8711353728295
 30
0.0
 10
205.6423044337853
 20
138.4841457847365
 30
0.0
 10
207.0026550570631
 20
140.7956218596282
 30
0.0
 10
207.0026550570631
 20
140.7956218596282
 30
0.0
 10
207.0026550570631
 20
140.7956218596282
 30
0.0
 10
207.0026550570631
 20
140.7956218596282
 30
0.0
 10
208.2940835461656
 20
143.1070979345199
 30
0.0
 10
208.9729665677889
 20
145.7201083464268
 30
0.0
 10
208.9729665677889
 20
148.3718874588071
 30
0.0
 10
208.9729665677889
 20
148.3718874588071
 30
0.0
 10
208.9729665677889
 20
278.7294889839111
 30
0.0
 10
208.9729665677889
 20
278.7294889839111
 30
0.0
 10
208.9729665677889
 20
278.7294889839111
 30
0.0
 10
208.9729665677889
 20
278.7294889839111
 30
0.0
 10
208.9729665677889
 20
278.7294889839111
 30
0.0
 10
208.9729665677889
 20
278.7294889839111
 30
0.0
 10
208.9729665677889
 20
406.8066293945021
 30
0.0
 10
208.9729665677889
 20
406.8066293945021
 30
0.0
 10
208.9729665677889
 20
410.8592508839877
 30
0.0
 10
207.7418449460889
 20
414.8446732926529
 30
0.0
 10
205.4441532980323
 20
418.2218578672245
 30
0.0
 10
205.4441532980323
 20
418.2218578672245
 30
0.0
 10
202.123829484155
 20
422.892193984253
 30
0.0
 10
202.123829484155
 20
422.892193984253
 30
0.0
 10
202.123829484155
 20
422.892193984253
 30
0.0
 10
202.123829484155
 20
422.892193984253
 30
0.0
 10
202.123829484155
 20
422.892193984253
 30
0.0
 10
202.123829484155
 20
422.892193984253
 30
0.0
 10
197.1433437633395
 20
430.1583099796446
 30
0.0
 10
197.1433437633395
 20
430.1583099796446
 30
0.0
 10
195.9699444290115
 20
431.8150257798745
 30
0.0
 10
194.9602351633487
 20
433.623370275289
 30
0.0
 10
194.1331695532495
 20
435.5557746122189
 30
0.0
 10
194.1331695532495
 20
435.5557746122189
 30
0.0
 10
194.1331695532495
 20
435.5557746122189
 30
0.0
 10
194.1331695532495
 20
435.5557746122189
 30
0.0
 10
193.3776106573569
 20
437.4752560489905
 30
0.0
 10
192.9916467059773
 20
439.5187973272771
 30
0.0
 10
192.9916467059773
 20
441.5761230323987
 30
0.0
 10
192.9916467059773
 20
441.5761230323987
 30
0.0
 10
192.9916467059773
 20
444.1693183307304
 30
0.0
 10
192.9916467059773
 20
444.1693183307304
 30
0.0
 10
192.9916467059773
 20
444.1693183307304
 30
0.0
 10
192.9916467059773
 20
444.1693183307304
 30
0.0
 10
192.9916467059773
 20
444.1693183307304
 30
0.0
 10
192.9916467059773
 20
444.1693183307304
 30
0.0
 10
192.9916467059773
 20
444.482052514549
 30
0.0
 10
192.9916467059773
 20
444.482052514549
 30
0.0
 10
192.9916467059773
 20
447.9789892972496
 30
0.0
 10
194.159015353565
 20
451.3751274587191
 30
0.0
 10
196.3119705198543
 20
454.1328743523933
 30
0.0
 10
196.3119705198543
 20
454.1328743523933
 30
0.0
 10
196.3119705198543
 20
454.1328743523933
 30
0.0
 10
196.3119705198543
 20
454.1328743523933
 30
0.0
 10
198.4683717928524
 20
456.8940673527765
 30
0.0
 10
201.4552847826585
 20
458.8617942834707
 30
0.0
 10
204.8212695104265
 20
459.7388284408465
 30
0.0
 10
204.8212695104265
 20
459.7388284408465
 30
0.0
 10
211.2585968423648
 20
461.5032350757247
 30
0.0
 10
211.2585968423648
 20
461.5032350757247
 30
0.0
 10
211.2585968423648
 20
461.5032350757247
 30
0.0
 10
211.2585968423648
 20
461.5032350757247
 30
0.0
 10
211.2585968423648
 20
461.5032350757247
 30
0.0
 10
211.2585968423648
 20
461.5032350757247
 30
0.0
 10
220.4950243484822
 20
463.8905254982085
 30
0.0
 10
220.4950243484822
 20
463.8905254982085
 30
0.0
 10
222.1482940420031
 20
464.303196776581
 30
0.0
 10
223.8575629695414
 20
464.5134092858147
 30
0.0
 10
225.5797547972375
 20
464.5134092858147
 30
0.0
 10
225.5797547972375
 20
464.5134092858147
 30
0.0
 10
319.9246796892645
 20
464.5134092858147
 30
0.0
 10
319.9246796892645
 20
464.5134092858147
 30
0.0
 10
319.9246796892645
 20
464.5134092858147
 30
0.0
 10
319.9246796892645
 20
464.5134092858147
 30
0.0
 10
319.9246796892645
 20
464.5134092858147
 30
0.0
 10
319.9246796892645
 20
464.5134092858147
 30
0.0
 10
414.3712647291994
 20
464.5134092858147
 30
0.0
 10
414.3712647291994
 20
464.5134092858147
 30
0.0
 10
416.0934565568956
 20
464.5134092858147
 30
0.0
 10
417.8035870111108
 20
464.303196776581
 30
0.0
 10
419.4585797579864
 20
463.8905254982085
 30
0.0
 10
419.4585797579864
 20
463.8905254982085
 30
0.0
 10
428.5907625361645
 20
461.5032350757247
 30
0.0
 10
428.5907625361645
 20
461.5032350757247
 30
0.0
 10
428.5907625361645
 20
461.5032350757247
 30
0.0
 10
428.5907625361645
 20
461.5032350757247
 30
0.0
 10
428.5907625361645
 20
461.5032350757247
 30
0.0
 10
428.5907625361645
 20
461.5032350757247
 30
0.0
 10
435.0255052880708
 20
459.7388284408465
 30
0.0
 10
435.0255052880708
 20
459.7388284408465
 30
0.0
 10
438.4612736766908
 20
458.8617942834707
 30
0.0
 10
441.4852323136158
 20
456.8940673527765
 30
0.0
 10
443.63991053326
 20
454.1328743523933
 30
0.0
 10
443.63991053326
 20
454.1328743523933
 30
0.0
 10
443.63991053326
 20
454.1328743523933
 30
0.0
 10
443.63991053326
 20
454.1328743523933
 30
0.0
 10
445.7920041728717
 20
451.3751274587191
 30
0.0
 10
446.9619574004913
 20
447.9789892972496
 30
0.0
 10
446.9619574004913
 20
444.482052514549
 30
0.0
 10
446.9619574004913
 20
444.482052514549
 30
0.0
 10
446.9619574004913
 20
444.1693183307304
 30
0.0
 10
446.9619574004913
 20
444.1693183307304
 30
0.0
 10
446.9619574004913
 20
444.1693183307304
 30
0.0
 10
446.9619574004913
 20
444.1693183307304
 30
0.0
 10
446.9619574004913
 20
444.1693183307304
 30
0.0
 10
446.9619574004913
 20
444.1693183307304
 30
0.0
 10
446.9619574004913
 20
441.5761230323987
 30
0.0
 10
446.9619574004913
 20
441.5761230323987
 30
0.0
 10
446.9619574004913
 20
439.5205203806315
 30
0.0
 10
446.5380862753156
 20
437.4735329956362
 30
0.0
 10
445.7161898252793
 20
435.5557746122189
 30
0.0
 10
445.7161898252793
 20
435.5557746122189
 30
0.0
 10
445.7161898252793
 20
435.5557746122189
 30
0.0
 10
445.7161898252793
 20
435.5557746122189
 30
0.0
 10
444.957184822678
 20
433.623370275289
 30
0.0
 10
443.9836596774574
 20
431.8150257798745
 30
0.0
 10
442.810260343129
 20
430.1583099796446
 30
0.0
 10
442.810260343129
 20
430.1583099796446
 30
0.0
 10
437.7229453143422
 20
422.892193984253
 30
0.0
 10
437.7229453143422
 20
422.892193984253
 30
0.0
 10
437.7229453143422
 20
422.892193984253
 30
0.0
 10
437.7229453143422
 20
422.892193984253
 30
0.0
 10
437.7229453143422
 20
422.892193984253
 30
0.0
 10
437.7229453143422
 20
422.892193984253
 30
0.0
 10
434.5068662284044
 20
418.2218578672245
 30
0.0
 10
434.5068662284044
 20
418.2218578672245
 30
0.0
 10
432.2091745803481
 20
414.8446732926529
 30
0.0
 10
430.9780529586483
 20
410.8592508839877
 30
0.0
 10
430.9780529586483
 20
406.8066293945021
 30
0.0
 10
430.9780529586483
 20
406.8066293945021
 30
0.0
 10
430.9780529586483
 20
278.7294889839111
 30
0.0
 10
430.9780529586483
 20
278.7294889839111
 30
0.0
 10
430.9780529586483
 20
278.7294889839111
 30
0.0
 10
430.9780529586483
 20
278.7294889839111
 30
0.0
 10
430.9780529586483
 20
278.7294889839111
 30
0.0
 10
430.9780529586483
 20
278.7294889839111
 30
0.0
 10
430.9780529586483
 20
148.3718874588071
 30
0.0
 10
430.9780529586483
 20
148.3718874588071
 30
0.0
 10
430.9780529586483
 20
145.7201083464268
 30
0.0
 10
431.6577975069486
 20
143.1070979345199
 30
0.0
 10
432.9509490494056
 20
140.7956218596282
 30
0.0
 10
432.9509490494056
 20
140.7956218596282
 30
0.0
 10
432.9509490494056
 20
140.7956218596282
 30
0.0
 10
432.9509490494056
 20
140.7956218596282
 30
0.0
 10
434.2423775385082
 20
138.4841457847365
 30
0.0
 10
434.9212605601314
 20
135.8711353728295
 30
0.0
 10
434.9212605601314
 20
133.2193562604494
 30
0.0
 10
434.9212605601314
 20
133.2193562604494
 30
0.0
 10
434.9212605601314
 20
132.5964724728434
 30
0.0
 10
434.9212605601314
 20
132.5964724728434
 30
0.0
 10
434.9212605601314
 20
132.5964724728434
 30
0.0
 10
434.9212605601314
 20
132.5964724728434
 30
0.0
 10
434.9212605601314
 20
132.5964724728434
 30
0.0
 10
434.9212605601314
 20
129.8955863398633
 30
0.0
 10
432.9526721027601
 20
127.5746334715226
 30
0.0
 10
430.250924443103
 20
127.0947631123297
 30
0.0
 10
430.250924443103
 20
127.0947631123297
 30
0.0
 10
426.4119615695592
 20
126.3702191768159
 30
0.0
 10
426.4119615695592
 20
126.3702191768159
 30
0.0
 10
426.4119615695592
 20
126.3702191768159
 30
0.0
 10
426.4119615695592
 20
126.3702191768159
 30
0.0
 10
426.4119615695592
 20
126.3702191768159
 30
0.0
 10
426.4119615695592
 20
126.3702191768159
 30
0.0
 10
420.3916131493795
 20
125.3303564774517
 30
0.0
 10
420.3916131493795
 20
125.3303564774517
 30
0.0
 10
418.9502790184461
 20
125.0908520611938
 30
0.0
 10
417.9000779989557
 20
123.8657611262344
 30
0.0
 10
417.9000779989557
 20
122.4244269953012
 30
0.0
 10
417.9000779989557
 20
122.4244269953012
 30
0.0
 10
417.9000779989557
 20
114.5380117923352
 30
0.0
 10
417.9000779989557
 20
114.5380117923352
 30
0.0
 10
417.9000779989557
 20
114.5380117923352
 30
0.0
 10
417.9000779989557
 20
114.5380117923352
 30
0.0
 10
417.9000779989557
 20
114.5380117923352
 30
0.0
 10
417.9000779989557
 20
114.5380117923352
 30
0.0
 10
417.9000779989557
 20
106.5447672813979
 30
0.0
 10
417.9000779989557
 20
106.5447672813979
 30
0.0
 10
417.9000779989557
 20
105.137032690875
 30
0.0
 10
418.8374190237347
 20
103.9464028230031
 30
0.0
 10
420.1831236935002
 20
103.6388377992476
 30
0.0
 10
420.1831236935002
 20
103.6388377992476
 30
0.0
 10
422.883148299803
 20
102.9117092837019
 30
0.0
 10
422.883148299803
 20
102.9117092837019
 30
0.0
 10
422.883148299803
 20
102.9117092837019
 30
0.0
 10
422.883148299803
 20
102.9117092837019
 30
0.0
 10
422.883148299803
 20
102.9117092837019
 30
0.0
 10
422.883148299803
 20
102.9117092837019
 30
0.0
 10
425.6848330540141
 20
102.0829206202486
 30
0.0
 10
425.6848330540141
 20
102.0829206202486
 30
0.0
 10
427.0313992504565
 20
101.7753555964929
 30
0.0
 10
427.9678787485583
 20
100.584725728621
 30
0.0
 10
427.9678787485583
 20
99.17699113809824
 30
0.0
 10
427.9678787485583
 20
99.17699113809824
 30
0.0
 10
427.9678787485583
 20
96.58121125973487
 30
0.0
 10
427.9678787485583
 20
96.58121125973487
 30
0.0
 10
427.9678787485583
 20
96.58121125973487
 30
0.0
 10
427.9678787485583
 20
96.58121125973487
 30
0.0
 10
427.9678787485583
 20
96.58121125973487
 30
0.0
  0
LINE
  5
39
330
A
100
AcDbEntity
  8
A-001_Pan
100
AcDbLine
 10
429.9407725708548
 20
413.0328835979138
 30
0.0
 11
210.0128271007185
 21
413.0328835979138
 31
0.0
  0
LINE
  5
38
330
A
100
AcDbEntity
  8
A-001_Pan
100
AcDbLine
 10
430.9780519492377
 20
144.3244340179473
 30
0.0
 11
208.9729669650407
 21
144.3244340179473
 31
0.0
  0
LINE
  5
37
330
A
100
AcDbEntity
  8
A-001_Pan
100
AcDbLine
 10
221.946698965976
 20
124.9159638128808
 30
0.0
 11
417.9000793600322
 21
124.9159638128808
 31
0.0
  0
LINE
  5
36
330
A
100
AcDbEntity
  8
A-001_Pan
100
AcDbLine
 10
211.9831402677465
 20
127.9261371155864
 30
0.0
 11
427.967878646532
 21
127.9261371155864
 31
0.0
  0
LINE
  5
35
330
A
100
AcDbEntity
  8
A-001_Pan
100
AcDbLine
 10
417.9000793600322
 20
104.1574774602188
 30
0.0
 11
221.946698965976
 21
104.1574774602188
 31
0.0
  0
LINE
  5
34
330
A
100
AcDbEntity
  8
A-001_Pan
100
AcDbLine
 10
422.883146587061
 20
101.1473041575131
 30
0.0
 11
216.9662124962427
 21
101.1473041575131
 31
0.0
  0
SPLINE
  5
33
330
A
100
AcDbEntity
  8
A-001_Pan
100
AcDbSpline
210
0.0
220
0.0
230
1.0
 70
     9
 71
     3
 72
    41
 73
    37
 74
     0
 42
0.0000000001
 43
0.0000000001
 40
0.0
 40
0.0
 40
0.0
 40
0.0
 40
1.0
 40
1.0
 40
1.0
 40
2.0
 40
2.0
 40
2.0
 40
3.0
 40
3.0
 40
3.0
 40
4.0
 40
4.0
 40
4.0
 40
5.0
 40
5.0
 40
5.0
 40
6.0
 40
6.0
 40
6.0
 40
7.0
 40
7.0
 40
7.0
 40
8.0
 40
8.0
 40
8.0
 40
9.0
 40
9.0
 40
9.0
 40
10.0
 40
10.0
 40
10.0
 40
11.0
 40
11.0
 40
11.0
 40
12.0
 40
12.0
 40
12.0
 40
12.0
 10
322.4162148396881
 20
399.021874339444
 30
0.0
 10
322.4162148396881
 20
399.4362686711707
 30
0.0
 10
322.3119701117486
 20
399.8532475829291
 30
0.0
 10
322.1034806558694
 20
400.2676419146557
 30
0.0
 10
321.7933310520822
 20
400.6820362463824
 30
0.0
 10
321.4805968682635
 20
400.9947704302014
 30
0.0
 10
321.1704472644763
 20
401.2006753060488
 30
0.0
 10
320.753468352718
 20
401.409164761928
 30
0.0
 10
320.3390740209913
 20
401.5134094898677
 30
0.0
 10
319.9246796892645
 20
401.5134094898677
 30
0.0
 10
319.4060406295979
 20
401.5134094898677
 30
0.0
 10
318.9890617178399
 20
401.409164761928
 30
0.0
 10
318.6789121140527
 20
401.2006753060488
 30
0.0
 10
318.2645177823259
 20
400.9947704302014
 30
0.0
 10
317.9517835985072
 20
400.6820362463824
 30
0.0
 10
317.7432941426279
 20
400.2676419146557
 30
0.0
 10
317.5373892667805
 20
399.8532475829291
 30
0.0
 10
317.4331445388407
 20
399.4362686711707
 30
0.0
 10
317.4331445388407
 20
399.021874339444
 30
0.0
 10
317.4331445388407
 20
398.6074800077174
 30
0.0
 10
317.5373892667805
 20
398.1905010959591
 30
0.0
 10
317.7432941426279
 20
397.7761067642321
 30
0.0
 10
317.9517835985072
 20
397.3617124325054
 30
0.0
 10
318.2645177823259
 20
397.0489782486867
 30
0.0
 10
318.6789121140527
 20
396.8430733728392
 30
0.0
 10
318.9890617178399
 20
396.6345839169598
 30
0.0
 10
319.4060406295979
 20
396.5303391890204
 30
0.0
 10
319.9246796892645
 20
396.5303391890204
 30
0.0
 10
320.3390740209913
 20
396.5303391890204
 30
0.0
 10
320.753468352718
 20
396.6345839169598
 30
0.0
 10
321.1704472644763
 20
396.8430733728392
 30
0.0
 10
321.4805968682635
 20
397.0489782486867
 30
0.0
 10
321.7933310520822
 20
397.3617124325054
 30
0.0
 10
322.1034806558694
 20
397.7761067642321
 30
0.0
 10
322.3119701117486
 20
398.1905010959591
 30
0.0
 10
322.4162148396881
 20
398.6074800077174
 30
0.0
 10
322.4162148396881
 20
399.021874339444
 30
0.0
  0
SPLINE
  5
32
330
A
100
AcDbEntity
  8
A-001_Pan
100
AcDbSpline
210
0.0
220
0.0
230
1.0
 70
     9
 71
     3
 72
    59
 73
    55
 74
     0
 42
0.0000000001
 43
0.0000000001
 40
0.0
 40
0.0
 40
0.0
 40
0.0
 40
1.0
 40
1.0
 40
1.0
 40
2.0
 40
2.0
 40
2.0
 40
3.0
 40
3.0
 40
3.0
 40
4.0
 40
4.0
 40
4.0
 40
5.0
 40
5.0
 40
5.0
 40
6.0
 40
6.0
 40
6.0
 40
7.0
 40
7.0
 40
7.0
 40
8.0
 40
8.0
 40
8.0
 40
9.0
 40
9.0
 40
9.0
 40
10.0
 40
10.0
 40
10.0
 40
11.0
 40
11.0
 40
11.0
 40
12.0
 40
12.0
 40
12.0
 40
13.0
 40
13.0
 40
13.0
 40
14.0
 40
14.0
 40
14.0
 40
15.0
 40
15.0
 40
15.0
 40
16.0
 40
16.0
 40
16.0
 40
17.0
 40
17.0
 40
17.0
 40
18.0
 40
18.0
 40
18.0
 40
18.0
 10
531.1348368149763
 20
329.2769821878031
 30
0.0
 10
531.762889762645
 20
326.6036649084928
 30
0.0
 10
535.5648069890697
 20
326.6036649084928
 30
0.0
 10
536.2195672637312
 20
329.2769821878031
 30
0.0
 10
536.2195672637312
 20
329.2769821878031
 30
0.0
 10
536.2195672637312
 20
329.2769821878031
 30
0.0
 10
536.2195672637312
 20
329.2769821878031
 30
0.0
 10
537.8745600106067
 20
336.2424253728566
 30
0.0
 10
538.711102414155
 20
343.4146349604352
 30
0.0
 10
538.711102414155
 20
350.6557666821885
 30
0.0
 10
538.711102414155
 20
350.6557666821885
 30
0.0
 10
538.711102414155
 20
373.0744138759381
 30
0.0
 10
538.711102414155
 20
373.0744138759381
 30
0.0
 10
538.711102414155
 20
373.0744138759381
 30
0.0
 10
538.711102414155
 20
373.0744138759381
 30
0.0
 10
538.711102414155
 20
373.0744138759381
 30
0.0
 10
538.711102414155
 20
373.0744138759381
 30
0.0
 10
538.711102414155
 20
395.3888163417481
 30
0.0
 10
538.711102414155
 20
395.3888163417481
 30
0.0
 10
538.711102414155
 20
402.7005932510309
 30
0.0
 10
537.8745600106067
 20
410.047692754078
 30
0.0
 10
536.2195672637312
 20
417.2888244758314
 30
0.0
 10
536.2195672637312
 20
417.2888244758314
 30
0.0
 10
536.2195672637312
 20
417.5989740796185
 30
0.0
 10
536.2195672637312
 20
417.5989740796185
 30
0.0
 10
536.2195672637312
 20
417.5989740796185
 30
0.0
 10
536.2195672637312
 20
417.5989740796185
 30
0.0
 10
536.2195672637312
 20
417.5989740796185
 30
0.0
 10
535.6035756895425
 20
420.2352457118095
 30
0.0
 10
531.7258441155261
 20
420.2352457118095
 30
0.0
 10
531.1348368149763
 20
417.5989740796185
 30
0.0
 10
531.1348368149763
 20
417.5989740796185
 30
0.0
 10
531.1348368149763
 20
417.5989740796185
 30
0.0
 10
531.1348368149763
 20
417.5989740796185
 30
0.0
 10
531.1348368149763
 20
417.5989740796185
 30
0.0
 10
531.1348368149763
 20
417.2888244758314
 30
0.0
 10
531.1348368149763
 20
417.2888244758314
 30
0.0
 10
529.4798440681006
 20
410.047692754078
 30
0.0
 10
528.6433016645523
 20
402.7005932510309
 30
0.0
 10
528.6433016645523
 20
395.3888163417481
 30
0.0
 10
528.6433016645523
 20
395.3888163417481
 30
0.0
 10
528.6433016645523
 20
373.0744138759381
 30
0.0
 10
528.6433016645523
 20
373.0744138759381
 30
0.0
 10
528.6433016645523
 20
373.0744138759381
 30
0.0
 10
528.6433016645523
 20
373.0744138759381
 30
0.0
 10
528.6433016645523
 20
373.0744138759381
 30
0.0
 10
528.6433016645523
 20
373.0744138759381
 30
0.0
 10
528.6433016645523
 20
350.6557666821885
 30
0.0
 10
528.6433016645523
 20
350.6557666821885
 30
0.0
 10
528.6433016645523
 20
343.4146349604352
 30
0.0
 10
529.4798440681006
 20
336.2424253728566
 30
0.0
 10
531.1348368149763
 20
329.2769821878031
 30
0.0
 10
531.1348368149763
 20
329.2769821878031
 30
0.0
 10
531.1348368149763
 20
329.2769821878031
 30
0.0
 10
531.1348368149763
 20
329.2769821878031
 30
0.0
  0
SPLINE
  5
31
330
A
100
AcDbEntity
  8
A-001_Pan
100
AcDbSpline
210
0.0
220
0.0
230
1.0
 70
     9
 71
     3
 72
    53
 73
    49
 74
     0
 42
0.0000000001
 43
0.0000000001
 40
0.0
 40
0.0
 40
0.0
 40
0.0
 40
1.0
 40
1.0
 40
1.0
 40
2.0
 40
2.0
 40
2.0
 40
3.0
 40
3.0
 40
3.0
 40
4.0
 40
4.0
 40
4.0
 40
5.0
 40
5.0
 40
5.0
 40
6.0
 40
6.0
 40
6.0
 40
7.0
 40
7.0
 40
7.0
 40
8.0
 40
8.0
 40
8.0
 40
9.0
 40
9.0
 40
9.0
 40
10.0
 40
10.0
 40
10.0
 40
11.0
 40
11.0
 40
11.0
 40
12.0
 40
12.0
 40
12.0
 40
13.0
 40
13.0
 40
13.0
 40
14.0
 40
14.0
 40
14.0
 40
15.0
 40
15.0
 40
15.0
 40
16.0
 40
16.0
 40
16.0
 40
16.0
 10
531.1348368149763
 20
148.0617378550199
 30
0.0
 10
531.8843650241285
 20
145.6193097251959
 30
0.0
 10
535.4364395141685
 20
145.6193097251959
 30
0.0
 10
536.2195672637312
 20
148.0617378550199
 30
0.0
 10
536.2195672637312
 20
148.0617378550199
 30
0.0
 10
536.2195672637312
 20
148.0617378550199
 30
0.0
 10
536.2195672637312
 20
148.0617378550199
 30
0.0
 10
537.871113903898
 20
153.4979711880675
 30
0.0
 10
538.711102414155
 20
159.1280480234818
 30
0.0
 10
538.711102414155
 20
164.7701862323768
 30
0.0
 10
538.711102414155
 20
164.7701862323768
 30
0.0
 10
538.711102414155
 20
181.9998582494315
 30
0.0
 10
538.711102414155
 20
181.9998582494315
 30
0.0
 10
538.711102414155
 20
181.9998582494315
 30
0.0
 10
538.711102414155
 20
181.9998582494315
 30
0.0
 10
538.711102414155
 20
181.9998582494315
 30
0.0
 10
538.711102414155
 20
181.9998582494315
 30
0.0
 10
538.711102414155
 20
198.8125513547282
 30
0.0
 10
538.711102414155
 20
198.8125513547282
 30
0.0
 10
538.711102414155
 20
204.7338242070316
 30
0.0
 10
537.8728369572525
 20
210.6395895791457
 30
0.0
 10
536.2195672637312
 20
216.3549575556014
 30
0.0
 10
536.2195672637312
 20
216.3549575556014
 30
0.0
 10
536.2195672637312
 20
216.3549575556014
 30
0.0
 10
536.2195672637312
 20
216.3549575556014
 30
0.0
 10
535.4717621079332
 20
218.8352928592217
 30
0.0
 10
531.8507654837181
 20
218.8352928592217
 30
0.0
 10
531.1348368149763
 20
216.3549575556014
 30
0.0
 10
531.1348368149763
 20
216.3549575556014
 30
0.0
 10
531.1348368149763
 20
216.3549575556014
 30
0.0
 10
531.1348368149763
 20
216.3549575556014
 30
0.0
 10
529.4815671214548
 20
210.6395895791457
 30
0.0
 10
528.6433016645523
 20
204.7338242070316
 30
0.0
 10
528.6433016645523
 20
198.8125513547282
 30
0.0
 10
528.6433016645523
 20
198.8125513547282
 30
0.0
 10
528.6433016645523
 20
181.9998582494315
 30
0.0
 10
528.6433016645523
 20
181.9998582494315
 30
0.0
 10
528.6433016645523
 20
181.9998582494315
 30
0.0
 10
528.6433016645523
 20
181.9998582494315
 30
0.0
 10
528.6433016645523
 20
181.9998582494315
 30
0.0
 10
528.6433016645523
 20
181.9998582494315
 30
0.0
 10
528.6433016645523
 20
164.7701862323768
 30
0.0
 10
528.6433016645523
 20
164.7701862323768
 30
0.0
 10
528.6433016645523
 20
159.1280480234818
 30
0.0
 10
529.4832901748093
 20
153.4979711880675
 30
0.0
 10
531.1348368149763
 20
148.0617378550199
 30
0.0
 10
531.1348368149763
 20
148.0617378550199
 30
0.0
 10
531.1348368149763
 20
148.0617378550199
 30
0.0
 10
531.1348368149763
 20
148.0617378550199
 30
0.0
  0
SPLINE
  5
30
330
A
100
AcDbEntity
  8
A-001_Pan
100
AcDbSpline
210
0.0
220
0.0
230
1.0
 70
     8
 71
     3
 72
    29
 73
    25
 74
     0
 42
0.0000000001
 43
0.0000000001
 40
0.0
 40
0.0
 40
0.0
 40
0.0
 40
1.0
 40
1.0
 40
1.0
 40
2.0
 40
2.0
 40
2.0
 40
3.0
 40
3.0
 40
3.0
 40
4.0
 40
4.0
 40
4.0
 40
5.0
 40
5.0
 40
5.0
 40
6.0
 40
6.0
 40
6.0
 40
7.0
 40
7.0
 40
7.0
 40
8.0
 40
8.0
 40
8.0
 40
8.0
 10
235.4390660909609
 20
602.8616707418241
 30
0.0
 10
235.4390660909609
 20
602.8616707418241
 30
0.0
 10
235.6475555468401
 20
602.5515211380368
 30
0.0
 10
235.6475555468401
 20
602.5515211380368
 30
0.0
 10
236.6219422187383
 20
601.2333853219413
 30
0.0
 10
238.4811167881066
 20
601.000773119101
 30
0.0
 10
239.7992526042021
 20
602.0328820783706
 30
0.0
 10
239.7992526042021
 20
602.0328820783706
 30
0.0
 10
241.459414511141
 20
603.1744049256428
 30
0.0
 10
241.459414511141
 20
603.1744049256428
 30
0.0
 10
241.459414511141
 20
603.1744049256428
 30
0.0
 10
241.459414511141
 20
603.1744049256428
 30
0.0
 10
241.459414511141
 20
603.1744049256428
 30
0.0
 10
241.459414511141
 20
603.1744049256428
 30
0.0
 10
243.0179162701714
 20
604.4201725008549
 30
0.0
 10
243.0179162701714
 20
604.4201725008549
 30
0.0
 10
244.3351905595895
 20
605.3936976460756
 30
0.0
 10
244.5669412357527
 20
607.2520106887671
 30
0.0
 10
243.5365553298378
 20
608.5718695582167
 30
0.0
 10
243.5365553298378
 20
608.5718695582167
 30
0.0
 10
243.3280658739584
 20
608.882019162004
 30
0.0
 10
243.3280658739584
 20
608.882019162004
 30
0.0
 10
243.3280658739584
 20
608.882019162004
 30
0.0
 10
243.3280658739584
 20
608.882019162004
 30
0.0
 10
243.3280658739584
 20
608.882019162004
 30
0.0
  0
SPLINE
  5
2F
330
A
100
AcDbEntity
  8
A-001_Pan
100
AcDbSpline
210
0.0
220
0.0
230
1.0
 70
     8
 71
     3
 72
    29
 73
    25
 74
     0
 42
0.0000000001
 43
0.0000000001
 40
0.0
 40
0.0
 40
0.0
 40
0.0
 40
1.0
 40
1.0
 40
1.0
 40
2.0
 40
2.0
 40
2.0
 40
3.0
 40
3.0
 40
3.0
 40
4.0
 40
4.0
 40
4.0
 40
5.0
 40
5.0
 40
5.0
 40
6.0
 40
6.0
 40
6.0
 40
7.0
 40
7.0
 40
7.0
 40
8.0
 40
8.0
 40
8.0
 40
8.0
 10
403.8890696478701
 20
602.8616707418241
 30
0.0
 10
403.8890696478701
 20
602.8616707418241
 30
0.0
 10
403.680580191991
 20
602.5515211380368
 30
0.0
 10
403.680580191991
 20
602.5515211380368
 30
0.0
 10
402.7070550467702
 20
601.2333853219413
 30
0.0
 10
400.8487420040785
 20
601.000773119101
 30
0.0
 10
399.5288831346286
 20
602.0328820783706
 30
0.0
 10
399.5288831346286
 20
602.0328820783706
 30
0.0
 10
397.8687212276903
 20
603.1744049256428
 30
0.0
 10
397.8687212276903
 20
603.1744049256428
 30
0.0
 10
397.8687212276903
 20
603.1744049256428
 30
0.0
 10
397.8687212276903
 20
603.1744049256428
 30
0.0
 10
397.8687212276903
 20
603.1744049256428
 30
0.0
 10
397.8687212276903
 20
603.1744049256428
 30
0.0
 10
396.3128040486913
 20
604.4201725008549
 30
0.0
 10
396.3128040486913
 20
604.4201725008549
 30
0.0
 10
394.9946682325958
 20
605.3936976460756
 30
0.0
 10
394.7620560297553
 20
607.2520106887671
 30
0.0
 10
395.7941649890249
 20
608.5718695582167
 30
0.0
 10
395.7941649890249
 20
608.5718695582167
 30
0.0
 10
396.0000698648726
 20
608.882019162004
 30
0.0
 10
396.0000698648726
 20
608.882019162004
 30
0.0
 10
396.0000698648726
 20
608.882019162004
 30
0.0
 10
396.0000698648726
 20
608.882019162004
 30
0.0
 10
396.0000698648726
 20
608.882019162004
 30
0.0
  0
HATCH
  5
2E
330
A
100
AcDbEntity
  8
A-001_Pan
100
AcDbHatch
 10
0.0
 20
0.0
 30
0.0
210
0.0
220
0.0
230
1.0
  2
SOLID
 70
     1
 71
     0
 91
        1
 92
        3
 72
     0
 73
     1
 93
      276
 10
575.6593970186566
 20
102.9117092837019
 10
578.4610817728673
 20
102.0829206202486
 10
578.875476104594
 20
101.9786758923089
 10
579.3966997442916
 20
101.7701864364297
 10
579.7068493480789
 20
101.4600368326425
 10
580.0195835318979
 20
101.0456425009158
 10
580.3297331356852
 20
100.6286635891575
 10
580.5382225915641
 20
100.2142692574307
 10
580.6398827394723
 20
99.69563019776444
 10
580.6398827394723
 20
99.17699113809824
 10
580.6398827394723
 20
96.58121125973487
 10
580.6398827394723
 20
93.98801596140321
 10
580.6398827394723
 20
93.57103704964487
 10
580.5382225915641
 20
93.05239798997865
 10
580.2254884077454
 20
92.63800365825176
 10
579.9153388039583
 20
92.22360932652504
 10
579.6026046201395
 20
91.91087514270634
 10
579.1882102884128
 20
91.70238568682719
 10
578.6695712287464
 20
91.60072553891916
 10
578.1509321690803
 20
91.4964808109795
 10
576.9051645938682
 20
91.4964808109795
 10
576.5924304100496
 20
91.4964808109795
 10
576.386525534202
 20
91.4964808109795
 10
576.0737913503833
 20
91.39223608304002
 10
575.763641746596
 20
91.28799135510048
 10
575.5551522907166
 20
91.18374662716087
 10
575.2450026869296
 20
90.97784175131328
 10
575.0365132310503
 20
90.87359702337369
 10
574.8280237751714
 20
90.66510756749449
 10
573.1678618682328
 20
89.00494566055602
 10
571.6119446892339
 20
87.44902848155687
 10
571.2992105054154
 20
87.24053902567783
 10
571.0933056295673
 20
87.03204956979851
 10
570.8848161736884
 20
86.93038942189065
 10
570.5746665699011
 20
86.72189996601133
 10
570.2619323860826
 20
86.61765523807185
 10
570.0534429302031
 20
86.61765523807185
 10
569.743293326416
 20
86.51341051013231
 10
569.4331437226288
 20
86.51341051013231
 10
562.6856667869035
 20
86.51341051013231
 10
562.6856667869035
 20
91.4964808109795
 10
560.7127706961464
 20
91.70238568682719
 10
558.8467039133599
 20
92.32526947443313
 10
557.0822972784822
 20
93.26088744585774
 10
555.6280402473905
 20
94.50665502106955
 10
554.3822726721794
 20
95.95832747212899
 10
553.4492392807858
 20
97.72273410700705
 10
552.8263554931799
 20
99.5913854698248
 10
552.7221107652407
 20
101.5642815605821
 10
552.7221107652407
 20
108.6219081000948
 10
552.7221107652407
 20
118.6897088496973
 10
552.7221107652407
 20
119.5184975131508
 10
552.7221107652407
 20
120.3498707566359
 10
552.8263554931799
 20
121.1786594200894
 10
553.0331218957051
 20
122.0100326635744
 10
553.1365050969673
 20
122.8414059070595
 10
553.4492392807858
 20
123.6701945705131
 10
553.6551441566337
 20
124.3973230860585
 10
553.9678783404524
 20
125.2261117495121
 10
554.2780279442395
 20
125.9532402650575
 10
554.6950068559981
 20
126.7846135085425
 10
555.1094011877246
 20
127.5117420240881
 10
555.5237955194513
 20
128.1346258116939
 10
556.0424345791177
 20
128.8591697472079
 10
556.5619351654611
 20
129.4820535348137
 10
557.0822972784822
 20
130.2091820503593
 10
557.7025964860565
 20
130.7278211100256
 10
558.2238201257541
 20
131.3507048976315
 10
558.8467039133599
 20
131.9735886852374
 10
559.3653429730263
 20
132.7007172007829
 10
559.7797373047531
 20
133.3236009883888
 10
560.2983763644195
 20
134.0481449239028
 10
560.7127706961464
 20
134.7752734394483
 10
561.0255048799647
 20
135.5024019549937
 10
561.335654483752
 20
136.3337751984789
 10
561.6483886675707
 20
137.0583191339928
 10
561.9585382713578
 20
137.8896923774778
 10
562.1670277272373
 20
138.7210656209628
 10
562.3755171831162
 20
139.5498542844164
 10
562.4771773310244
 20
140.3812275279015
 10
562.581422058964
 20
141.210016191355
 10
562.6856667869035
 20
142.0413894348399
 10
562.6856667869035
 20
142.8701780982936
 10
562.6856667869035
 20
276.0320489576399
 10
562.6856667869035
 20
400.6820362463824
 10
562.6856667869035
 20
401.6176542178071
 10
562.6856667869035
 20
402.5506876092003
 10
562.7899115148432
 20
403.4837210005932
 10
562.8941562427828
 20
404.4193389720177
 10
562.9958163906906
 20
405.3523723634112
 10
563.1000611186302
 20
406.183745606896
 10
563.2043058465701
 20
407.1167789982892
 10
563.4127953024489
 20
408.0523969697138
 10
563.6195617049739
 20
408.9854303611069
 10
563.8271896341755
 20
409.816803604592
 10
564.0356790900548
 20
410.7498369959849
 10
564.3458286938421
 20
411.58121023947
 10
564.5543181497216
 20
412.5142436308633
 10
564.8644677535087
 20
413.3456168743482
 10
565.177201937327
 20
414.2786502657414
 10
565.4873515411143
 20
415.1100235092265
 10
565.9043304528727
 20
415.93881217268
 10
566.3187247845995
 20
416.7701854161651
 10
566.7331191163262
 20
417.5989740796185
 10
567.1483749747303
 20
418.4303473231036
 10
567.5644923598112
 20
419.2617205665887
 10
567.978886691538
 20
419.9862645021027
 10
568.4975257512044
 20
420.8176377455876
 10
569.0161648108707
 20
421.5447662611331
 10
569.5348038705369
 20
422.3735549245866
 10
570.0534429302031
 20
423.100683440132
 10
570.6771882444863
 20
423.8278119556775
 10
571.197550357507
 20
424.554940471223
 10
571.8178495650813
 20
425.279484406737
 10
572.4415948793646
 20
425.9023681943428
 10
573.0636171402932
 20
426.6294967098883
 10
573.686500927899
 20
427.2523804974944
 10
581.4712559829577
 20
435.0371355525524
 10
582.1983844985029
 20
435.8659242160061
 10
582.821268286109
 20
436.6972974594911
 10
583.3399073457749
 20
437.630330850884
 10
583.8585464054412
 20
438.6701935502482
 10
584.1686960092285
 20
439.6032269416413
 10
584.4814301930475
 20
440.7447497889136
 10
584.5856749209867
 20
441.7820279082461
 10
584.6899196489264
 20
442.8193060275789
 10
584.5856749209867
 20
444.5837126624568
 10
584.1686960092285
 20
446.2464591494272
 10
583.5483968016542
 20
447.8023763284261
 10
582.6127788302296
 20
449.2566333595172
 10
581.4712559829577
 20
450.4998163546975
 10
580.2254884077454
 20
451.6413392019697
 10
578.7738159566863
 20
452.4727124454549
 10
577.1110694697161
 20
453.0955962330606
 10
572.6492228085667
 20
454.5498532641516
 10
572.6492228085667
 20
464.5134092858147
 10
590.8119282170146
 20
459.7388284408465
 10
591.4348120046201
 20
459.6345837129068
 10
592.0576957922262
 20
459.4260942570278
 10
592.6805795798323
 20
459.1159446532406
 10
593.3034633674378
 20
458.9074551973614
 10
593.8221024271042
 20
458.5973055935743
 10
594.44498621471
 20
458.2845714097556
 10
594.9636252743767
 20
457.9744218059684
 10
595.5865090619824
 20
457.6616876221494
 10
596.1051481216489
 20
457.2472932904228
 10
596.6237871813155
 20
456.9345591066042
 10
597.1432877676589
 20
456.5201647748773
 10
597.5594051527398
 20
456.1057704431505
 10
598.0780442124062
 20
455.5871313834841
 10
598.4924385441329
 20
455.170152471726
 10
598.9076944025368
 20
454.6515134120597
 10
599.3238117876178
 20
454.1328743523933
 10
599.7382061193448
 20
453.614235292727
 10
600.1526004510715
 20
453.0955962330606
 10
600.4653346348902
 20
452.5769571733943
 10
600.7754842386773
 20
451.9540733857883
 10
601.0882184224961
 20
451.4354343261221
 10
601.3983680262831
 20
450.8125505385161
 10
601.6068574821624
 20
450.1896667509103
 10
601.8127623580099
 20
449.6710276912439
 10
602.0212518138891
 20
449.048143903638
 10
602.2297412697683
 20
448.4252601160322
 10
602.3339859977079
 20
447.6981316004867
 10
602.4365076722931
 20
447.0752478128807
 10
602.5398908735556
 20
446.4523640252748
 10
602.644135601495
 20
445.829480237669
 10
602.644135601495
 20
445.2065964500631
 10
602.644135601495
 20
444.482052514549
 10
602.644135601495
 20
444.1693183307304
 10
602.644135601495
 20
441.5761230323987
 10
602.644135601495
 20
441.1591441206406
 10
602.644135601495
 20
440.7447497889136
 10
602.644135601495
 20
440.4346001851265
 10
602.644135601495
 20
440.0176212733682
 10
602.5398908735556
 20
439.6032269416413
 10
602.5398908735556
 20
439.2904927578226
 10
602.4365076722931
 20
438.8760984260959
 10
602.4365076722931
 20
438.4617040943693
 10
602.3339859977079
 20
438.1489699105503
 10
602.2297412697683
 20
437.7345755788238
 10
602.1254965418286
 20
437.4244259750366
 10
602.0212518138891
 20
437.0074470632783
 10
601.9170070859495
 20
436.5930527315513
 10
601.8127623580099
 20
436.2829031277642
 10
601.6068574821624
 20
435.9701689439453
 10
601.5026127542226
 20
435.5557746122189
 10
601.3983680262831
 20
435.2430404284
 10
601.1924631504355
 20
434.828646096673
 10
600.9839736945564
 20
434.518496492886
 10
600.8797289666172
 20
434.2057623090674
 10
600.6721010374151
 20
433.8956127052802
 10
600.4653346348902
 20
433.4786337935218
 10
600.2568451790109
 20
433.1684841897346
 10
600.0483557231318
 20
432.855750005916
 10
599.8424508472842
 20
432.5456004021289
 10
599.6339613914051
 20
432.23286621831
 10
599.4280565155575
 20
431.9227166145229
 10
599.1153223317387
 20
431.6125670107357
 10
598.9076944025368
 20
431.299832826917
 10
598.7009280000124
 20
431.0913433710378
 10
598.3881938161933
 20
430.7811937672505
 10
598.0780442124062
 20
430.4684595834318
 10
590.5017786132273
 20
422.892193984253
 10
586.5568479583898
 20
418.94898638277
 10
585.8314424961988
 20
418.2218578672245
 10
585.2085587085926
 20
417.4973139317104
 10
584.5856749209867
 20
416.6659406882255
 10
584.0670358613204
 20
415.93881217268
 10
583.5483968016542
 20
415.1100235092265
 10
583.0280346886336
 20
414.1744055378019
 10
582.6127788302296
 20
413.3456168743482
 10
582.1983844985029
 20
412.4099989029236
 10
581.8856503146837
 20
411.4769655115306
 10
581.5755007108966
 20
410.5413475401058
 10
581.2636280537553
 20
409.6083141487129
 10
581.0568616512305
 20
408.6752807573198
 10
580.9526169232908
 20
407.739662785895
 10
580.7441274674119
 20
406.7023846665624
 10
580.7441274674119
 20
405.7667666951378
 10
580.6398827394723
 20
404.7294885758049
 10
580.6398827394723
 20
277.3820612607913
 10
580.6398827394723
 20
146.5032360959892
 10
580.7441274674119
 20
145.8803523083836
 10
580.7441274674119
 20
145.361713248717
 10
580.8483721953514
 20
144.7388294611113
 10
580.9526169232908
 20
144.1159456735054
 10
581.0568616512305
 20
143.5973066138391
 10
581.1611063791704
 20
143.0786675541726
 10
581.3670112550176
 20
142.4557837665667
 10
581.5755007108966
 20
141.9371447069004
 10
581.783990166776
 20
141.4185056472341
 10
582.0941397705633
 20
140.8998665875679
 10
582.4042893743503
 20
140.3812275279015
 10
582.7170235581689
 20
139.8625884682349
 10
583.0280346886336
 20
139.3413648285372
 10
583.4441520737145
 20
138.9269704968105
 10
583.7543016775018
 20
138.5125761650837
 10
584.1686960092285
 20
137.9939371054175
 10
585.3128034365324
 20
136.9566589860845
 10
585.8314424961988
 20
136.3337751984789
 10
586.350081555865
 20
135.7108914108728
 10
586.7644758875917
 20
134.9837628953274
 10
587.07721007141
 20
134.256634379782
 10
587.2831149472583
 20
133.5295058642365
 10
587.4916044031372
 20
132.7007172007829
 10
587.6975092789844
 20
131.9735886852374
 10
587.6975092789844
 20
131.1422154417524
 10
587.5958491310766
 20
130.4176715062385
 10
587.4916044031372
 20
129.690542990693
 10
587.1788702193184
 20
129.067659203087
 10
586.7644758875917
 20
128.5490201434208
 10
586.2458368279253
 20
128.0303810837543
 10
585.6229530403195
 20
127.613402171996
 10
585.0000692527134
 20
127.3032525682088
 10
584.272940737168
 20
127.0947631123297
 10
579.1882102884128
 20
126.2659744488761
 10
573.1678618682328
 20
125.2261117495121
 10
572.6492228085667
 20
125.0202068736645
 10
572.23482847684
 20
124.8117174177853
 10
571.7161894171733
 20
124.5015678139981
 10
571.4034552333544
 20
124.1888336301794
 10
571.0933056295673
 20
123.7744392984526
 10
570.8848161736884
 20
123.2558002387863
 10
570.6771882444863
 20
122.7371611791199
 10
570.6771882444863
 20
122.2185221194535
 10
570.6771882444863
 20
114.4337670643956
 10
570.6771882444863
 20
106.5447672813979
 10
570.6771882444863
 20
106.0261282217316
 10
570.8848161736884
 20
105.5074891620651
 10
570.9890609016281
 20
105.0930948303384
 10
571.2992105054154
 20
104.6761159185803
 10
571.6119446892339
 20
104.2617215868534
 10
572.0263390209606
 20
104.0532321309743
 10
572.4415948793646
 20
103.743082527187
 10
572.9619569923854
 20
103.6388377992476
 97
        0
 75
     2
 76
     1
 98
        1
 10
-490.6650942353516
 20
-346.1806093667411
  0
HATCH
  5
2D
330
A
100
AcDbEntity
  8
A-001_Pan
100
AcDbHatch
 10
0.0
 20
0.0
 30
0.0
210
0.0
220
0.0
230
1.0
  2
SOLID
 70
     1
 71
     0
 91
        1
 92
        1
 93
        1
 72
     4
 94
        3
 73
     0
 74
     0
 95
      209
 96
      205
 40
0.0
 40
0.0
 40
0.0
 40
0.0
 40
1.0
 40
1.0
 40
1.0
 40
2.0
 40
2.0
 40
2.0
 40
3.0
 40
3.0
 40
3.0
 40
4.0
 40
4.0
 40
4.0
 40
5.0
 40
5.0
 40
5.0
 40
6.0
 40
6.0
 40
6.0
 40
7.0
 40
7.0
 40
7.0
 40
8.0
 40
8.0
 40
8.0
 40
9.0
 40
9.0
 40
9.0
 40
10.0
 40
10.0
 40
10.0
 40
11.0
 40
11.0
 40
11.0
 40
12.0
 40
12.0
 40
12.0
 40
13.0
 40
13.0
 40
13.0
 40
14.0
 40
14.0
 40
14.0
 40
15.0
 40
15.0
 40
15.0
 40
16.0
 40
16.0
 40
16.0
 40
17.0
 40
17.0
 40
17.0
 40
18.0
 40
18.0
 40
18.0
 40
19.0
 40
19.0
 40
19.0
 40
20.0
 40
20.0
 40
20.0
 40
21.0
 40
21.0
 40
21.0
 40
22.0
 40
22.0
 40
22.0
 40
23.0
 40
23.0
 40
23.0
 40
24.0
 40
24.0
 40
24.0
 40
25.0
 40
25.0
 40
25.0
 40
26.0
 40
26.0
 40
26.0
 40
27.0
 40
27.0
 40
27.0
 40
28.0
 40
28.0
 40
28.0
 40
29.0
 40
29.0
 40
29.0
 40
30.0
 40
30.0
 40
30.0
 40
31.0
 40
31.0
 40
31.0
 40
32.0
 40
32.0
 40
32.0
 40
33.0
 40
33.0
 40
33.0
 40
34.0
 40
34.0
 40
34.0
 40
35.0
 40
35.0
 40
35.0
 40
36.0
 40
36.0
 40
36.0
 40
37.0
 40
37.0
 40
37.0
 40
38.0
 40
38.0
 40
38.0
 40
39.0
 40
39.0
 40
39.0
 40
40.0
 40
40.0
 40
40.0
 40
41.0
 40
41.0
 40
41.0
 40
42.0
 40
42.0
 40
42.0
 40
43.0
 40
43.0
 40
43.0
 40
44.0
 40
44.0
 40
44.0
 40
45.0
 40
45.0
 40
45.0
 40
46.0
 40
46.0
 40
46.0
 40
47.0
 40
47.0
 40
47.0
 40
48.0
 40
48.0
 40
48.0
 40
49.0
 40
49.0
 40
49.0
 40
50.0
 40
50.0
 40
50.0
 40
51.0
 40
51.0
 40
51.0
 40
52.0
 40
52.0
 40
52.0
 40
53.0
 40
53.0
 40
53.0
 40
54.0
 40
54.0
 40
54.0
 40
55.0
 40
55.0
 40
55.0
 40
56.0
 40
56.0
 40
56.0
 40
57.0
 40
57.0
 40
57.0
 40
58.0
 40
58.0
 40
58.0
 40
59.0
 40
59.0
 40
59.0
 40
60.0
 40
60.0
 40
60.0
 40
61.0
 40
61.0
 40
61.0
 40
62.0
 40
62.0
 40
62.0
 40
63.0
 40
63.0
 40
63.0
 40
64.0
 40
64.0
 40
64.0
 40
65.0
 40
65.0
 40
65.0
 40
66.0
 40
66.0
 40
66.0
 40
67.0
 40
67.0
 40
67.0
 40
68.0
 40
68.0
 40
68.0
 40
68.0
 10
575.6593970186566
 20
102.9117092837019
 10
575.6593970186566
 20
102.9117092837019
 10
578.4610817728673
 20
102.0829206202486
 10
578.4610817728673
 20
102.0829206202486
 10
579.747341101907
 20
101.7753555964929
 10
580.6398827394723
 20
100.584725728621
 10
580.6398827394723
 20
99.17699113809824
 10
580.6398827394723
 20
99.17699113809824
 10
580.6398827394723
 20
96.58121125973487
 10
580.6398827394723
 20
96.58121125973487
 10
580.6398827394723
 20
96.58121125973487
 10
580.6398827394723
 20
96.58121125973487
 10
580.6398827394723
 20
96.58121125973487
 10
580.6398827394723
 20
96.58121125973487
 10
580.6398827394723
 20
93.98801596140321
 10
580.6398827394723
 20
93.98801596140321
 10
580.6398827394723
 20
92.61129633125898
 10
579.5250672191925
 20
91.4964808109795
 10
578.1509321690803
 20
91.4964808109795
 10
578.1509321690803
 20
91.4964808109795
 10
578.1509321690803
 20
91.4964808109795
 10
578.1509321690803
 20
91.4964808109795
 10
578.1509321690803
 20
91.4964808109795
 10
576.9051645938682
 20
91.4964808109795
 10
576.9051645938682
 20
91.4964808109795
 10
576.1073908907937
 20
91.4964808109795
 10
575.3613087883495
 20
91.19839258067305
 10
574.8280237751714
 20
90.66510756749449
 10
574.8280237751714
 20
90.66510756749449
 10
573.1678618682328
 20
89.00494566055602
 10
573.1678618682328
 20
89.00494566055602
 10
573.1678618682328
 20
89.00494566055602
 10
573.1678618682328
 20
89.00494566055602
 10
573.1678618682328
 20
89.00494566055602
 10
573.1678618682328
 20
89.00494566055602
 10
571.6119446892339
 20
87.44902848155687
 10
571.6119446892339
 20
87.44902848155687
 10
571.0131836485893
 20
86.85026744091226
 10
570.2283328456721
 20
86.51341051013231
 10
569.4331437226288
 20
86.51341051013231
 10
569.4331437226288
 20
86.51341051013231
 10
562.6856667869035
 20
86.51341051013231
 10
562.6856667869035
 20
86.51341051013231
 10
562.6856667869035
 20
86.51341051013231
 10
562.6856667869035
 20
86.51341051013231
 10
562.6856667869035
 20
86.51341051013231
 10
562.6856667869035
 20
86.51341051013231
 10
562.6856667869035
 20
91.4964808109795
 10
562.6856667869035
 20
91.4964808109795
 10
557.1822343730355
 20
91.4964808109795
 10
552.7221107652407
 20
96.0022653326655
 10
552.7221107652407
 20
101.5642815605821
 10
552.7221107652407
 20
101.5642815605821
 10
552.7221107652407
 20
108.6219081000948
 10
552.7221107652407
 20
108.6219081000948
 10
552.7221107652407
 20
108.6219081000948
 10
552.7221107652407
 20
108.6219081000948
 10
552.7221107652407
 20
108.6219081000948
 10
552.7221107652407
 20
108.6219081000948
 10
552.7221107652407
 20
118.6897088496973
 10
552.7221107652407
 20
118.6897088496973
 10
552.7221107652407
 20
123.208416271541
 10
554.5149477804657
 20
127.5375878244036
 10
557.7025964860565
 20
130.7278211100256
 10
557.7025964860565
 20
130.7278211100256
 10
557.7025964860565
 20
130.7278211100256
 10
557.7025964860565
 20
130.7278211100256
 10
560.8928297716781
 20
133.9852534764683
 10
562.6856667869035
 20
138.3523322031269
 10
562.6856667869035
 20
142.8701780982936
 10
562.6856667869035
 20
142.8701780982936
 10
562.6856667869035
 20
276.0320489576399
 10
562.6856667869035
 20
276.0320489576399
 10
562.6856667869035
 20
276.0320489576399
 10
562.6856667869035
 20
276.0320489576399
 10
562.6856667869035
 20
276.0320489576399
 10
562.6856667869035
 20
276.0320489576399
 10
562.6856667869035
 20
400.6820362463824
 10
562.6856667869035
 20
400.6820362463824
 10
562.6856667869035
 20
410.6507614281086
 10
566.6435203418989
 20
420.2085383848166
 10
573.686500927899
 20
427.2523804974944
 10
573.686500927899
 20
427.2523804974944
 10
573.686500927899
 20
427.2523804974944
 10
573.686500927899
 20
427.2523804974944
 10
573.686500927899
 20
427.2523804974944
 10
581.4712559829577
 20
435.0371355525524
 10
581.4712559829577
 20
435.0371355525524
 10
583.5320277947876
 20
437.0961843110282
 10
584.6899196489264
 20
439.8961460118849
 10
584.6899196489264
 20
442.8193060275789
 10
584.6899196489264
 20
442.8193060275789
 10
584.6899196489264
 20
442.8193060275789
 10
584.6899196489264
 20
442.8193060275789
 10
584.6899196489264
 20
447.5077342048282
 10
581.61426941137
 20
451.6766617957344
 10
577.1110694697161
 20
453.0955962330606
 10
577.1110694697161
 20
453.0955962330606
 10
577.1110694697161
 20
453.0955962330606
 10
577.1110694697161
 20
453.0955962330606
 10
577.1110694697161
 20
453.0955962330606
 10
572.6492228085667
 20
454.5498532641516
 10
572.6492228085667
 20
454.5498532641516
 10
572.6492228085667
 20
454.5498532641516
 10
572.6492228085667
 20
464.5134092858147
 10
572.6492228085667
 20
464.5134092858147
 10
572.6492228085667
 20
464.5134092858147
 10
590.8119282170146
 20
459.7388284408465
 10
590.8119282170146
 20
459.7388284408465
 10
594.1804975248142
 20
458.8617942834707
 10
597.1674105146201
 20
456.8940673527765
 10
599.3238117876178
 20
454.1328743523933
 10
599.3238117876178
 20
454.1328743523933
 10
599.3238117876178
 20
454.1328743523933
 10
599.3238117876178
 20
454.1328743523933
 10
601.4741823738757
 20
451.3751274587191
 10
602.644135601495
 20
447.9789892972496
 10
602.644135601495
 20
444.482052514549
 10
602.644135601495
 20
444.482052514549
 10
602.644135601495
 20
444.1693183307304
 10
602.644135601495
 20
444.1693183307304
 10
602.644135601495
 20
444.1693183307304
 10
602.644135601495
 20
444.1693183307304
 10
602.644135601495
 20
444.1693183307304
 10
602.644135601495
 20
444.1693183307304
 10
602.644135601495
 20
441.5761230323987
 10
602.644135601495
 20
441.5761230323987
 10
602.644135601495
 20
439.5205203806315
 10
602.2555870700837
 20
437.4735329956362
 10
601.5026127542226
 20
435.5557746122189
 10
601.5026127542226
 20
435.5557746122189
 10
601.5026127542226
 20
435.5557746122189
 10
601.5026127542226
 20
435.5557746122189
 10
600.7496384383618
 20
433.6380162288016
 10
599.5848543708055
 20
431.9089321876878
 10
598.0780442124062
 20
430.4684595834318
 10
598.0780442124062
 20
430.4684595834318
 10
590.5017786132273
 20
422.892193984253
 10
590.5017786132273
 20
422.892193984253
 10
590.5017786132273
 20
422.892193984253
 10
590.5017786132273
 20
422.892193984253
 10
590.5017786132273
 20
422.892193984253
 10
590.5017786132273
 20
422.892193984253
 10
586.5568479583898
 20
418.94898638277
 10
586.5568479583898
 20
418.94898638277
 10
582.7695766854774
 20
415.1608535831804
 10
580.6398827394723
 20
410.0459697007237
 10
580.6398827394723
 20
404.7294885758049
 10
580.6398827394723
 20
404.7294885758049
 10
580.6398827394723
 20
277.3820612607913
 10
580.6398827394723
 20
277.3820612607913
 10
580.6398827394723
 20
277.3820612607913
 10
580.6398827394723
 20
277.3820612607913
 10
580.6398827394723
 20
277.3820612607913
 10
580.6398827394723
 20
277.3820612607913
 10
580.6398827394723
 20
146.5032360959892
 10
580.6398827394723
 20
146.5032360959892
 10
580.6398827394723
 20
143.3130028103674
 10
581.9106345883226
 20
140.2519985263233
 10
584.1686960092285
 20
137.9939371054175
 10
584.1686960092285
 20
137.9939371054175
 10
584.1686960092285
 20
137.9939371054175
 10
584.1686960092285
 20
137.9939371054175
 10
584.1686960092285
 20
137.9939371054175
 10
585.3128034365324
 20
136.9566589860845
 10
585.3128034365324
 20
136.9566589860845
 10
586.840290235184
 20
135.4265876074014
 10
587.6975092789844
 20
133.3356623618695
 10
587.6975092789844
 20
131.1422154417524
 10
587.6975092789844
 20
131.1422154417524
 10
587.6975092789844
 20
131.1422154417524
 10
587.6975092789844
 20
131.1422154417524
 10
587.6975092789844
 20
129.1632886642548
 10
586.2544520946974
 20
127.4548812633937
 10
584.272940737168
 20
127.0947631123297
 10
584.272940737168
 20
127.0947631123297
 10
579.1882102884128
 20
126.2659744488761
 10
579.1882102884128
 20
126.2659744488761
 10
579.1882102884128
 20
126.2659744488761
 10
579.1882102884128
 20
126.2659744488761
 10
579.1882102884128
 20
126.2659744488761
 10
579.1882102884128
 20
126.2659744488761
 10
573.1678618682328
 20
125.2261117495121
 10
573.1678618682328
 20
125.2261117495121
 10
571.7282507906539
 20
124.9866073332542
 10
570.6771882444863
 20
123.7175785377584
 10
570.6771882444863
 20
122.2185221194535
 10
570.6771882444863
 20
122.2185221194535
 10
570.6771882444863
 20
114.4337670643956
 10
570.6771882444863
 20
114.4337670643956
 10
570.6771882444863
 20
114.4337670643956
 10
570.6771882444863
 20
114.4337670643956
 10
570.6771882444863
 20
114.4337670643956
 10
570.6771882444863
 20
114.4337670643956
 10
570.6771882444863
 20
106.5447672813979
 10
570.6771882444863
 20
106.5447672813979
 10
570.6771882444863
 20
105.137032690875
 10
571.6136677425882
 20
103.9464028230031
 10
572.9619569923854
 20
103.6388377992476
 10
572.9619569923854
 20
103.6388377992476
 10
575.6593970186566
 20
102.9117092837019
 10
575.6593970186566
 20
102.9117092837019
 10
575.6593970186566
 20
102.9117092837019
 10
575.6593970186566
 20
102.9117092837019
 10
575.6593970186566
 20
102.9117092837019
 97
        0
 75
     2
 76
     1
 98
        1
 10
-490.6650942353516
 20
-346.1806093667411
  0
SPLINE
  5
2C
330
A
100
AcDbEntity
  8
A-001_Pan
100
AcDbSpline
210
0.0
220
0.0
230
1.0
 70
     9
 71
     3
 72
   209
 73
   205
 74
     0
 42
0.0000000001
 43
0.0000000001
 40
0.0
 40
0.0
 40
0.0
 40
0.0
 40
1.0
 40
1.0
 40
1.0
 40
2.0
 40
2.0
 40
2.0
 40
3.0
 40
3.0
 40
3.0
 40
4.0
 40
4.0
 40
4.0
 40
5.0
 40
5.0
 40
5.0
 40
6.0
 40
6.0
 40
6.0
 40
7.0
 40
7.0
 40
7.0
 40
8.0
 40
8.0
 40
8.0
 40
9.0
 40
9.0
 40
9.0
 40
10.0
 40
10.0
 40
10.0
 40
11.0
 40
11.0
 40
11.0
 40
12.0
 40
12.0
 40
12.0
 40
13.0
 40
13.0
 40
13.0
 40
14.0
 40
14.0
 40
14.0
 40
15.0
 40
15.0
 40
15.0
 40
16.0
 40
16.0
 40
16.0
 40
17.0
 40
17.0
 40
17.0
 40
18.0
 40
18.0
 40
18.0
 40
19.0
 40
19.0
 40
19.0
 40
20.0
 40
20.0
 40
20.0
 40
21.0
 40
21.0
 40
21.0
 40
22.0
 40
22.0
 40
22.0
 40
23.0
 40
23.0
 40
23.0
 40
24.0
 40
24.0
 40
24.0
 40
25.0
 40
25.0
 40
25.0
 40
26.0
 40
26.0
 40
26.0
 40
27.0
 40
27.0
 40
27.0
 40
28.0
 40
28.0
 40
28.0
 40
29.0
 40
29.0
 40
29.0
 40
30.0
 40
30.0
 40
30.0
 40
31.0
 40
31.0
 40
31.0
 40
32.0
 40
32.0
 40
32.0
 40
33.0
 40
33.0
 40
33.0
 40
34.0
 40
34.0
 40
34.0
 40
35.0
 40
35.0
 40
35.0
 40
36.0
 40
36.0
 40
36.0
 40
37.0
 40
37.0
 40
37.0
 40
38.0
 40
38.0
 40
38.0
 40
39.0
 40
39.0
 40
39.0
 40
40.0
 40
40.0
 40
40.0
 40
41.0
 40
41.0
 40
41.0
 40
42.0
 40
42.0
 40
42.0
 40
43.0
 40
43.0
 40
43.0
 40
44.0
 40
44.0
 40
44.0
 40
45.0
 40
45.0
 40
45.0
 40
46.0
 40
46.0
 40
46.0
 40
47.0
 40
47.0
 40
47.0
 40
48.0
 40
48.0
 40
48.0
 40
49.0
 40
49.0
 40
49.0
 40
50.0
 40
50.0
 40
50.0
 40
51.0
 40
51.0
 40
51.0
 40
52.0
 40
52.0
 40
52.0
 40
53.0
 40
53.0
 40
53.0
 40
54.0
 40
54.0
 40
54.0
 40
55.0
 40
55.0
 40
55.0
 40
56.0
 40
56.0
 40
56.0
 40
57.0
 40
57.0
 40
57.0
 40
58.0
 40
58.0
 40
58.0
 40
59.0
 40
59.0
 40
59.0
 40
60.0
 40
60.0
 40
60.0
 40
61.0
 40
61.0
 40
61.0
 40
62.0
 40
62.0
 40
62.0
 40
63.0
 40
63.0
 40
63.0
 40
64.0
 40
64.0
 40
64.0
 40
65.0
 40
65.0
 40
65.0
 40
66.0
 40
66.0
 40
66.0
 40
67.0
 40
67.0
 40
67.0
 40
68.0
 40
68.0
 40
68.0
 40
68.0
 10
575.6593970186566
 20
102.9117092837019
 30
0.0
 10
575.6593970186566
 20
102.9117092837019
 30
0.0
 10
578.4610817728673
 20
102.0829206202486
 30
0.0
 10
578.4610817728673
 20
102.0829206202486
 30
0.0
 10
579.747341101907
 20
101.7753555964929
 30
0.0
 10
580.6398827394723
 20
100.584725728621
 30
0.0
 10
580.6398827394723
 20
99.17699113809824
 30
0.0
 10
580.6398827394723
 20
99.17699113809824
 30
0.0
 10
580.6398827394723
 20
96.58121125973487
 30
0.0
 10
580.6398827394723
 20
96.58121125973487
 30
0.0
 10
580.6398827394723
 20
96.58121125973487
 30
0.0
 10
580.6398827394723
 20
96.58121125973487
 30
0.0
 10
580.6398827394723
 20
96.58121125973487
 30
0.0
 10
580.6398827394723
 20
96.58121125973487
 30
0.0
 10
580.6398827394723
 20
93.98801596140321
 30
0.0
 10
580.6398827394723
 20
93.98801596140321
 30
0.0
 10
580.6398827394723
 20
92.61129633125898
 30
0.0
 10
579.5250672191925
 20
91.4964808109795
 30
0.0
 10
578.1509321690803
 20
91.4964808109795
 30
0.0
 10
578.1509321690803
 20
91.4964808109795
 30
0.0
 10
578.1509321690803
 20
91.4964808109795
 30
0.0
 10
578.1509321690803
 20
91.4964808109795
 30
0.0
 10
578.1509321690803
 20
91.4964808109795
 30
0.0
 10
576.9051645938682
 20
91.4964808109795
 30
0.0
 10
576.9051645938682
 20
91.4964808109795
 30
0.0
 10
576.1073908907937
 20
91.4964808109795
 30
0.0
 10
575.3613087883495
 20
91.19839258067305
 30
0.0
 10
574.8280237751714
 20
90.66510756749449
 30
0.0
 10
574.8280237751714
 20
90.66510756749449
 30
0.0
 10
573.1678618682328
 20
89.00494566055602
 30
0.0
 10
573.1678618682328
 20
89.00494566055602
 30
0.0
 10
573.1678618682328
 20
89.00494566055602
 30
0.0
 10
573.1678618682328
 20
89.00494566055602
 30
0.0
 10
573.1678618682328
 20
89.00494566055602
 30
0.0
 10
573.1678618682328
 20
89.00494566055602
 30
0.0
 10
571.6119446892339
 20
87.44902848155687
 30
0.0
 10
571.6119446892339
 20
87.44902848155687
 30
0.0
 10
571.0131836485893
 20
86.85026744091226
 30
0.0
 10
570.2283328456721
 20
86.51341051013231
 30
0.0
 10
569.4331437226288
 20
86.51341051013231
 30
0.0
 10
569.4331437226288
 20
86.51341051013231
 30
0.0
 10
562.6856667869035
 20
86.51341051013231
 30
0.0
 10
562.6856667869035
 20
86.51341051013231
 30
0.0
 10
562.6856667869035
 20
86.51341051013231
 30
0.0
 10
562.6856667869035
 20
86.51341051013231
 30
0.0
 10
562.6856667869035
 20
86.51341051013231
 30
0.0
 10
562.6856667869035
 20
86.51341051013231
 30
0.0
 10
562.6856667869035
 20
91.4964808109795
 30
0.0
 10
562.6856667869035
 20
91.4964808109795
 30
0.0
 10
557.1822343730355
 20
91.4964808109795
 30
0.0
 10
552.7221107652407
 20
96.0022653326655
 30
0.0
 10
552.7221107652407
 20
101.5642815605821
 30
0.0
 10
552.7221107652407
 20
101.5642815605821
 30
0.0
 10
552.7221107652407
 20
108.6219081000948
 30
0.0
 10
552.7221107652407
 20
108.6219081000948
 30
0.0
 10
552.7221107652407
 20
108.6219081000948
 30
0.0
 10
552.7221107652407
 20
108.6219081000948
 30
0.0
 10
552.7221107652407
 20
108.6219081000948
 30
0.0
 10
552.7221107652407
 20
108.6219081000948
 30
0.0
 10
552.7221107652407
 20
118.6897088496973
 30
0.0
 10
552.7221107652407
 20
118.6897088496973
 30
0.0
 10
552.7221107652407
 20
123.208416271541
 30
0.0
 10
554.5149477804657
 20
127.5375878244036
 30
0.0
 10
557.7025964860565
 20
130.7278211100256
 30
0.0
 10
557.7025964860565
 20
130.7278211100256
 30
0.0
 10
557.7025964860565
 20
130.7278211100256
 30
0.0
 10
557.7025964860565
 20
130.7278211100256
 30
0.0
 10
560.8928297716781
 20
133.9852534764683
 30
0.0
 10
562.6856667869035
 20
138.3523322031269
 30
0.0
 10
562.6856667869035
 20
142.8701780982936
 30
0.0
 10
562.6856667869035
 20
142.8701780982936
 30
0.0
 10
562.6856667869035
 20
276.0320489576399
 30
0.0
 10
562.6856667869035
 20
276.0320489576399
 30
0.0
 10
562.6856667869035
 20
276.0320489576399
 30
0.0
 10
562.6856667869035
 20
276.0320489576399
 30
0.0
 10
562.6856667869035
 20
276.0320489576399
 30
0.0
 10
562.6856667869035
 20
276.0320489576399
 30
0.0
 10
562.6856667869035
 20
400.6820362463824
 30
0.0
 10
562.6856667869035
 20
400.6820362463824
 30
0.0
 10
562.6856667869035
 20
410.6507614281086
 30
0.0
 10
566.6435203418989
 20
420.2085383848166
 30
0.0
 10
573.686500927899
 20
427.2523804974944
 30
0.0
 10
573.686500927899
 20
427.2523804974944
 30
0.0
 10
573.686500927899
 20
427.2523804974944
 30
0.0
 10
573.686500927899
 20
427.2523804974944
 30
0.0
 10
573.686500927899
 20
427.2523804974944
 30
0.0
 10
581.4712559829577
 20
435.0371355525524
 30
0.0
 10
581.4712559829577
 20
435.0371355525524
 30
0.0
 10
583.5320277947876
 20
437.0961843110282
 30
0.0
 10
584.6899196489264
 20
439.8961460118849
 30
0.0
 10
584.6899196489264
 20
442.8193060275789
 30
0.0
 10
584.6899196489264
 20
442.8193060275789
 30
0.0
 10
584.6899196489264
 20
442.8193060275789
 30
0.0
 10
584.6899196489264
 20
442.8193060275789
 30
0.0
 10
584.6899196489264
 20
447.5077342048282
 30
0.0
 10
581.61426941137
 20
451.6766617957344
 30
0.0
 10
577.1110694697161
 20
453.0955962330606
 30
0.0
 10
577.1110694697161
 20
453.0955962330606
 30
0.0
 10
577.1110694697161
 20
453.0955962330606
 30
0.0
 10
577.1110694697161
 20
453.0955962330606
 30
0.0
 10
577.1110694697161
 20
453.0955962330606
 30
0.0
 10
572.6492228085667
 20
454.5498532641516
 30
0.0
 10
572.6492228085667
 20
454.5498532641516
 30
0.0
 10
572.6492228085667
 20
454.5498532641516
 30
0.0
 10
572.6492228085667
 20
464.5134092858147
 30
0.0
 10
572.6492228085667
 20
464.5134092858147
 30
0.0
 10
572.6492228085667
 20
464.5134092858147
 30
0.0
 10
590.8119282170146
 20
459.7388284408465
 30
0.0
 10
590.8119282170146
 20
459.7388284408465
 30
0.0
 10
594.1804975248142
 20
458.8617942834707
 30
0.0
 10
597.1674105146201
 20
456.8940673527765
 30
0.0
 10
599.3238117876178
 20
454.1328743523933
 30
0.0
 10
599.3238117876178
 20
454.1328743523933
 30
0.0
 10
599.3238117876178
 20
454.1328743523933
 30
0.0
 10
599.3238117876178
 20
454.1328743523933
 30
0.0
 10
601.4741823738757
 20
451.3751274587191
 30
0.0
 10
602.644135601495
 20
447.9789892972496
 30
0.0
 10
602.644135601495
 20
444.482052514549
 30
0.0
 10
602.644135601495
 20
444.482052514549
 30
0.0
 10
602.644135601495
 20
444.1693183307304
 30
0.0
 10
602.644135601495
 20
444.1693183307304
 30
0.0
 10
602.644135601495
 20
444.1693183307304
 30
0.0
 10
602.644135601495
 20
444.1693183307304
 30
0.0
 10
602.644135601495
 20
444.1693183307304
 30
0.0
 10
602.644135601495
 20
444.1693183307304
 30
0.0
 10
602.644135601495
 20
441.5761230323987
 30
0.0
 10
602.644135601495
 20
441.5761230323987
 30
0.0
 10
602.644135601495
 20
439.5205203806315
 30
0.0
 10
602.2555870700837
 20
437.4735329956362
 30
0.0
 10
601.5026127542226
 20
435.5557746122189
 30
0.0
 10
601.5026127542226
 20
435.5557746122189
 30
0.0
 10
601.5026127542226
 20
435.5557746122189
 30
0.0
 10
601.5026127542226
 20
435.5557746122189
 30
0.0
 10
600.7496384383618
 20
433.6380162288016
 30
0.0
 10
599.5848543708055
 20
431.9089321876878
 30
0.0
 10
598.0780442124062
 20
430.4684595834318
 30
0.0
 10
598.0780442124062
 20
430.4684595834318
 30
0.0
 10
590.5017786132273
 20
422.892193984253
 30
0.0
 10
590.5017786132273
 20
422.892193984253
 30
0.0
 10
590.5017786132273
 20
422.892193984253
 30
0.0
 10
590.5017786132273
 20
422.892193984253
 30
0.0
 10
590.5017786132273
 20
422.892193984253
 30
0.0
 10
590.5017786132273
 20
422.892193984253
 30
0.0
 10
586.5568479583898
 20
418.94898638277
 30
0.0
 10
586.5568479583898
 20
418.94898638277
 30
0.0
 10
582.7695766854774
 20
415.1608535831804
 30
0.0
 10
580.6398827394723
 20
410.0459697007237
 30
0.0
 10
580.6398827394723
 20
404.7294885758049
 30
0.0
 10
580.6398827394723
 20
404.7294885758049
 30
0.0
 10
580.6398827394723
 20
277.3820612607913
 30
0.0
 10
580.6398827394723
 20
277.3820612607913
 30
0.0
 10
580.6398827394723
 20
277.3820612607913
 30
0.0
 10
580.6398827394723
 20
277.3820612607913
 30
0.0
 10
580.6398827394723
 20
277.3820612607913
 30
0.0
 10
580.6398827394723
 20
277.3820612607913
 30
0.0
 10
580.6398827394723
 20
146.5032360959892
 30
0.0
 10
580.6398827394723
 20
146.5032360959892
 30
0.0
 10
580.6398827394723
 20
143.3130028103674
 30
0.0
 10
581.9106345883226
 20
140.2519985263233
 30
0.0
 10
584.1686960092285
 20
137.9939371054175
 30
0.0
 10
584.1686960092285
 20
137.9939371054175
 30
0.0
 10
584.1686960092285
 20
137.9939371054175
 30
0.0
 10
584.1686960092285
 20
137.9939371054175
 30
0.0
 10
584.1686960092285
 20
137.9939371054175
 30
0.0
 10
585.3128034365324
 20
136.9566589860845
 30
0.0
 10
585.3128034365324
 20
136.9566589860845
 30
0.0
 10
586.840290235184
 20
135.4265876074014
 30
0.0
 10
587.6975092789844
 20
133.3356623618695
 30
0.0
 10
587.6975092789844
 20
131.1422154417524
 30
0.0
 10
587.6975092789844
 20
131.1422154417524
 30
0.0
 10
587.6975092789844
 20
131.1422154417524
 30
0.0
 10
587.6975092789844
 20
131.1422154417524
 30
0.0
 10
587.6975092789844
 20
129.1632886642548
 30
0.0
 10
586.2544520946974
 20
127.4548812633937
 30
0.0
 10
584.272940737168
 20
127.0947631123297
 30
0.0
 10
584.272940737168
 20
127.0947631123297
 30
0.0
 10
579.1882102884128
 20
126.2659744488761
 30
0.0
 10
579.1882102884128
 20
126.2659744488761
 30
0.0
 10
579.1882102884128
 20
126.2659744488761
 30
0.0
 10
579.1882102884128
 20
126.2659744488761
 30
0.0
 10
579.1882102884128
 20
126.2659744488761
 30
0.0
 10
579.1882102884128
 20
126.2659744488761
 30
0.0
 10
573.1678618682328
 20
125.2261117495121
 30
0.0
 10
573.1678618682328
 20
125.2261117495121
 30
0.0
 10
571.7282507906539
 20
124.9866073332542
 30
0.0
 10
570.6771882444863
 20
123.7175785377584
 30
0.0
 10
570.6771882444863
 20
122.2185221194535
 30
0.0
 10
570.6771882444863
 20
122.2185221194535
 30
0.0
 10
570.6771882444863
 20
114.4337670643956
 30
0.0
 10
570.6771882444863
 20
114.4337670643956
 30
0.0
 10
570.6771882444863
 20
114.4337670643956
 30
0.0
 10
570.6771882444863
 20
114.4337670643956
 30
0.0
 10
570.6771882444863
 20
114.4337670643956
 30
0.0
 10
570.6771882444863
 20
114.4337670643956
 30
0.0
 10
570.6771882444863
 20
106.5447672813979
 30
0.0
 10
570.6771882444863
 20
106.5447672813979
 30
0.0
 10
570.6771882444863
 20
105.137032690875
 30
0.0
 10
571.6136677425882
 20
103.9464028230031
 30
0.0
 10
572.9619569923854
 20
103.6388377992476
 30
0.0
 10
572.9619569923854
 20
103.6388377992476
 30
0.0
 10
575.6593970186566
 20
102.9117092837019
 30
0.0
 10
575.6593970186566
 20
102.9117092837019
 30
0.0
 10
575.6593970186566
 20
102.9117092837019
 30
0.0
 10
575.6593970186566
 20
102.9117092837019
 30
0.0
 10
575.6593970186566
 20
102.9117092837019
 30
0.0
  0
HATCH
  5
2B
330
A
100
AcDbEntity
  8
A-001_Pan
100
AcDbHatch
 10
0.0
 20
0.0
 30
0.0
210
0.0
220
0.0
230
1.0
  2
SOLID
 70
     1
 71
     0
 91
        1
 92
        3
 72
     0
 73
     1
 93
      514
 10
224.6467214058444
 20
593.0023594481008
 10
225.2696051934503
 20
593.6252432357066
 10
225.7882442531167
 20
594.1438822953728
 10
226.4111280407223
 20
594.7667660829788
 10
227.0340118283284
 20
595.2854051426452
 10
227.6568956159343
 20
595.9082889302512
 10
228.1755346756009
 20
596.4269279899174
 10
228.7984184632068
 20
597.0498117775232
 10
229.4213022508126
 20
597.5684508371898
 10
230.0441860384182
 20
598.1913346247958
 10
230.6670698260244
 20
598.7108352111392
 10
231.2873690335987
 20
599.2311973241601
 10
231.9102528212048
 20
599.8514965317345
 10
232.5331366088105
 20
600.3727201714321
 10
233.1560203964164
 20
600.8913592310984
 10
233.7789041840222
 20
601.4099982907648
 10
234.4017879716282
 20
602.0328820783706
 10
235.0246717592341
 20
602.5515211380368
 10
235.6475555468401
 20
603.0701601977032
 10
236.270439334446
 20
603.5887992573698
 10
236.8933231220521
 20
604.1074383170362
 10
237.6204516375973
 20
604.6260773767025
 10
238.2433354252033
 20
605.1447164363685
 10
238.8662192128091
 20
605.5616953481271
 10
239.5907631483231
 20
606.0803344077933
 10
240.2136469359291
 20
606.5989734674596
 10
240.8365307235349
 20
607.1176125271263
 10
241.5636592390803
 20
607.5328683855298
 10
242.1865430266864
 20
608.0532304985506
 10
242.9136715422318
 20
608.5718695582167
 10
243.5365553298378
 20
608.9862638899437
 10
244.2610992653517
 20
609.5049029496101
 10
244.8839830529576
 20
609.9192972813368
 10
245.6111115685029
 20
610.4379363410035
 10
246.3382400840483
 20
610.8549152527614
 10
246.9611238716544
 20
611.373554312428
 10
247.6882523871999
 20
611.7879486441545
 10
248.4127963227138
 20
612.202342975881
 10
249.0356801103197
 20
612.723566615579
 10
249.762808625865
 20
613.137960947306
 10
250.4899371414105
 20
613.5523552790328
 10
251.2170656569564
 20
613.9667496107595
 10
251.94160959247
 20
614.3837285225177
 10
252.6687381080158
 20
614.7981228542446
 10
253.2916218956215
 20
615.2125171859711
 10
254.0187504111671
 20
615.6294960977297
 10
254.7458789267127
 20
616.0438904294562
 10
255.4704228622264
 20
616.4582847611834
 10
256.1975513777718
 20
616.8752636729414
 10
256.9246798933174
 20
617.2896580046681
 10
257.6518084088628
 20
617.5998076084554
 10
258.3763523443769
 20
618.0167865202138
 10
259.1034808599223
 20
618.4311808519403
 10
259.9348541034072
 20
618.7413304557276
 10
260.6619826189529
 20
619.158309367486
 10
261.3865265544668
 20
619.4684589712733
 10
262.1136550700123
 20
619.8837148296773
 10
262.8407835855579
 20
620.1955874868185
 10
263.5679121011032
 20
620.6099818185452
 10
264.3967007645569
 20
620.922716002364
 10
265.1238292801024
 20
621.2328656061511
 10
265.8509577956477
 20
621.6481214645551
 10
266.5755017311615
 20
621.9599941216968
 10
267.4068749746467
 20
622.2701437254839
 10
268.1340034901922
 20
622.5828779093026
 10
268.9627921536459
 20
622.8930275130899
 10
269.6899206691914
 20
623.2057616969084
 10
270.4170491847366
 20
623.5159113006957
 10
271.2484224282215
 20
623.8286454845145
 10
271.9729663637357
 20
624.1387950883018
 10
272.8043396072208
 20
624.4515292721203
 10
273.5314681227663
 20
624.7616788759073
 10
274.3602567862196
 20
624.9701683317867
 10
275.0873853017653
 20
625.280317935574
 10
275.9187585452504
 20
625.5930521193927
 10
276.6433024807643
 20
625.7989569952403
 10
277.4746757242494
 20
626.1116911790586
 10
278.2018042397947
 20
626.3175960549067
 10
279.0305929032483
 20
626.6303302387252
 10
279.7577214187939
 20
626.8388196946043
 10
280.5890946622789
 20
627.1489692983916
 10
281.4178833257322
 20
627.3574587542707
 10
282.1450118412777
 20
627.5633636301184
 10
282.9763850847631
 20
627.8760978139371
 10
283.8051737482164
 20
628.0820026897845
 10
284.5323022637619
 20
628.2904921456641
 10
285.3636755072469
 20
628.4989816015427
 10
286.1924641707002
 20
628.7057480040678
 10
286.9195926862458
 20
628.9133759332694
 10
287.7483813496995
 20
629.1218653891487
 10
288.5797545931844
 20
629.3277702649963
 10
289.4111278366697
 20
629.5362597208757
 10
290.1356717721837
 20
629.6405044488156
 10
290.9670450156686
 20
629.846409324663
 10
291.7984182591536
 20
630.0548987805418
 10
292.6272069226072
 20
630.2633882364209
 10
293.4585801660922
 20
630.3676329643608
 10
294.1857086816376
 20
630.5735378402082
 10
295.0144973450911
 20
630.6777825681479
 10
295.8458705885761
 20
630.886272024027
 10
296.67465925203
 20
630.9905167519666
 10
297.5060324955148
 20
631.0921768998744
 10
298.3348211589684
 20
631.3006663557539
 10
299.0619496745139
 20
631.4049110836934
 10
299.893322917999
 20
631.5091558116328
 10
300.7221115814526
 20
631.610815959541
 10
301.5534848249374
 20
631.7150606874807
 10
302.3848580684226
 20
631.9235501433595
 10
303.2136467318762
 20
632.0277948712991
 10
304.0450199753612
 20
632.1320395992386
 10
304.8738086388147
 20
632.1320395992386
 10
305.7051818822998
 20
632.2345612738242
 10
306.5365551257848
 20
632.3379444750864
 10
307.3653437892381
 20
632.4421892030259
 10
308.1967170327235
 20
632.5464339309656
 10
308.9212609682371
 20
632.5464339309656
 10
309.7526342117222
 20
632.6506786589052
 10
310.5840074552074
 20
632.6506786589052
 10
311.4127961186607
 20
632.7549233868446
 10
312.2441693621459
 20
632.7549233868446
 10
312.9712978776914
 20
632.8565835347529
 10
313.800086541145
 20
632.8565835347529
 10
314.6314597846301
 20
632.9608282626923
 10
315.4602484480834
 20
632.9608282626923
 10
316.2916216915688
 20
632.9608282626923
 10
317.1229949350536
 20
632.9608282626923
 10
317.9517835985072
 20
632.9608282626923
 10
318.7831568419924
 20
632.9608282626923
 10
319.6119455054458
 20
632.9608282626923
 10
320.4433187489308
 20
632.9608282626923
 10
321.2721074123842
 20
632.9608282626923
 10
322.1034806558694
 20
632.9608282626923
 10
322.9348538993543
 20
632.9608282626923
 10
323.763642562808
 20
632.9608282626923
 10
324.5950158062931
 20
632.9608282626923
 10
325.4238044697466
 20
632.8565835347529
 10
326.2551777132318
 20
632.8565835347529
 10
327.0865509567166
 20
632.7549233868446
 10
327.9153396201702
 20
632.7549233868446
 10
328.7467128636552
 20
632.6506786589052
 10
329.5755015271088
 20
632.6506786589052
 10
330.3026300426542
 20
632.5464339309656
 10
331.1340032861393
 20
632.5464339309656
 10
331.9627919495928
 20
632.4421892030259
 10
332.794165193078
 20
632.3379444750864
 10
333.6229538565314
 20
632.2345612738242
 10
334.4543271000166
 20
632.1320395992386
 10
335.2857003435013
 20
632.1320395992386
 10
336.114489006955
 20
632.0277948712991
 10
336.94586225044
 20
631.9235501433595
 10
337.7746509138937
 20
631.7150606874807
 10
338.6060241573786
 20
631.610815959541
 10
339.4373974008638
 20
631.5091558116328
 10
340.1619413363775
 20
631.4049110836934
 10
340.9933145798628
 20
631.3006663557539
 10
341.8246878233477
 20
631.0921768998744
 10
342.6534764868013
 20
630.9905167519666
 10
343.4848497302865
 20
630.886272024027
 10
344.3136383937398
 20
630.6777825681479
 10
345.1450116372249
 20
630.5735378402082
 10
345.8721401527703
 20
630.3676329643608
 10
346.7009288162239
 20
630.2633882364209
 10
347.532302059709
 20
630.0548987805418
 10
348.3610907231626
 20
629.846409324663
 10
349.1924639666476
 20
629.6405044488156
 10
349.9195924821931
 20
629.5362597208757
 10
350.7483811456465
 20
629.3277702649963
 10
351.5797543891316
 20
629.1218653891487
 10
352.4111276326166
 20
628.9133759332694
 10
353.1356715681305
 20
628.7057480040678
 10
353.9670448116156
 20
628.4989816015427
 10
354.7958334750692
 20
628.2904921456641
 10
355.5229619906147
 20
628.0820026897845
 10
356.3543352340998
 20
627.8760978139371
 10
357.1831238975532
 20
627.5633636301184
 10
357.9102524130987
 20
627.3574587542707
 10
358.7416256565836
 20
627.1489692983916
 10
359.5704143200371
 20
626.8388196946043
 10
360.2975428355829
 20
626.6303302387252
 10
361.1289160790679
 20
626.3175960549067
 10
361.8534600145816
 20
626.1116911790586
 10
362.6848332580669
 20
625.7989569952403
 10
363.4119617736124
 20
625.5930521193927
 10
364.2407504370658
 20
625.280317935574
 10
364.9678789526114
 20
624.9701683317867
 10
365.7992521960966
 20
624.7616788759073
 10
366.5263807116418
 20
624.4515292721203
 10
367.3551693750953
 20
624.1387950883018
 10
368.0822978906409
 20
623.8286454845145
 10
368.9110865540943
 20
623.5159113006957
 10
369.6382150696398
 20
623.2057616969084
 10
370.3653435851854
 20
622.8930275130899
 10
371.1967168286704
 20
622.5828779093026
 10
371.9212607641844
 20
622.2701437254839
 10
372.64838927973
 20
621.9599941216968
 10
373.4797625232149
 20
621.6481214645551
 10
374.2043064587289
 20
621.2328656061511
 10
374.9314349742744
 20
620.922716002364
 10
375.65856348982
 20
620.6099818185452
 10
376.4899367333049
 20
620.1955874868185
 10
377.2144806688185
 20
619.8837148296773
 10
377.9416091843643
 20
619.4684589712733
 10
378.6687376999096
 20
619.158309367486
 10
379.3958662154553
 20
618.7413304557276
 10
380.1204101509691
 20
618.4311808519403
 10
380.9517833944541
 20
618.0167865202138
 10
381.6789119099998
 20
617.5998076084554
 10
382.4060404255451
 20
617.2896580046681
 10
383.1305843610591
 20
616.8752636729414
 10
383.8577128766047
 20
616.4582847611834
 10
384.5848413921502
 20
616.0438904294562
 10
385.3119699076957
 20
615.6294960977297
 10
385.9348536953017
 20
615.2125171859711
 10
386.6593976308154
 20
614.7981228542446
 10
387.3865261463608
 20
614.3837285225177
 10
388.1136546619064
 20
613.9667496107595
 10
388.8407831774517
 20
613.5523552790328
 10
389.5653271129657
 20
613.137960947306
 10
390.188210900572
 20
612.723566615579
 10
390.9153394161172
 20
612.202342975881
 10
391.6424679316628
 20
611.7879486441545
 10
392.3695964472082
 20
611.373554312428
 10
392.9924802348141
 20
610.8549152527614
 10
393.7170241703281
 20
610.4379363410035
 10
394.3399079579339
 20
609.9192972813368
 10
395.0670364734795
 20
609.5049029496101
 10
395.7941649890249
 20
608.9862638899437
 10
396.4170487766308
 20
608.5718695582167
 10
397.1415927121446
 20
608.0532304985506
 10
397.7644764997507
 20
607.6362515867924
 10
398.3873602873566
 20
607.1176125271263
 10
399.1144888029019
 20
606.5989734674596
 10
399.737372590508
 20
606.0803344077933
 10
400.4645011060532
 20
605.5616953481271
 10
401.0873848936594
 20
605.1447164363685
 10
401.7102686812654
 20
604.6260773767025
 10
402.333152468871
 20
604.1074383170362
 10
403.057696404385
 20
603.5887992573698
 10
403.680580191991
 20
603.0701601977032
 10
404.3034639795968
 20
602.5515211380368
 10
404.9263477672027
 20
602.0328820783706
 10
405.5492315548088
 20
601.4099982907648
 10
406.1721153424145
 20
600.8913592310984
 10
406.7949991300203
 20
600.3727201714321
 10
407.4178829176266
 20
599.8514965317345
 10
408.0407667052325
 20
599.2311973241601
 10
408.6636504928383
 20
598.7108352111392
 10
409.2865342804442
 20
598.1913346247958
 10
409.90941806805
 20
597.5684508371898
 10
410.5323018556559
 20
597.0498117775232
 10
411.1551856432619
 20
596.4269279899174
 10
411.6738247029284
 20
595.9082889302512
 10
412.2967084905338
 20
595.2854051426452
 10
412.91959227814
 20
594.7667660829788
 10
413.4382313378065
 20
594.1438822953728
 10
414.0611151254122
 20
593.6252432357066
 10
414.6839989130183
 20
593.0023594481008
 10
430.459413898982
 20
597.2583012334025
 10
429.9407748393159
 20
597.985429748948
 10
429.3178910517097
 20
598.8142184124015
 10
428.5907625361645
 20
599.5413469279472
 10
427.9678787485583
 20
600.3727201714321
 10
427.3449949609525
 20
601.0972641069458
 10
426.7221111733463
 20
601.8243926224916
 10
426.0992273857405
 20
602.6557658659767
 10
425.372098870195
 20
603.3803098014905
 10
424.7517996626207
 20
604.1074383170362
 10
424.0246711470756
 20
604.8345668325814
 10
423.4017873594694
 20
605.5616953481271
 10
422.6746588439241
 20
606.2888238636726
 10
422.0517750563179
 20
607.0133677991864
 10
421.3246465407725
 20
607.7404963147321
 10
420.7026242798437
 20
608.4676248302776
 10
419.9772188176528
 20
609.194753345823
 10
419.2500903021072
 20
609.9192972813368
 10
418.5229617865615
 20
610.5421810689427
 10
417.7958332710162
 20
611.2693095844881
 10
417.0712893355023
 20
611.9964381000338
 10
416.3441608199567
 20
612.6193218876395
 10
415.6170323044113
 20
613.3464504031851
 10
414.8899037888654
 20
613.9667496107595
 10
414.1653598533519
 20
614.6938781263047
 10
413.4382313378065
 20
615.3167619139107
 10
412.7111028222607
 20
616.0438904294562
 10
411.9839743067156
 20
616.6667742170623
 10
411.1551856432619
 20
617.2896580046681
 10
410.4280571277162
 20
617.9125417922739
 10
409.7009286121709
 20
618.5354255798797
 10
408.8721399487173
 20
619.259969515394
 10
408.1450114331718
 20
619.8837148296773
 10
407.3136381896868
 20
620.5057370906056
 10
406.5865096741413
 20
621.1286208782117
 10
405.7577210106879
 20
621.6481214645551
 10
405.0305924951424
 20
622.2701437254839
 10
404.1992192516572
 20
622.8930275130899
 10
403.3704305882038
 20
623.5159113006957
 10
402.5390573447189
 20
624.0345503603621
 10
401.8145134092048
 20
624.6574341479681
 10
400.9831401657197
 20
625.280317935574
 10
400.1517669222348
 20
625.7989569952403
 10
399.3229782587814
 20
626.4218407828459
 10
398.4916050152961
 20
626.9413413691895
 10
397.6628163518427
 20
627.4617034822101
 10
396.8314431083574
 20
628.0820026897845
 10
396.0000698648726
 20
628.6032263294823
 10
395.1712812014189
 20
629.1218653891487
 10
394.3399079579339
 20
629.6405044488156
 10
393.5111192944806
 20
630.1591435084815
 10
392.5755013230557
 20
630.6777825681479
 10
391.7467126596024
 20
631.196421627814
 10
390.9153394161172
 20
631.7150606874807
 10
390.0839661726322
 20
632.2345612738242
 10
389.1509327812388
 20
632.6506786589052
 10
388.3195595377539
 20
633.1693177185713
 10
387.3865261463608
 20
633.6879567782379
 10
386.5551529028761
 20
634.1023511099645
 10
385.7263642394224
 20
634.6209901696306
 10
384.7907462679977
 20
635.0379690813893
 10
383.9619576045442
 20
635.5566081410557
 10
383.0263396331194
 20
635.9710024727823
 10
382.0933062417267
 20
636.3853968045093
 10
381.2619329982413
 20
636.9040358641752
 10
380.3288996068483
 20
637.3210147759339
 10
379.3958662154553
 20
637.7354091076606
 10
378.5644929719701
 20
638.1498034393871
 10
377.6314595805771
 20
638.5667823511457
 10
376.6958416091524
 20
638.9811766828723
 10
375.7628082177594
 20
639.3955710145992
 10
374.9314349742744
 20
639.7083051984179
 10
373.9984015828814
 20
640.1226995301442
 10
373.0627836114565
 20
640.5370938618714
 10
372.1297502200635
 20
640.8498280456901
 10
371.1967168286704
 20
641.2642223774168
 10
370.2610988572459
 20
641.5769565612357
 10
369.3280654658526
 20
641.9913508929621
 10
368.3924474944279
 20
642.3015004967494
 10
367.459414103035
 20
642.6142346805682
 10
366.5263807116418
 20
643.0286290122949
 10
365.590762740217
 20
643.3413631961136
 10
364.6577293488241
 20
643.6515127999009
 10
363.7221113773996
 20
643.9616624036879
 10
362.7890779860063
 20
644.2743965875068
 10
361.8534600145816
 20
644.585407717971
 10
360.816181895249
 20
644.8972803751125
 10
359.883148503856
 20
645.1057698309918
 10
358.9475305324313
 20
645.4159194347791
 10
358.0144971410381
 20
645.7260690385663
 10
356.9772190217056
 20
645.9345584944453
 10
356.041601050281
 20
646.2472926782643
 10
355.1085676588878
 20
646.4531975541115
 10
354.1755342674949
 20
646.7659317379305
 10
353.1356715681305
 20
646.9718366137776
 10
352.2026381767376
 20
647.1803260696572
 10
351.2670202053127
 20
647.3888155255362
 10
350.2297420859802
 20
647.6989651293235
 10
349.2967086945869
 20
647.9074545852029
 10
348.2594305752545
 20
648.1142209877275
 10
347.3238126038297
 20
648.21760418899
 10
346.3907792124367
 20
648.4260936448688
 10
345.3535010931038
 20
648.6345831007481
 10
344.4178831216794
 20
648.8404879765957
 10
343.3806050023469
 20
648.9447327045352
 10
342.4449870309221
 20
649.1532221604143
 10
341.4077089115893
 20
649.3591270362619
 10
340.4746755201964
 20
649.4633717642016
 10
339.4373974008638
 20
649.5676164921414
 10
338.5017794294391
 20
649.7761059480203
 10
337.4645013101065
 20
649.8786276226056
 10
336.5314679187133
 20
649.9820108238678
 10
335.4916052193491
 20
650.0862555518074
 10
334.558571827956
 20
650.1905002797471
 10
333.5212937086234
 20
650.2947450076865
 10
332.5856757371988
 20
650.3989897356261
 10
331.548397617866
 20
650.5006498835341
 10
330.5111194985333
 20
650.6048946114735
 10
329.5755015271088
 20
650.7091393394135
 10
328.538223407776
 20
650.7091393394135
 10
327.605190016383
 20
650.8133840673528
 10
326.565327317019
 20
650.8133840673528
 10
325.6322939256257
 20
650.9176287952928
 10
324.5950158062931
 20
650.9176287952928
 10
323.5577376869605
 20
650.9176287952928
 10
322.6221197155358
 20
651.0192889432005
 10
321.5848415962032
 20
651.0192889432005
 10
320.6518082048098
 20
651.0192889432005
 10
319.6119455054458
 20
651.0192889432005
 10
318.574667386113
 20
651.0192889432005
 10
317.6416339947201
 20
651.0192889432005
 10
316.6017712953559
 20
651.0192889432005
 10
315.6687379039627
 20
650.9176287952928
 10
314.6314597846301
 20
650.9176287952928
 10
313.5941816652972
 20
650.9176287952928
 10
312.6585636938727
 20
650.8133840673528
 10
311.7255303024796
 20
650.8133840673528
 10
310.7899123310551
 20
650.7091393394135
 10
309.7526342117222
 20
650.7091393394135
 10
308.7153560923896
 20
650.6048946114735
 10
307.7797381209649
 20
650.5006498835341
 10
306.7424600016323
 20
650.3989897356261
 10
305.8094266102391
 20
650.2947450076865
 10
304.7721484909067
 20
650.1905002797471
 10
303.836530519482
 20
650.0862555518074
 10
302.7992524001492
 20
649.9820108238678
 10
301.8636344287245
 20
649.8786276226056
 10
300.8263563093921
 20
649.7761059480203
 10
299.893322917999
 20
649.5676164921414
 10
298.8560447986663
 20
649.4633717642016
 10
297.9204268272418
 20
649.3591270362619
 10
296.883148707909
 20
649.1532221604143
 10
295.9501153165159
 20
648.9447327045352
 10
294.9102526171518
 20
648.8404879765957
 10
293.9772192257587
 20
648.6345831007481
 10
292.939941106426
 20
648.4260936448688
 10
292.0043231350013
 20
648.21760418899
 10
290.9670450156686
 20
648.1142209877275
 10
290.0340116242754
 20
647.9074545852029
 10
289.0983936528509
 20
647.6989651293235
 10
288.0611155335182
 20
647.3888155255362
 10
287.1280821421251
 20
647.1803260696572
 10
286.1924641707002
 20
646.9718366137776
 10
285.1551860513678
 20
646.7659317379305
 10
284.2195680799433
 20
646.4531975541115
 10
283.2865346885503
 20
646.2472926782643
 10
282.2492565692175
 20
645.9345584944453
 10
281.3136385977929
 20
645.7260690385663
 10
280.3806052063996
 20
645.4159194347791
 10
279.4475718150067
 20
645.1057698309918
 10
278.5119538435819
 20
644.8972803751125
 10
277.4746757242494
 20
644.585407717971
 10
276.5416423328562
 20
644.2743965875068
 10
275.6060243614315
 20
643.9616624036879
 10
274.6729909700385
 20
643.6515127999009
 10
273.7373729986139
 20
643.3413631961136
 10
272.8043396072208
 20
643.0286290122949
 10
271.8687216357959
 20
642.6142346805682
 10
270.9356882444031
 20
642.3015004967494
 10
270.00265485301
 20
641.9913508929621
 10
269.0670368815852
 20
641.5769565612357
 10
268.1340034901922
 20
641.2642223774168
 10
267.1983855187676
 20
640.8498280456901
 10
266.2653521273743
 20
640.5370938618714
 10
265.3323187359815
 20
640.1226995301442
 10
264.3967007645569
 20
639.7083051984179
 10
263.5679121011032
 20
639.3955710145992
 10
262.6322941296787
 20
638.9811766828723
 10
261.6992607382854
 20
638.5667823511457
 10
260.7636427668609
 20
638.1498034393871
 10
259.9348541034072
 20
637.7354091076606
 10
258.9992361319826
 20
637.3210147759339
 10
258.0662027405897
 20
636.9040358641752
 10
257.2348294971046
 20
636.3853968045093
 10
256.3017961057113
 20
635.9710024727823
 10
255.3687627143185
 20
635.5566081410557
 10
254.5373894708334
 20
635.0379690813893
 10
253.6043560794403
 20
634.6209901696306
 10
252.7729828359551
 20
634.1023511099645
 10
251.839949444562
 20
633.6879567782379
 10
251.0085762010771
 20
633.1693177185713
 10
250.1772029575921
 20
632.6506786589052
 10
249.2441695661989
 20
632.2345612738242
 10
248.4127963227138
 20
631.7150606874807
 10
247.5840076592604
 20
631.196421627814
 10
246.7526344157753
 20
630.6777825681479
 10
245.8196010243822
 20
630.1591435084815
 10
244.9882277808971
 20
629.6405044488156
 10
244.1594391174437
 20
629.1218653891487
 10
243.3280658739584
 20
628.6032263294823
 10
242.4966926304735
 20
628.0820026897845
 10
241.6679039670198
 20
627.4617034822101
 10
240.8365307235349
 20
626.9413413691895
 10
240.0077420600813
 20
626.4218407828459
 10
239.1763688165962
 20
625.7989569952403
 10
238.3449955731113
 20
625.280317935574
 10
237.5162069096577
 20
624.6574341479681
 10
236.7890783941123
 20
624.0345503603621
 10
235.9602897306587
 20
623.5159113006957
 10
235.1289164871738
 20
622.8930275130899
 10
234.2975432436886
 20
622.2701437254839
 10
233.5729993081748
 20
621.6481214645551
 10
232.7416260646897
 20
621.1286208782117
 10
232.014497549144
 20
620.5057370906056
 10
231.1857088856906
 20
619.8837148296773
 10
230.4585803701452
 20
619.259969515394
 10
229.6272071266602
 20
618.5354255798797
 10
228.9026631911461
 20
617.9125417922739
 10
228.1755346756009
 20
617.2896580046681
 10
227.3441614321157
 20
616.6667742170623
 10
226.6170329165702
 20
616.0438904294562
 10
225.8924889810562
 20
615.3167619139107
 10
225.1653604655108
 20
614.6938781263047
 10
224.4382319499653
 20
613.9667496107595
 10
223.7111034344197
 20
613.3464504031851
 10
222.8823147709663
 20
612.6193218876395
 10
222.2594309833602
 20
611.9964381000338
 10
221.5323024678149
 20
611.2693095844881
 10
220.8051739522694
 20
610.5421810689427
 10
220.0806300167553
 20
609.9192972813368
 10
219.3535015012099
 20
609.194753345823
 10
218.6263729856646
 20
608.4676248302776
 10
218.0034891980586
 20
607.7404963147321
 10
217.2763606825133
 20
607.0133677991864
 10
216.5518167469991
 20
606.2888238636726
 10
215.9289329593932
 20
605.5616953481271
 10
215.2018044438478
 20
604.8345668325814
 10
214.5789206562419
 20
604.1074383170362
 10
213.956036868636
 20
603.3803098014905
 10
213.2289083530904
 20
602.5515211380368
 10
212.6060245654846
 20
601.8243926224916
 10
211.9831407778786
 20
601.0972641069458
 10
211.3602569902727
 20
600.3727201714321
 10
210.6357130547586
 20
599.5413469279472
 10
210.0128292671529
 20
598.8142184124015
 10
209.389945479547
 20
597.985429748948
 10
208.8713064198806
 20
597.2583012334025
 97
        0
 75
     2
 76
     1
 98
        1
 10
-490.6650942353516
 20
-346.1806093667411
  0
HATCH
  5
2A
330
A
100
AcDbEntity
  8
A-001_Pan
100
AcDbHatch
 10
0.0
 20
0.0
 30
0.0
210
0.0
220
0.0
230
1.0
  2
SOLID
 70
     1
 71
     0
 91
        1
 92
        1
 93
        1
 72
     4
 94
        3
 73
     0
 74
     0
 95
       35
 96
       31
 40
0.0
 40
0.0
 40
0.0
 40
0.0
 40
1.0
 40
1.0
 40
1.0
 40
2.0
 40
2.0
 40
2.0
 40
3.0
 40
3.0
 40
3.0
 40
4.0
 40
4.0
 40
4.0
 40
5.0
 40
5.0
 40
5.0
 40
6.0
 40
6.0
 40
6.0
 40
7.0
 40
7.0
 40
7.0
 40
8.0
 40
8.0
 40
8.0
 40
9.0
 40
9.0
 40
9.0
 40
10.0
 40
10.0
 40
10.0
 40
10.0
 10
224.6467214058444
 20
593.0023594481008
 10
249.6516716845083
 20
618.5388716865887
 10
283.9292335897313
 20
632.9608282626923
 10
319.6119455054458
 20
632.9608282626923
 10
319.6119455054458
 20
632.9608282626923
 10
319.6119455054458
 20
632.9608282626923
 10
319.6119455054458
 20
632.9608282626923
 10
355.3644410820122
 20
632.9608282626923
 10
389.6764640543228
 20
618.5388716865887
 10
414.6839989130183
 20
593.0023594481008
 10
414.6839989130183
 20
593.0023594481008
 10
414.6839989130183
 20
593.0023594481008
 10
414.6839989130183
 20
593.0023594481008
 10
414.6839989130183
 20
593.0023594481008
 10
430.459413898982
 20
597.2583012334025
 10
430.459413898982
 20
597.2583012334025
 10
403.7339948459766
 20
631.1895294143966
 10
362.8459387467008
 20
651.0192889432005
 10
319.6119455054458
 20
651.0192889432005
 10
319.6119455054458
 20
651.0192889432005
 10
319.6119455054458
 20
651.0192889432005
 10
319.6119455054458
 20
651.0192889432005
 10
276.4460128716885
 20
651.0192889432005
 10
235.5967254728859
 20
631.1895294143966
 10
208.8713064198806
 20
597.2583012334025
 10
208.8713064198806
 20
597.2583012334025
 10
208.8713064198806
 20
597.2583012334025
 10
208.8713064198806
 20
597.2583012334025
 10
208.8713064198806
 20
597.2583012334025
 10
224.6467214058444
 20
593.0023594481008
 10
224.6467214058444
 20
593.0023594481008
 97
        0
 75
     2
 76
     1
 98
        1
 10
-490.6650942353516
 20
-346.1806093667411
  0
SPLINE
  5
29
330
A
100
AcDbEntity
  8
A-001_Pan
100
AcDbSpline
210
0.0
220
0.0
230
1.0
 70
     9
 71
     3
 72
    35
 73
    31
 74
     0
 42
0.0000000001
 43
0.0000000001
 40
0.0
 40
0.0
 40
0.0
 40
0.0
 40
1.0
 40
1.0
 40
1.0
 40
2.0
 40
2.0
 40
2.0
 40
3.0
 40
3.0
 40
3.0
 40
4.0
 40
4.0
 40
4.0
 40
5.0
 40
5.0
 40
5.0
 40
6.0
 40
6.0
 40
6.0
 40
7.0
 40
7.0
 40
7.0
 40
8.0
 40
8.0
 40
8.0
 40
9.0
 40
9.0
 40
9.0
 40
10.0
 40
10.0
 40
10.0
 40
10.0
 10
224.6467214058444
 20
593.0023594481008
 30
0.0
 10
249.6516716845083
 20
618.5388716865887
 30
0.0
 10
283.9292335897313
 20
632.9608282626923
 30
0.0
 10
319.6119455054458
 20
632.9608282626923
 30
0.0
 10
319.6119455054458
 20
632.9608282626923
 30
0.0
 10
319.6119455054458
 20
632.9608282626923
 30
0.0
 10
319.6119455054458
 20
632.9608282626923
 30
0.0
 10
355.3644410820122
 20
632.9608282626923
 30
0.0
 10
389.6764640543228
 20
618.5388716865887
 30
0.0
 10
414.6839989130183
 20
593.0023594481008
 30
0.0
 10
414.6839989130183
 20
593.0023594481008
 30
0.0
 10
414.6839989130183
 20
593.0023594481008
 30
0.0
 10
414.6839989130183
 20
593.0023594481008
 30
0.0
 10
414.6839989130183
 20
593.0023594481008
 30
0.0
 10
430.459413898982
 20
597.2583012334025
 30
0.0
 10
430.459413898982
 20
597.2583012334025
 30
0.0
 10
403.7339948459766
 20
631.1895294143966
 30
0.0
 10
362.8459387467008
 20
651.0192889432005
 30
0.0
 10
319.6119455054458
 20
651.0192889432005
 30
0.0
 10
319.6119455054458
 20
651.0192889432005
 30
0.0
 10
319.6119455054458
 20
651.0192889432005
 30
0.0
 10
319.6119455054458
 20
651.0192889432005
 30
0.0
 10
276.4460128716885
 20
651.0192889432005
 30
0.0
 10
235.5967254728859
 20
631.1895294143966
 30
0.0
 10
208.8713064198806
 20
597.2583012334025
 30
0.0
 10
208.8713064198806
 20
597.2583012334025
 30
0.0
 10
208.8713064198806
 20
597.2583012334025
 30
0.0
 10
208.8713064198806
 20
597.2583012334025
 30
0.0
 10
208.8713064198806
 20
597.2583012334025
 30
0.0
 10
224.6467214058444
 20
593.0023594481008
 30
0.0
 10
224.6467214058444
 20
593.0023594481008
 30
0.0
  0
TEXT
  5
2EB
330
A
100
AcDbEntity
  8
A-043_Txt025
370
     0
100
AcDbText
 10
192.6789106509502
 20
51.49648222849629
 30
0.0
 40
20.0
  1
P000 3100
  7
helvetica regular
100
AcDbText
  0
DIMENSION
  5
302
330
A
100
AcDbEntity
  8
A-031_DimExt
370
     0
100
AcDbDimension
  2
*D24
 10
580.6398827394723
 20
51.49648222849628
 30
0.0
 11
523.8901485796206
 21
51.49648222849628
 31
0.0
 70
   160
 71
     5
 42
17.9542159525688
  3
DIMEXT
100
AcDbAlignedDimension
 13
562.6856667869035
 23
165.0645071452871
 33
0.0
 14
580.6398827394723
 24
165.0645071454995
 34
0.0
100
AcDbRotatedDimension
  0
DIMENSION
  5
321
330
A
100
AcDbEntity
  8
A-031_DimExt
370
     0
100
AcDbDimension
  2
*D25
 10
152.6789106509503
 20
464.5134099999999
 30
0.0
 11
137.5108434240595
 21
289.5257117579656
 31
0.0
 70
    32
 71
     5
 42
349.9753964840688
  3
DIMEXT
100
AcDbAlignedDimension
 13
221.946698965976
 23
114.5380135159312
 33
0.0
 14
225.5797550468769
 24
464.5134099999999
 34
0.0
 50
90.0
100
AcDbRotatedDimension
  0
DIMENSION
  5
32C
330
A
100
AcDbEntity
  8
A-031_DimExt
370
     0
100
AcDbDimension
  2
*D26
 10
112.6789106509503
 20
464.5134099999999
 30
0.0
 11
97.51084342405949
 21
275.5134102550662
 31
0.0
 70
    32
 71
     5
 42
377.9999994898677
  3
DIMEXT
100
AcDbAlignedDimension
 13
319.9246796892645
 23
86.51341051013231
 33
0.0
 14
225.5797550468769
 24
464.5134099999999
 34
0.0
 50
90.0
100
AcDbRotatedDimension
  0
DIMENSION
  5
34A
330
A
100
AcDbEntity
  8
A-031_DimExt
370
     0
100
AcDbDimension
  2
*D28
 10
224.6467212582321
 20
553.0023594481008
 30
0.0
 11
319.6653609474231
 21
568.1704266749916
 31
0.0
 70
    32
 71
     5
 42
190.0372793783819
  3
DIMEXT
100
AcDbAlignedDimension
 13
414.684000636614
 23
560.0140232040797
 33
0.0
 14
224.6467212582321
 24
560.0140232040796
 34
0.0
100
AcDbRotatedDimension
  0
DIMENSION
  5
355
330
A
100
AcDbEntity
  8
A-031_DimExt
370
     0
100
AcDbDimension
  2
*D29
 10
192.6789125221587
 20
513.0023594481008
 30
0.0
 11
319.6640678694154
 21
528.1704266749916
 31
0.0
 70
    32
 71
     5
 42
253.9703106945135
  3
DIMEXT
100
AcDbAlignedDimension
 13
446.6492232166721
 23
601.6159031666123
 33
0.0
 14
192.6789125221587
 24
601.6159031666123
 34
0.0
100
AcDbRotatedDimension
  0
DIMENSION
  5
360
330
A
100
AcDbEntity
  8
A-031_DimExt
370
     0
100
AcDbDimension
  2
*D30
 10
602.644135601495
 20
513.0023594481008
 30
0.0
 11
562.6335448766259
 21
528.1704266749916
 31
0.0
 70
    32
 71
     5
 42
80.02118144973815
  3
DIMEXT
100
AcDbAlignedDimension
 13
522.6229541517568
 23
464.5134099999999
 33
0.0
 14
602.644135601495
 24
443.4050273061214
 34
0.0
100
AcDbRotatedDimension
  0
ENDSEC
  0
SECTION
  2
OBJECTS
  0
DICTIONARY
  5
19
330
0
100
AcDbDictionary
281
     1
  3
ACAD_2007HEADERVARS_RT
350
392
  3
ACAD_COLOR
350
298
  3
ACAD_GROUP
350
1A
  3
ACAD_LAYOUT
350
1E
  3
ACAD_MATERIAL
350
26E
  3
ACAD_MLEADERSTYLE
350
2B1
  3
ACAD_MLINESTYLE
350
1B
  3
ACAD_PLOTSETTINGS
350
22
  3
ACAD_PLOTSTYLENAME
350
1F
  3
ACAD_SCALELIST
350
29B
  3
ACAD_TABLESTYLE
350
299
  3
ACAD_VISUALSTYLE
350
287
  3
ACAD_WIPEOUT_VARS
350
23
  3
ACDB_RECOMPOSE_DATA
350
390
  3
AcDbVariableDictionary
350
387
  3
AEC_LAYERKEY_STYLES
350
36D
  3
AEC_PROPERTY_SET_DEFS
350
2E7
  3
AEC_VARS
350
36B
  3
DWGPROPS
350
391
  0
DICTIONARY
  5
2DE
330
2
100
AcDbDictionary
280
     1
281
     1
  3
ACAD_LAYERFILTERS
360
36F
  3
ACAD_LAYERSTATES
360
2DF
  3
ACLYDICTIONARY
360
36E
  0
DICTIONARY
  5
370
330
14
100
AcDbDictionary
280
     1
281
     1
  3
ADSK_XREC_LAYER_RECONCILED
360
371
  0
DICTIONARY
  5
2D2
330
2D1
100
AcDbDictionary
280
     1
281
     1
  3
ADSK_XREC_LAYER_RECONCILED
360
372
  0
DICTIONARY
  5
2D4
330
2D3
100
AcDbDictionary
280
     1
281
     1
  3
ADSK_XREC_LAYER_RECONCILED
360
373
  0
DICTIONARY
  5
2D6
330
2D5
100
AcDbDictionary
280
     1
281
     1
  3
ADSK_XREC_LAYER_RECONCILED
360
374
  0
DICTIONARY
  5
39E
330
2B9
100
AcDbDictionary
280
     1
281
     1
  3
AcDbBlockTableRecordData
360
39F
  0
DICTIONARY
  5
3A1
330
2C0
100
AcDbDictionary
280
     1
281
     1
  3
AcDbBlockTableRecordData
360
3A2
  0
DICTIONARY
  5
392
102
{ACAD_REACTORS
330
19
102
}
330
19
100
AcDbDictionary
281
     1
  3
DIMFXL
350
393
  3
DIMJOGANG
350
394
  0
DICTIONARY
  5
298
102
{ACAD_REACTORS
330
19
102
}
330
19
100
AcDbDictionary
281
     1
  0
DICTIONARY
  5
1A
102
{ACAD_REACTORS
330
19
102
}
330
19
100
AcDbDictionary
281
     1
  0
DICTIONARY
  5
1E
102
{ACAD_REACTORS
330
19
102
}
330
19
100
AcDbDictionary
281
     1
  3
Layout1
350
21
  3
Model
350
20
  0
DICTIONARY
  5
26E
102
{ACAD_REACTORS
330
19
102
}
330
19
100
AcDbDictionary
281
     1
  3
ByBlock
350
277
  3
ByLayer
350
26F
  3
Global
350
27F
  0
DICTIONARY
  5
2B1
102
{ACAD_REACTORS
330
19
102
}
330
19
100
AcDbDictionary
281
     1
  3
Standard
350
2B2
  0
DICTIONARY
  5
1B
102
{ACAD_REACTORS
330
19
102
}
330
19
100
AcDbDictionary
281
     1
  3
Standard
350
1C
  0
DICTIONARY
  5
22
102
{ACAD_REACTORS
330
19
102
}
330
19
100
AcDbDictionary
281
     1
  0
ACDBDICTIONARYWDFLT
  5
1F
102
{ACAD_REACTORS
330
19
102
}
330
19
100
AcDbDictionary
281
     1
  3
Normal
350
1D
100
AcDbDictionaryWithDefault
340
1D
  0
DICTIONARY
  5
29B
102
{ACAD_REACTORS
330
19
102
}
330
19
100
AcDbDictionary
281
     1
  3
A0
350
29C
  3
A1
350
29D
  3
A2
350
29E
  3
A3
350
29F
  3
A4
350
2A0
  3
A5
350
2A1
  3
A6
350
2A2
  3
A7
350
2A3
  3
A8
350
2A4
  3
A9
350
2A5
  3
B0
350
2A6
  3
B1
350
2A7
  3
B2
350
2A8
  3
B3
350
2A9
  3
B4
350
2AA
  3
B5
350
2AB
  3
B6
350
2AC
  3
B7
350
2AD
  3
B8
350
2AE
  3
B9
350
2AF
  3
C0
350
2B0
  0
DICTIONARY
  5
299
102
{ACAD_REACTORS
330
19
102
}
330
19
100
AcDbDictionary
281
     1
  3
Standard
350
29A
  0
DICTIONARY
  5
287
102
{ACAD_REACTORS
330
19
102
}
330
19
100
AcDbDictionary
281
     1
  3
2dWireframe
350
28D
  3
3D Hidden
350
28F
  3
3dWireframe
350
28E
  3
Basic
350
28C
  3
Brighten
350
293
  3
ColorChange
350
297
  3
Conceptual
350
290
  3
Dim
350
292
  3
Facepattern
350
296
  3
Flat
350
288
  3
FlatWithEdges
350
289
  3
Gouraud
350
28A
  3
GouraudWithEdges
350
28B
  3
Linepattern
350
295
  3
Realistic
350
291
  3
Thicken
350
294
  0
WIPEOUTVARIABLES
  5
23
330
19
100
AcDbWipeoutVariables
 70
     1
  0
XRECORD
  5
390
102
{ACAD_REACTORS
330
19
102
}
330
19
100
AcDbXrecord
280
     1
 90
        1
330
29A
  0
DICTIONARY
  5
387
102
{ACAD_REACTORS
330
19
102
}
330
19
100
AcDbDictionary
281
     1
  3
CANNOSCALE
350
38A
  3
CMLEADERSTYLE
350
389
  3
CTABLESTYLE
350
388
  3
DIMASSOC
350
38D
  3
INDEXCTL
350
38C
  3
SORTENTS
350
38B
  0
DICTIONARY
  5
36D
102
{ACAD_REACTORS
330
19
102
}
330
19
100
AcDbDictionary
281
     1
  0
DICTIONARY
  5
2E7
102
{ACAD_REACTORS
330
19
102
}
330
19
100
AcDbDictionary
281
     1
  0
DICTIONARY
  5
36B
102
{ACAD_REACTORS
330
19
102
}
330
19
100
AcDbDictionary
281
     1
  3
AEC_VARS_DWG_SETUP
350
36C
  0
XRECORD
  5
391
102
{ACAD_REACTORS
330
19
102
}
330
19
100
AcDbXrecord
280
     1
  1
DWGPROPS COOKIE
  2

  3

  4

  6

  7

  8
Admin
  9

300
=
301
=
302
=
303
=
304
=
305
=
306
=
307
=
308
=
309
=
 40
0.0035237615740741
 41
2454497.439602315
 42
2454497.443124815
  1

 90
        0
  0
DICTIONARY
  5
36F
102
{ACAD_REACTORS
330
2DE
102
}
330
2DE
100
AcDbDictionary
281
     1
  0
DICTIONARY
  5
2DF
102
{ACAD_REACTORS
330
2DE
102
}
330
2DE
100
AcDbDictionary
281
     1
  0
DICTIONARY
  5
36E
102
{ACAD_REACTORS
330
2DE
102
}
330
2DE
100
AcDbDictionary
281
     1
1001
ACAD
1000
<All
  0
XRECORD
  5
371
102
{ACAD_REACTORS
330
370
102
}
330
370
100
AcDbXrecord
280
     1
290
     1
  0
XRECORD
  5
372
102
{ACAD_REACTORS
330
2D2
102
}
330
2D2
100
AcDbXrecord
280
     1
290
     1
  0
XRECORD
  5
373
102
{ACAD_REACTORS
330
2D4
102
}
330
2D4
100
AcDbXrecord
280
     1
290
     1
  0
XRECORD
  5
374
102
{ACAD_REACTORS
330
2D6
102
}
330
2D6
100
AcDbXrecord
280
     1
290
     1
  0
DICTIONARY
  5
39F
102
{ACAD_REACTORS
330
39E
102
}
330
39E
100
AcDbDictionary
280
     1
281
     1
  3
Edit
360
3A0
  0
DICTIONARY
  5
3A2
102
{ACAD_REACTORS
330
3A1
102
}
330
3A1
100
AcDbDictionary
280
     1
281
     1
  3
Edit
360
3A3
  0
XRECORD
  5
393
102
{ACAD_REACTORS
330
392
102
}
330
392
100
AcDbXrecord
280
     1
 40
0.2
  0
XRECORD
  5
394
102
{ACAD_REACTORS
330
392
102
}
330
392
100
AcDbXrecord
280
     1
 40
1.570796326794896
  0
LAYOUT
  5
21
102
{ACAD_XDICTIONARY
360
397
102
}
102
{ACAD_REACTORS
330
1E
102
}
330
1E
100
AcDbPlotSettings
  1

  2

  4

  6

 40
0.0
 41
0.0
 42
0.0
 43
0.0
 44
0.0
 45
0.0
 46
0.0
 47
0.0
 48
0.0
 49
0.0
140
0.0
141
0.0
142
1.0
143
1.0
 70
     0
 72
     0
 73
     0
 74
     0
  7

 75
     0
147
1.0
148
0.0
149
0.0
100
AcDbLayout
  1
Layout1
 70
     0
 71
     1
 10
0.0
 20
0.0
 11
12.0
 21
9.0
 12
0.0
 22
0.0
 32
0.0
 14
1.000000000000000E+20
 24
1.000000000000000E+20
 34
1.000000000000000E+20
 15
-1.000000000000000E+20
 25
-1.000000000000000E+20
 35
-1.000000000000000E+20
146
0.0
 13
0.0
 23
0.0
 33
0.0
 16
1.0
 26
0.0
 36
0.0
 17
0.0
 27
1.0
 37
0.0
 76
     0
330
B
  0
LAYOUT
  5
20
102
{ACAD_XDICTIONARY
360
395
102
}
102
{ACAD_REACTORS
330
1E
102
}
330
1E
100
AcDbPlotSettings
  1

  2
HP LaserJet 1100
  4
A4
  6

 40
6.011333465576171
 41
4.233341693878173
 42
6.011322021484375
 43
4.23333740234375
 44
209.9733276367187
 45
296.9259948730469
 46
0.0
 47
0.0
 48
0.0
 49
0.0
140
0.0
141
0.0
142
1.0
143
1.0
 70
 11264
 72
     1
 73
     1
 74
     0
  7

 75
     0
147
1.0
148
135.4492577679598
149
-38.98894467503226
100
AcDbLayout
  1
Model
 70
     0
 71
     0
 10
0.0
 20
0.0
 11
0.0
 21
0.0
 12
0.0
 22
0.0
 32
0.0
 14
0.0
 24
0.0
 34
0.0
 15
0.0
 25
0.0
 35
0.0
146
0.0
 13
0.0
 23
0.0
 33
0.0
 16
0.0
 26
0.0
 36
0.0
 17
0.0
 27
0.0
 37
0.0
 76
     0
330
A
331
15
1001
ACAD_PSEXT
1000
HP LaserJet 1100
1000
HP LaserJet 1100
1000
LPT1:
1000

1070
     0
  0
MATERIAL
  5
277
102
{ACAD_XDICTIONARY
360
278
102
}
102
{ACAD_REACTORS
330
26E
102
}
330
26E
100
AcDbMaterial
  1
ByBlock
 72
     0
 43
0.0208333333333333
 43
0.0
 43
0.0
 43
0.0
 43
0.0
 43
0.0208333333333333
 43
0.0
 43
0.0
 43
0.0
 43
0.0
 43
1.0
 43
0.0
 43
0.0
 43
0.0
 43
0.0
 43
1.0
 77
     0
 47
0.0208333333333333
 47
0.0
 47
0.0
 47
0.0
 47
0.0
 47
0.0208333333333333
 47
0.0
 47
0.0
 47
0.0
 47
0.0
 47
1.0
 47
0.0
 47
0.0
 47
0.0
 47
0.0
 47
1.0
171
     0
 49
0.0208333333333333
 49
0.0
 49
0.0
 49
0.0
 49
0.0
 49
0.0208333333333333
 49
0.0
 49
0.0
 49
0.0
 49
0.0
 49
1.0
 49
0.0
 49
0.0
 49
0.0
 49
0.0
 49
1.0
175
     0
142
0.0208333333333333
142
0.0
142
0.0
142
0.0
142
0.0
142
0.0208333333333333
142
0.0
142
0.0
142
0.0
142
0.0
142
1.0
142
0.0
142
0.0
142
0.0
142
0.0
142
1.0
179
     0
144
0.0208333333333333
144
0.0
144
0.0
144
0.0
144
0.0
144
0.0208333333333333
144
0.0
144
0.0
144
0.0
144
0.0
144
1.0
144
0.0
144
0.0
144
0.0
144
0.0
144
1.0
147
0.0208333333333333
147
0.0
147
0.0
147
0.0
147
0.0
147
0.0208333333333333
147
0.0
147
0.0
147
0.0
147
0.0
147
1.0
147
0.0
147
0.0
147
0.0
147
0.0
147
1.0
  0
MATERIAL
  5
26F
102
{ACAD_XDICTIONARY
360
270
102
}
102
{ACAD_REACTORS
330
26E
102
}
330
26E
100
AcDbMaterial
  1
ByLayer
 72
     0
 43
0.0208333333333333
 43
0.0
 43
0.0
 43
0.0
 43
0.0
 43
0.0208333333333333
 43
0.0
 43
0.0
 43
0.0
 43
0.0
 43
1.0
 43
0.0
 43
0.0
 43
0.0
 43
0.0
 43
1.0
 77
     0
 47
0.0208333333333333
 47
0.0
 47
0.0
 47
0.0
 47
0.0
 47
0.0208333333333333
 47
0.0
 47
0.0
 47
0.0
 47
0.0
 47
1.0
 47
0.0
 47
0.0
 47
0.0
 47
0.0
 47
1.0
171
     0
 49
0.0208333333333333
 49
0.0
 49
0.0
 49
0.0
 49
0.0
 49
0.0208333333333333
 49
0.0
 49
0.0
 49
0.0
 49
0.0
 49
1.0
 49
0.0
 49
0.0
 49
0.0
 49
0.0
 49
1.0
175
     0
142
0.0208333333333333
142
0.0
142
0.0
142
0.0
142
0.0
142
0.0208333333333333
142
0.0
142
0.0
142
0.0
142
0.0
142
1.0
142
0.0
142
0.0
142
0.0
142
0.0
142
1.0
179
     0
144
0.0208333333333333
144
0.0
144
0.0
144
0.0
144
0.0
144
0.0208333333333333
144
0.0
144
0.0
144
0.0
144
0.0
144
1.0
144
0.0
144
0.0
144
0.0
144
0.0
144
1.0
147
0.0208333333333333
147
0.0
147
0.0
147
0.0
147
0.0
147
0.0208333333333333
147
0.0
147
0.0
147
0.0
147
0.0
147
1.0
147
0.0
147
0.0
147
0.0
147
0.0
147
1.0
  0
MATERIAL
  5
27F
102
{ACAD_XDICTIONARY
360
280
102
}
102
{ACAD_REACTORS
330
26E
102
}
330
26E
100
AcDbMaterial
  1
Global
 72
     0
 43
0.0208333333333333
 43
0.0
 43
0.0
 43
0.0
 43
0.0
 43
0.0208333333333333
 43
0.0
 43
0.0
 43
0.0
 43
0.0
 43
1.0
 43
0.0
 43
0.0
 43
0.0
 43
0.0
 43
1.0
 77
     0
 47
0.0208333333333333
 47
0.0
 47
0.0
 47
0.0
 47
0.0
 47
0.0208333333333333
 47
0.0
 47
0.0
 47
0.0
 47
0.0
 47
1.0
 47
0.0
 47
0.0
 47
0.0
 47
0.0
 47
1.0
171
     0
 49
0.0208333333333333
 49
0.0
 49
0.0
 49
0.0
 49
0.0
 49
0.0208333333333333
 49
0.0
 49
0.0
 49
0.0
 49
0.0
 49
1.0
 49
0.0
 49
0.0
 49
0.0
 49
0.0
 49
1.0
175
     0
142
0.0208333333333333
142
0.0
142
0.0
142
0.0
142
0.0
142
0.0208333333333333
142
0.0
142
0.0
142
0.0
142
0.0
142
1.0
142
0.0
142
0.0
142
0.0
142
0.0
142
1.0
179
     0
144
0.0208333333333333
144
0.0
144
0.0
144
0.0
144
0.0
144
0.0208333333333333
144
0.0
144
0.0
144
0.0
144
0.0
144
1.0
144
0.0
144
0.0
144
0.0
144
0.0
144
1.0
147
0.0208333333333333
147
0.0
147
0.0
147
0.0
147
0.0
147
0.0208333333333333
147
0.0
147
0.0
147
0.0
147
0.0
147
1.0
147
0.0
147
0.0
147
0.0
147
0.0
147
1.0
  0
MLEADERSTYLE
  5
2B2
102
{ACAD_REACTORS
330
2B1
102
}
330
2B1
100
AcDbMLeaderStyle
170
     2
171
     1
172
     0
 90
        2
 40
0.0
 41
0.0
173
     1
 91
-1056964608
340
11
 92
       -2
290
     1
 42
2.0
291
     1
 43
0.36
  3
Standard
 44
4.0
300

342
17
174
     1
178
     6
175
     1
176
     0
 93
-1056964608
 45
4.0
292
     0
297
     0
 46
4.0
 94
-1056964608
 47
1.0
 49
1.0
140
1.0
293
     1
141
0.0
294
     1
177
     0
142
1.0
295
     0
296
     0
143
0.125
1001
ACAD_MLEADERVER
1070
     2
  0
MLINESTYLE
  5
1C
102
{ACAD_REACTORS
330
1B
102
}
330
1B
100
AcDbMlineStyle
  2
STANDARD
 70
     0
  3

 62
     0
 51
90.0
 52
90.0
 71
     2
 49
0.5
 62
   256
  6
BYLAYER
 49
-0.5
 62
   256
  6
BYLAYER
  0
ACDBPLACEHOLDER
  5
1D
102
{ACAD_REACTORS
330
1F
102
}
330
1F
  0
SCALE
  5
29C
102
{ACAD_REACTORS
330
29B
102
}
330
29B
100
AcDbScale
 70
     0
300
1:1
140
1.0
141
1.0
290
     1
  0
SCALE
  5
29D
102
{ACAD_REACTORS
330
29B
102
}
330
29B
100
AcDbScale
 70
     0
300
1:2
140
1.0
141
2.0
290
     0
  0
SCALE
  5
29E
102
{ACAD_REACTORS
330
29B
102
}
330
29B
100
AcDbScale
 70
     0
300
1:2.5
140
1.0
141
2.5
290
     0
  0
SCALE
  5
29F
102
{ACAD_REACTORS
330
29B
102
}
330
29B
100
AcDbScale
 70
     0
300
1:5
140
1.0
141
5.0
290
     0
  0
SCALE
  5
2A0
102
{ACAD_REACTORS
330
29B
102
}
330
29B
100
AcDbScale
 70
     0
300
1:7.5
140
1.0
141
7.5
290
     0
  0
SCALE
  5
2A1
102
{ACAD_REACTORS
330
29B
102
}
330
29B
100
AcDbScale
 70
     0
300
1:10
140
1.0
141
10.0
290
     0
  0
SCALE
  5
2A2
102
{ACAD_REACTORS
330
29B
102
}
330
29B
100
AcDbScale
 70
     0
300
1:20
140
1.0
141
20.0
290
     0
  0
SCALE
  5
2A3
102
{ACAD_REACTORS
330
29B
102
}
330
29B
100
AcDbScale
 70
     0
300
1:25
140
1.0
141
25.0
290
     0
  0
SCALE
  5
2A4
102
{ACAD_REACTORS
330
29B
102
}
330
29B
100
AcDbScale
 70
     0
300
1:50
140
1.0
141
50.0
290
     0
  0
SCALE
  5
2A5
102
{ACAD_REACTORS
330
29B
102
}
330
29B
100
AcDbScale
 70
     0
300
1:75
140
1.0
141
75.0
290
     0
  0
SCALE
  5
2A6
102
{ACAD_REACTORS
330
29B
102
}
330
29B
100
AcDbScale
 70
     0
300
1:100
140
1.0
141
100.0
290
     0
  0
SCALE
  5
2A7
102
{ACAD_REACTORS
330
29B
102
}
330
29B
100
AcDbScale
 70
     0
300
1:150
140
1.0
141
150.0
290
     0
  0
SCALE
  5
2A8
102
{ACAD_REACTORS
330
29B
102
}
330
29B
100
AcDbScale
 70
     0
300
1:200
140
1.0
141
200.0
290
     0
  0
SCALE
  5
2A9
102
{ACAD_REACTORS
330
29B
102
}
330
29B
100
AcDbScale
 70
     0
300
1:250
140
1.0
141
250.0
290
     0
  0
SCALE
  5
2AA
102
{ACAD_REACTORS
330
29B
102
}
330
29B
100
AcDbScale
 70
     0
300
1:500
140
1.0
141
500.0
290
     0
  0
SCALE
  5
2AB
102
{ACAD_REACTORS
330
29B
102
}
330
29B
100
AcDbScale
 70
     0
300
1:750
140
1.0
141
750.0
290
     0
  0
SCALE
  5
2AC
102
{ACAD_REACTORS
330
29B
102
}
330
29B
100
AcDbScale
 70
     0
300
1:1000
140
1.0
141
1000.0
290
     0
  0
SCALE
  5
2AD
102
{ACAD_REACTORS
330
29B
102
}
330
29B
100
AcDbScale
 70
     0
300
1:1250
140
1.0
141
1250.0
290
     0
  0
SCALE
  5
2AE
102
{ACAD_REACTORS
330
29B
102
}
330
29B
100
AcDbScale
 70
     0
300
1:2000
140
1.0
141
2000.0
290
     0
  0
SCALE
  5
2AF
102
{ACAD_REACTORS
330
29B
102
}
330
29B
100
AcDbScale
 70
     0
300
1:2500
140
1.0
141
2500.0
290
     0
  0
SCALE
  5
2B0
102
{ACAD_REACTORS
330
29B
102
}
330
29B
100
AcDbScale
 70
     0
300
1:5000
140
1.0
141
5000.0
290
     0
  0
TABLESTYLE
  5
29A
102
{ACAD_XDICTIONARY
360
38E
102
}
102
{ACAD_REACTORS
330
299
102
}
330
299
100
AcDbTableStyle
  3
Standard
 70
     0
 71
     0
 40
1.5
 41
1.5
280
     0
281
     0
  7
Standard
140
4.5
170
     2
 62
     0
 63
     7
283
     0
274
    -2
284
     1
 64
     0
275
    -2
285
     1
 65
     0
276
    -2
286
     1
 66
     0
277
    -2
287
     1
 67
     0
278
    -2
288
     1
 68
     0
279
    -2
289
     1
 69
     0
  7
Standard
140
6.0
170
     5
 62
     0
 63
     7
283
     0
274
    -2
284
     1
 64
     0
275
    -2
285
     1
 65
     0
276
    -2
286
     1
 66
     0
277
    -2
287
     1
 67
     0
278
    -2
288
     1
 68
     0
279
    -2
289
     1
 69
     0
  7
Standard
140
4.5
170
     5
 62
     0
 63
     7
283
     0
274
    -2
284
     1
 64
     0
275
    -2
285
     1
 65
     0
276
    -2
286
     1
 66
     0
277
    -2
287
     1
 67
     0
278
    -2
288
     1
 68
     0
279
    -2
289
     1
 69
     0
  0
VISUALSTYLE
  5
28D
102
{ACAD_REACTORS
330
287
102
}
330
287
100
AcDbVisualStyle
  2
2dWireframe
 70
     4
 71
     0
 72
     2
 73
     0
 90
        0
 40
-0.6
 41
-30.0
 62
     5
 63
     7
 74
     1
 91
        4
 64
     7
 65
   257
 75
     1
175
     1
 42
1.0
 92
        0
 66
   257
 43
1.0
 76
     1
 77
     6
 78
     2
 67
     7
 79
     5
170
     0
171
     0
290
     0
174
     0
 93
        1
 44
0.0
173
     0
291
     0
 45
0.0
1001
ACAD
1000
AcDbSavedByObjectVersion
1070
     0
  0
VISUALSTYLE
  5
28F
102
{ACAD_REACTORS
330
287
102
}
330
287
100
AcDbVisualStyle
  2
3D Hidden
 70
     6
 71
     1
 72
     2
 73
     2
 90
        0
 40
-0.6
 41
-30.0
 62
     5
 63
     7
 74
     2
 91
        2
 64
     7
 65
   257
 75
     2
175
     1
 42
40.0
 92
        0
 66
   257
 43
1.0
 76
     1
 77
     6
 78
     2
 67
     7
 79
     3
170
     0
171
     0
290
     0
174
     0
 93
        1
 44
0.0
173
     0
291
     0
 45
0.0
1001
ACAD
1000
AcDbSavedByObjectVersion
1070
     0
  0
VISUALSTYLE
  5
28E
102
{ACAD_REACTORS
330
287
102
}
330
287
100
AcDbVisualStyle
  2
3dWireframe
 70
     5
 71
     0
 72
     2
 73
     0
 90
        0
 40
-0.6
 41
-30.0
 62
     5
 63
     7
 74
     1
 91
        4
 64
     7
 65
   257
 75
     1
175
     1
 42
1.0
 92
        0
 66
   257
 43
1.0
 76
     1
 77
     6
 78
     2
 67
     7
 79
     5
170
     0
171
     0
290
     0
174
     0
 93
        1
 44
0.0
173
     0
291
     0
 45
0.0
1001
ACAD
1000
AcDbSavedByObjectVersion
1070
     0
  0
VISUALSTYLE
  5
28C
102
{ACAD_REACTORS
330
287
102
}
330
287
100
AcDbVisualStyle
  2
Basic
 70
     7
 71
     1
 72
     0
 73
     1
 90
        0
 40
-0.6
 41
-30.0
 62
     5
 63
     7
 74
     0
 91
        4
 64
     7
 65
   257
 75
     1
175
     1
 42
1.0
 92
        8
 66
     7
 43
1.0
 76
     1
 77
     6
 78
     2
 67
     7
 79
     5
170
     0
171
     0
290
     0
174
     0
 93
        1
 44
0.0
173
     0
291
     1
 45
0.0
1001
ACAD
1000
AcDbSavedByObjectVersion
1070
     0
  0
VISUALSTYLE
  5
293
102
{ACAD_REACTORS
330
287
102
}
330
287
100
AcDbVisualStyle
  2
Brighten
 70
    12
 71
     2
 72
     2
 73
     0
 90
        0
 40
-0.6
 41
-30.0
 62
     5
 63
     7
 74
     1
 91
        4
 64
     7
 65
   257
 75
     1
175
     1
 42
1.0
 92
        8
 66
     7
 43
1.0
 76
     1
 77
     6
 78
     2
 67
     7
 79
     5
170
     0
171
     0
290
     0
174
     0
 93
        1
 44
50.0
173
     0
291
     1
 45
0.0
1001
ACAD
1000
AcDbSavedByObjectVersion
1070
     0
  0
VISUALSTYLE
  5
297
102
{ACAD_REACTORS
330
287
102
}
330
287
100
AcDbVisualStyle
  2
ColorChange
 70
    16
 71
     2
 72
     2
 73
     3
 90
        0
 40
-0.6
 41
-30.0
 62
     5
 63
     8
 74
     1
 91
        4
 64
     7
 65
   257
 75
     1
175
     1
 42
1.0
 92
        8
 66
     8
 43
1.0
 76
     1
 77
     6
 78
     2
 67
     7
 79
     5
170
     0
171
     0
290
     0
174
     0
 93
        1
 44
0.0
173
     0
291
     1
 45
0.0
1001
ACAD
1000
AcDbSavedByObjectVersion
1070
     0
  0
VISUALSTYLE
  5
290
102
{ACAD_REACTORS
330
287
102
}
330
287
100
AcDbVisualStyle
  2
Conceptual
 70
     9
 71
     3
 72
     2
 73
     0
 90
        0
 40
-0.6
 41
-30.0
 62
     5
 63
     7
 74
     2
 91
        2
 64
     7
 65
   257
 75
     1
175
     1
 42
40.0
 92
        8
 66
     7
 43
1.0
 76
     1
 77
     6
 78
     2
 67
     7
 79
     3
170
     0
171
     0
290
     0
174
     0
 93
        1
 44
0.0
173
     0
291
     0
 45
0.0
1001
ACAD
1000
AcDbSavedByObjectVersion
1070
     0
  0
VISUALSTYLE
  5
292
102
{ACAD_REACTORS
330
287
102
}
330
287
100
AcDbVisualStyle
  2
Dim
 70
    11
 71
     2
 72
     2
 73
     0
 90
        0
 40
-0.6
 41
-30.0
 62
     5
 63
     7
 74
     1
 91
        4
 64
     7
 65
   257
 75
     1
175
     1
 42
1.0
 92
        8
 66
     7
 43
1.0
 76
     1
 77
     6
 78
     2
 67
     7
 79
     5
170
     0
171
     0
290
     0
174
     0
 93
        1
 44
-50.0
173
     0
291
     1
 45
0.0
1001
ACAD
1000
AcDbSavedByObjectVersion
1070
     0
  0
VISUALSTYLE
  5
296
102
{ACAD_REACTORS
330
287
102
}
330
287
100
AcDbVisualStyle
  2
Facepattern
 70
    15
 71
     2
 72
     2
 73
     0
 90
        0
 40
-0.6
 41
-30.0
 62
     5
 63
     7
 74
     1
 91
        4
 64
     7
 65
   257
 75
     1
175
     1
 42
1.0
 92
        8
 66
     7
 43
1.0
 76
     1
 77
     6
 78
     2
 67
     7
 79
     5
170
     0
171
     0
290
     0
174
     0
 93
        1
 44
0.0
173
     0
291
     1
 45
0.0
1001
ACAD
1000
AcDbSavedByObjectVersion
1070
     0
  0
VISUALSTYLE
  5
288
102
{ACAD_REACTORS
330
287
102
}
330
287
100
AcDbVisualStyle
  2
Flat
 70
     0
 71
     2
 72
     1
 73
     1
 90
        2
 40
-0.6
 41
30.0
 62
     5
 63
     7
 74
     0
 91
        4
 64
     7
 65
   257
 75
     1
175
     1
 42
1.0
 92
        8
 66
     7
 43
1.0
 76
     1
 77
     6
 78
     2
 67
     7
 79
     5
170
     0
171
     0
290
     0
174
     0
 93
       13
 44
0.0
173
     0
291
     1
 45
0.0
1001
ACAD
1000
AcDbSavedByObjectVersion
1070
     0
  0
VISUALSTYLE
  5
289
102
{ACAD_REACTORS
330
287
102
}
330
287
100
AcDbVisualStyle
  2
FlatWithEdges
 70
     1
 71
     2
 72
     1
 73
     1
 90
        2
 40
-0.6
 41
30.0
 62
     5
 63
     7
 74
     1
 91
        4
 64
     7
 65
   257
 75
     1
175
     1
 42
1.0
 92
        0
 66
   257
 43
1.0
 76
     1
 77
     6
 78
     2
 67
     7
 79
     5
170
     0
171
     0
290
     0
174
     0
 93
       13
 44
0.0
173
     0
291
     1
 45
0.0
1001
ACAD
1000
AcDbSavedByObjectVersion
1070
     0
  0
VISUALSTYLE
  5
28A
102
{ACAD_REACTORS
330
287
102
}
330
287
100
AcDbVisualStyle
  2
Gouraud
 70
     2
 71
     2
 72
     2
 73
     1
 90
        2
 40
-0.6
 41
30.0
 62
     5
 63
     7
 74
     0
 91
        4
 64
     7
 65
   257
 75
     1
175
     1
 42
1.0
 92
        0
 66
     7
 43
1.0
 76
     1
 77
     6
 78
     2
 67
     7
 79
     5
170
     0
171
     0
290
     0
174
     0
 93
       13
 44
0.0
173
     0
291
     1
 45
0.0
1001
ACAD
1000
AcDbSavedByObjectVersion
1070
     0
  0
VISUALSTYLE
  5
28B
102
{ACAD_REACTORS
330
287
102
}
330
287
100
AcDbVisualStyle
  2
GouraudWithEdges
 70
     3
 71
     2
 72
     2
 73
     1
 90
        2
 40
-0.6
 41
30.0
 62
     5
 63
     7
 74
     1
 91
        4
 64
     7
 65
   257
 75
     1
175
     1
 42
1.0
 92
        0
 66
   257
 43
1.0
 76
     1
 77
     6
 78
     2
 67
     7
 79
     5
170
     0
171
     0
290
     0
174
     0
 93
       13
 44
0.0
173
     0
291
     1
 45
0.0
1001
ACAD
1000
AcDbSavedByObjectVersion
1070
     0
  0
VISUALSTYLE
  5
295
102
{ACAD_REACTORS
330
287
102
}
330
287
100
AcDbVisualStyle
  2
Linepattern
 70
    14
 71
     2
 72
     2
 73
     0
 90
        0
 40
-0.6
 41
-30.0
 62
     5
 63
     7
 74
     1
 91
        4
 64
     7
 65
   257
 75
     7
175
     7
 42
1.0
 92
        8
 66
     7
 43
1.0
 76
     1
 77
     6
 78
     2
 67
     7
 79
     5
170
     0
171
     0
290
     0
174
     0
 93
        1
 44
0.0
173
     0
291
     1
 45
0.0
1001
ACAD
1000
AcDbSavedByObjectVersion
1070
     0
  0
VISUALSTYLE
  5
291
102
{ACAD_REACTORS
330
287
102
}
330
287
100
AcDbVisualStyle
  2
Realistic
 70
     8
 71
     2
 72
     2
 73
     0
 90
        0
 40
-0.6
 41
-30.0
 62
     5
 63
     7
 74
     1
 91
        0
 64
     7
 65
   257
 75
     1
175
     1
 42
1.0
 92
        8
 66
     8
 43
1.0
 76
     1
 77
     6
 78
     2
 67
     7
 79
     5
170
     0
171
     0
290
     0
174
     0
 93
       13
 44
0.0
173
     0
291
     0
 45
0.0
1001
ACAD
1000
AcDbSavedByObjectVersion
1070
     0
  0
VISUALSTYLE
  5
294
102
{ACAD_REACTORS
330
287
102
}
330
287
100
AcDbVisualStyle
  2
Thicken
 70
    13
 71
     2
 72
     2
 73
     0
 90
        0
 40
-0.6
 41
-30.0
 62
     5
 63
     7
 74
     1
 91
        4
 64
     7
 65
   257
 75
     1
175
     1
 42
1.0
 92
       12
 66
     7
 43
1.0
 76
     1
 77
     6
 78
     2
 67
     7
 79
     5
170
     0
171
     0
290
     0
174
     0
 93
        1
 44
0.0
173
     0
291
     1
 45
0.0
1001
ACAD
1000
AcDbSavedByObjectVersion
1070
     0
  0
DICTIONARYVAR
  5
38A
102
{ACAD_REACTORS
330
387
102
}
330
387
100
DictionaryVariables
280
     0
  1
1:1
  0
DICTIONARYVAR
  5
389
102
{ACAD_REACTORS
330
387
102
}
330
387
100
DictionaryVariables
280
     0
  1
STANDARD
  0
DICTIONARYVAR
  5
388
102
{ACAD_REACTORS
330
387
102
}
330
387
100
DictionaryVariables
280
     0
  1
STANDARD
  0
DICTIONARYVAR
  5
38D
102
{ACAD_REACTORS
330
387
102
}
330
387
100
DictionaryVariables
280
     0
  1
1
  0
DICTIONARYVAR
  5
38C
102
{ACAD_REACTORS
330
387
102
}
330
387
100
DictionaryVariables
280
     0
  1
0
  0
DICTIONARYVAR
  5
38B
102
{ACAD_REACTORS
330
387
102
}
330
387
100
DictionaryVariables
280
     0
  1
127
  0
XRECORD
  5
3A0
102
{ACAD_REACTORS
330
39F
102
}
330
39F
100
AcDbXrecord
280
     1
1070
     0
1070
     1
1070
     1
  0
XRECORD
  5
3A3
102
{ACAD_REACTORS
330
3A2
102
}
330
3A2
100
AcDbXrecord
280
     1
1070
     0
1070
     1
1070
     1
  0
DICTIONARY
  5
397
330
21
100
AcDbDictionary
280
     1
281
     1
  3
ACAD_XREC_ROUNDTRIP
360
398
  0
DICTIONARY
  5
395
330
20
100
AcDbDictionary
280
     1
281
     1
  3
ACAD_XREC_ROUNDTRIP
360
396
  0
DICTIONARY
  5
278
330
277
100
AcDbDictionary
280
     1
281
     1
  3
ACAD_XREC_ROUNDTRIP
360
39B
  3
BUMPTILE
360
27A
  3
DIFFUSETILE
360
279
  3
OPACITYTILE
360
27D
  3
REFLECTIONTILE
360
27C
  3
REFRACTIONTILE
360
27E
  3
SPECULARTILE
360
27B
  0
DICTIONARY
  5
270
330
26F
100
AcDbDictionary
280
     1
281
     1
  3
ACAD_XREC_ROUNDTRIP
360
39A
  3
BUMPTILE
360
272
  3
DIFFUSETILE
360
271
  3
OPACITYTILE
360
275
  3
REFLECTIONTILE
360
274
  3
REFRACTIONTILE
360
276
  3
SPECULARTILE
360
273
  0
DICTIONARY
  5
280
330
27F
100
AcDbDictionary
280
     1
281
     1
  3
ACAD_XREC_ROUNDTRIP
360
39C
  3
BUMPTILE
360
282
  3
DIFFUSETILE
360
281
  3
OPACITYTILE
360
285
  3
REFLECTIONTILE
360
284
  3
REFRACTIONTILE
360
286
  3
SPECULARTILE
360
283
  0
DICTIONARY
  5
38E
330
29A
100
AcDbDictionary
280
     1
281
     1
  3
ACAD_ROUNDTRIP_2008_TABLESTYLE_CELLSTYLEMAP
360
38F
  3
ACAD_XREC_ROUNDTRIP
360
39D
  0
XRECORD
  5
398
102
{ACAD_REACTORS
330
397
102
}
330
397
100
AcDbXrecord
280
     1
102
SHADEPLOT
 70
     0
102
SHADEPLOTRESLEVEL
 70
     2
102
SHADEPLOTCUSTOMDPI
 70
   300
  0
XRECORD
  5
396
102
{ACAD_REACTORS
330
395
102
}
330
395
100
AcDbXrecord
280
     1
102
SHADEPLOT
 70
     0
102
SHADEPLOTRESLEVEL
 70
     2
102
SHADEPLOTCUSTOMDPI
 70
   300
  0
XRECORD
  5
39B
102
{ACAD_REACTORS
330
278
102
}
330
278
100
AcDbXrecord
280
     1
102
MATERIAL
148
0.0
149
0.0
149
0.0
 93
        0
 94
      127
282
     0
 72
     0
 77
     0
171
     0
175
     0
179
     0
273
     0
  0
XRECORD
  5
27A
102
{ACAD_REACTORS
330
278
102
}
330
278
100
AcDbXrecord
280
     1
270
     1
271
     1
  0
XRECORD
  5
279
102
{ACAD_REACTORS
330
278
102
}
330
278
100
AcDbXrecord
280
     1
270
     1
271
     1
  0
XRECORD
  5
27D
102
{ACAD_REACTORS
330
278
102
}
330
278
100
AcDbXrecord
280
     1
270
     1
271
     1
  0
XRECORD
  5
27C
102
{ACAD_REACTORS
330
278
102
}
330
278
100
AcDbXrecord
280
     1
270
     1
271
     1
  0
XRECORD
  5
27E
102
{ACAD_REACTORS
330
278
102
}
330
278
100
AcDbXrecord
280
     1
270
     1
271
     1
  0
XRECORD
  5
27B
102
{ACAD_REACTORS
330
278
102
}
330
278
100
AcDbXrecord
280
     1
270
     1
271
     1
  0
XRECORD
  5
39A
102
{ACAD_REACTORS
330
270
102
}
330
270
100
AcDbXrecord
280
     1
102
MATERIAL
148
0.0
149
0.0
149
0.0
 93
        0
 94
      127
282
     0
 72
     0
 77
     0
171
     0
175
     0
179
     0
273
     0
  0
XRECORD
  5
272
102
{ACAD_REACTORS
330
270
102
}
330
270
100
AcDbXrecord
280
     1
270
     1
271
     1
  0
XRECORD
  5
271
102
{ACAD_REACTORS
330
270
102
}
330
270
100
AcDbXrecord
280
     1
270
     1
271
     1
  0
XRECORD
  5
275
102
{ACAD_REACTORS
330
270
102
}
330
270
100
AcDbXrecord
280
     1
270
     1
271
     1
  0
XRECORD
  5
274
102
{ACAD_REACTORS
330
270
102
}
330
270
100
AcDbXrecord
280
     1
270
     1
271
     1
  0
XRECORD
  5
276
102
{ACAD_REACTORS
330
270
102
}
330
270
100
AcDbXrecord
280
     1
270
     1
271
     1
  0
XRECORD
  5
273
102
{ACAD_REACTORS
330
270
102
}
330
270
100
AcDbXrecord
280
     1
270
     1
271
     1
  0
XRECORD
  5
39C
102
{ACAD_REACTORS
330
280
102
}
330
280
100
AcDbXrecord
280
     1
102
MATERIAL
148
0.0
149
0.0
149
0.0
 93
        0
 94
      127
282
     0
 72
     0
 77
     0
171
     0
175
     0
179
     0
273
     0
  0
XRECORD
  5
282
102
{ACAD_REACTORS
330
280
102
}
330
280
100
AcDbXrecord
280
     1
270
     1
271
     1
  0
XRECORD
  5
281
102
{ACAD_REACTORS
330
280
102
}
330
280
100
AcDbXrecord
280
     1
270
     1
271
     1
  0
XRECORD
  5
285
102
{ACAD_REACTORS
330
280
102
}
330
280
100
AcDbXrecord
280
     1
270
     1
271
     1
  0
XRECORD
  5
284
102
{ACAD_REACTORS
330
280
102
}
330
280
100
AcDbXrecord
280
     1
270
     1
271
     1
  0
XRECORD
  5
286
102
{ACAD_REACTORS
330
280
102
}
330
280
100
AcDbXrecord
280
     1
270
     1
271
     1
  0
XRECORD
  5
283
102
{ACAD_REACTORS
330
280
102
}
330
280
100
AcDbXrecord
280
     1
270
     1
271
     1
  0
CELLSTYLEMAP
  5
38F
102
{ACAD_REACTORS
330
38E
102
}
330
38E
100
AcDbCellStyleMap
 90
        3
300
CELLSTYLE
  1
TABLEFORMAT_BEGIN
 90
        5
170
     1
 91
        0
 92
    32768
 62
   257
 93
        1
300
CONTENTFORMAT
  1
CONTENTFORMAT_BEGIN
 90
        0
 91
        0
 92
      512
 93
        0
300

 40
0.0
140
1.0
 94
        5
 62
     0
340
17
144
6.0
309
CONTENTFORMAT_END
171
     1
301
MARGIN
  1
CELLMARGIN_BEGIN
 40
1.5
 40
1.5
 40
1.5
 40
1.5
 40
4.5
 40
4.5
309
CELLMARGIN_END
 94
        6
 95
        1
302
GRIDFORMAT
  1
GRIDFORMAT_BEGIN
 90
        0
 91
        1
 62
     0
 92
       -2
340
0
 93
        0
 40
1.125
309
GRIDFORMAT_END
 95
        2
302
GRIDFORMAT
  1
GRIDFORMAT_BEGIN
 90
        0
 91
        1
 62
     0
 92
       -2
340
0
 93
        0
 40
1.125
309
GRIDFORMAT_END
 95
        4
302
GRIDFORMAT
  1
GRIDFORMAT_BEGIN
 90
        0
 91
        1
 62
     0
 92
       -2
340
0
 93
        0
 40
1.125
309
GRIDFORMAT_END
 95
        8
302
GRIDFORMAT
  1
GRIDFORMAT_BEGIN
 90
        0
 91
        1
 62
     0
 92
       -2
340
0
 93
        0
 40
1.125
309
GRIDFORMAT_END
 95
       16
302
GRIDFORMAT
  1
GRIDFORMAT_BEGIN
 90
        0
 91
        1
 62
     0
 92
       -2
340
0
 93
        0
 40
1.125
309
GRIDFORMAT_END
 95
       32
302
GRIDFORMAT
  1
GRIDFORMAT_BEGIN
 90
        0
 91
        1
 62
     0
 92
       -2
340
0
 93
        0
 40
1.125
309
GRIDFORMAT_END
309
TABLEFORMAT_END
  1
CELLSTYLE_BEGIN
 90
        1
 91
        1
300
_TITLE
309
CELLSTYLE_END
300
CELLSTYLE
  1
TABLEFORMAT_BEGIN
 90
        5
170
     1
 91
        0
 92
        0
 62
   257
 93
        1
300
CONTENTFORMAT
  1
CONTENTFORMAT_BEGIN
 90
        0
 91
        0
 92
      512
 93
        0
300

 40
0.0
140
1.0
 94
        5
 62
     0
340
17
144
4.5
309
CONTENTFORMAT_END
171
     1
301
MARGIN
  1
CELLMARGIN_BEGIN
 40
1.5
 40
1.5
 40
1.5
 40
1.5
 40
4.5
 40
4.5
309
CELLMARGIN_END
 94
        6
 95
        1
302
GRIDFORMAT
  1
GRIDFORMAT_BEGIN
 90
        0
 91
        1
 62
     0
 92
       -2
340
0
 93
        0
 40
1.125
309
GRIDFORMAT_END
 95
        2
302
GRIDFORMAT
  1
GRIDFORMAT_BEGIN
 90
        0
 91
        1
 62
     0
 92
       -2
340
0
 93
        0
 40
1.125
309
GRIDFORMAT_END
 95
        4
302
GRIDFORMAT
  1
GRIDFORMAT_BEGIN
 90
        0
 91
        1
 62
     0
 92
       -2
340
0
 93
        0
 40
1.125
309
GRIDFORMAT_END
 95
        8
302
GRIDFORMAT
  1
GRIDFORMAT_BEGIN
 90
        0
 91
        1
 62
     0
 92
       -2
340
0
 93
        0
 40
1.125
309
GRIDFORMAT_END
 95
       16
302
GRIDFORMAT
  1
GRIDFORMAT_BEGIN
 90
        0
 91
        1
 62
     0
 92
       -2
340
0
 93
        0
 40
1.125
309
GRIDFORMAT_END
 95
       32
302
GRIDFORMAT
  1
GRIDFORMAT_BEGIN
 90
        0
 91
        1
 62
     0
 92
       -2
340
0
 93
        0
 40
1.125
309
GRIDFORMAT_END
309
TABLEFORMAT_END
  1
CELLSTYLE_BEGIN
 90
        2
 91
        1
300
_HEADER
309
CELLSTYLE_END
300
CELLSTYLE
  1
TABLEFORMAT_BEGIN
 90
        5
170
     1
 91
        0
 92
        0
 62
   257
 93
        1
300
CONTENTFORMAT
  1
CONTENTFORMAT_BEGIN
 90
        0
 91
        0
 92
      512
 93
        0
300

 40
0.0
140
1.0
 94
        2
 62
     0
340
17
144
4.5
309
CONTENTFORMAT_END
171
     1
301
MARGIN
  1
CELLMARGIN_BEGIN
 40
1.5
 40
1.5
 40
1.5
 40
1.5
 40
4.5
 40
4.5
309
CELLMARGIN_END
 94
        6
 95
        1
302
GRIDFORMAT
  1
GRIDFORMAT_BEGIN
 90
        0
 91
        1
 62
     0
 92
       -2
340
0
 93
        0
 40
1.125
309
GRIDFORMAT_END
 95
        2
302
GRIDFORMAT
  1
GRIDFORMAT_BEGIN
 90
        0
 91
        1
 62
     0
 92
       -2
340
0
 93
        0
 40
1.125
309
GRIDFORMAT_END
 95
        4
302
GRIDFORMAT
  1
GRIDFORMAT_BEGIN
 90
        0
 91
        1
 62
     0
 92
       -2
340
0
 93
        0
 40
1.125
309
GRIDFORMAT_END
 95
        8
302
GRIDFORMAT
  1
GRIDFORMAT_BEGIN
 90
        0
 91
        1
 62
     0
 92
       -2
340
0
 93
        0
 40
1.125
309
GRIDFORMAT_END
 95
       16
302
GRIDFORMAT
  1
GRIDFORMAT_BEGIN
 90
        0
 91
        1
 62
     0
 92
       -2
340
0
 93
        0
 40
1.125
309
GRIDFORMAT_END
 95
       32
302
GRIDFORMAT
  1
GRIDFORMAT_BEGIN
 90
        0
 91
        1
 62
     0
 92
       -2
340
0
 93
        0
 40
1.125
309
GRIDFORMAT_END
309
TABLEFORMAT_END
  1
CELLSTYLE_BEGIN
 90
        3
 91
        2
300
_DATA
309
CELLSTYLE_END
  0
XRECORD
  5
39D
102
{ACAD_REACTORS
330
38E
102
}
330
38E
100
AcDbXrecord
280
     1
102
ACAD_ROUNDTRIP_PRE2007_TABLESTYLE
 90
      512
 91
        0
  1

 92
      512
 93
        0
  2

 94
      512
 95
        0
  3

  0
ENDSEC
  0
EOF
