  0
SECTION
  2
HEADER
  9
$ACADVER
  1
AC1015
  9
$ACADMAINTVER
 70
    20
  9
$DWGCODEPAGE
  3
ANSI_1252
  9
$INSBASE
 10
0.0
 20
0.0
 30
0.0
  9
$EXTMIN
 10
96.93941450589086
 20
33.44211199968647
 30
0.0
  9
$EXTMAX
 10
570.4925590822241
 20
515.2577734757955
 30
0.0
  9
$LIMMIN
 10
111.579064
 20
62.38981800000001
  9
$LIMMAX
 10
217.923132
 20
169.966197
  9
$ORTHOMODE
 70
     1
  9
$REGENMODE
 70
     1
  9
$FILLMODE
 70
     1
  9
$QTEXTMODE
 70
     0
  9
$MIRRTEXT
 70
     1
  9
$LTSCALE
 40
1.0
  9
$ATTMODE
 70
     1
  9
$TEXTSIZE
 40
0.0
  9
$TRACEWID
 40
0.05
  9
$TEXTSTYLE
  7
Standard
  9
$CLAYER
  8
A-031_DimExt
  9
$CELTYPE
  6
ByLayer
  9
$CECOLOR
 62
   256
  9
$CELTSCALE
 40
1.0
  9
$DISPSILH
 70
     0
  9
$DIMSCALE
 40
1.0
  9
$DIMASZ
 40
0.2
  9
$DIMEXO
 40
0.5
  9
$DIMDLI
 40
0.5
  9
$DIMRND
 40
0.0
  9
$DIMDLE
 40
0.0
  9
$DIMEXE
 40
0.2
  9
$DIMTP
 40
0.0
  9
$DIMTM
 40
0.0
  9
$DIMTXT
 40
0.4
  9
$DIMCEN
 40
0.1
  9
$DIMTSZ
 40
0.0
  9
$DIMTOL
 70
     0
  9
$DIMLIM
 70
     0
  9
$DIMTIH
 70
     0
  9
$DIMTOH
 70
     0
  9
$DIMSE1
 70
     1
  9
$DIMSE2
 70
     1
  9
$DIMTAD
 70
     1
  9
$DIMZIN
 70
     1
  9
$DIMBLK
  1

  9
$DIMASO
 70
     1
  9
$DIMSHO
 70
     1
  9
$DIMPOST
  1

  9
$DIMAPOST
  1
m
  9
$DIMALT
 70
     0
  9
$DIMALTD
 70
     2
  9
$DIMALTF
 40
0.01
  9
$DIMLFAC
 40
1.0
  9
$DIMTOFL
 70
     1
  9
$DIMTVP
 40
0.0
  9
$DIMTIX
 70
     1
  9
$DIMSOXD
 70
     0
  9
$DIMSAH
 70
     1
  9
$DIMBLK1
  1
DIML
  9
$DIMBLK2
  1
DIMR
  9
$DIMSTYLE
  2
DIMEXT
  9
$DIMCLRD
 70
     0
  9
$DIMCLRE
 70
     0
  9
$DIMCLRT
 70
     0
  9
$DIMTFAC
 40
1.0
  9
$DIMGAP
 40
0.1
  9
$DIMJUST
 70
     0
  9
$DIMSD1
 70
     0
  9
$DIMSD2
 70
     0
  9
$DIMTOLJ
 70
     1
  9
$DIMTZIN
 70
     0
  9
$DIMALTZ
 70
     8
  9
$DIMALTTZ
 70
     0
  9
$DIMUPT
 70
     0
  9
$DIMDEC
 70
     0
  9
$DIMTDEC
 70
     0
  9
$DIMALTU
 70
     2
  9
$DIMALTTD
 70
     2
  9
$DIMTXSTY
  7
helvetica regular
  9
$DIMAUNIT
 70
     1
  9
$DIMADEC
 70
     0
  9
$DIMALTRND
 40
0.0
  9
$DIMAZIN
 70
     0
  9
$DIMDSEP
 70
    46
  9
$DIMATFIT
 70
     3
  9
$DIMFRAC
 70
     1
  9
$DIMLDRBLK
  1

  9
$DIMLUNIT
 70
     2
  9
$DIMLWD
 70
    -2
  9
$DIMLWE
 70
    -2
  9
$DIMTMOVE
 70
     0
  9
$LUNITS
 70
     2
  9
$LUPREC
 70
     3
  9
$SKETCHINC
 40
0.1
  9
$FILLETRAD
 40
0.0
  9
$AUNITS
 70
     0
  9
$AUPREC
 70
     2
  9
$MENU
  1
acad
  9
$ELEVATION
 40
0.0
  9
$PELEVATION
 40
0.0
  9
$THICKNESS
 40
0.0
  9
$LIMCHECK
 70
     0
  9
$CHAMFERA
 40
0.0
  9
$CHAMFERB
 40
0.0
  9
$CHAMFERC
 40
0.0
  9
$CHAMFERD
 40
0.0
  9
$SKPOLY
 70
     0
  9
$TDCREATE
 40
2454497.443324282
  9
$TDUCREATE
 40
2454497.401657616
  9
$TDUPDATE
 40
2454497.889876297
  9
$TDUUPDATE
 40
2454497.848209630
  9
$TDINDWG
 40
0.0036845255
  9
$TDUSRTIMER
 40
0.0036843519
  9
$USRTIMER
 70
     1
  9
$ANGBASE
 50
0.0
  9
$ANGDIR
 70
     0
  9
$PDMODE
 70
     0
  9
$PDSIZE
 40
0.0
  9
$PLINEWID
 40
0.0
  9
$SPLFRAME
 70
     0
  9
$SPLINETYPE
 70
     6
  9
$SPLINESEGS
 70
     8
  9
$HANDSEED
  5
4D3
  9
$SURFTAB1
 70
     6
  9
$SURFTAB2
 70
     6
  9
$SURFTYPE
 70
     6
  9
$SURFU
 70
     6
  9
$SURFV
 70
     6
  9
$UCSBASE
  2

  9
$UCSNAME
  2

  9
$UCSORG
 10
0.0
 20
0.0
 30
0.0
  9
$UCSXDIR
 10
1.0
 20
0.0
 30
0.0
  9
$UCSYDIR
 10
0.0
 20
1.0
 30
0.0
  9
$UCSORTHOREF
  2

  9
$UCSORTHOVIEW
 70
     0
  9
$UCSORGTOP
 10
0.0
 20
0.0
 30
0.0
  9
$UCSORGBOTTOM
 10
0.0
 20
0.0
 30
0.0
  9
$UCSORGLEFT
 10
0.0
 20
0.0
 30
0.0
  9
$UCSORGRIGHT
 10
0.0
 20
0.0
 30
0.0
  9
$UCSORGFRONT
 10
0.0
 20
0.0
 30
0.0
  9
$UCSORGBACK
 10
0.0
 20
0.0
 30
0.0
  9
$PUCSBASE
  2

  9
$PUCSNAME
  2

  9
$PUCSORG
 10
0.0
 20
0.0
 30
0.0
  9
$PUCSXDIR
 10
1.0
 20
0.0
 30
0.0
  9
$PUCSYDIR
 10
0.0
 20
1.0
 30
0.0
  9
$PUCSORTHOREF
  2

  9
$PUCSORTHOVIEW
 70
     0
  9
$PUCSORGTOP
 10
0.0
 20
0.0
 30
0.0
  9
$PUCSORGBOTTOM
 10
0.0
 20
0.0
 30
0.0
  9
$PUCSORGLEFT
 10
0.0
 20
0.0
 30
0.0
  9
$PUCSORGRIGHT
 10
0.0
 20
0.0
 30
0.0
  9
$PUCSORGFRONT
 10
0.0
 20
0.0
 30
0.0
  9
$PUCSORGBACK
 10
0.0
 20
0.0
 30
0.0
  9
$USERI1
 70
     0
  9
$USERI2
 70
     0
  9
$USERI3
 70
     0
  9
$USERI4
 70
     0
  9
$USERI5
 70
     0
  9
$USERR1
 40
0.0
  9
$USERR2
 40
0.0
  9
$USERR3
 40
0.0
  9
$USERR4
 40
0.0
  9
$USERR5
 40
0.0
  9
$WORLDVIEW
 70
     1
  9
$SHADEDGE
 70
     3
  9
$SHADEDIF
 70
    70
  9
$TILEMODE
 70
     1
  9
$MAXACTVP
 70
    16
  9
$PINSBASE
 10
0.0
 20
0.0
 30
0.0
  9
$PLIMCHECK
 70
     0
  9
$PEXTMIN
 10
1.000000000000000E+20
 20
1.000000000000000E+20
 30
1.000000000000000E+20
  9
$PEXTMAX
 10
-1.000000000000000E+20
 20
-1.000000000000000E+20
 30
-1.000000000000000E+20
  9
$PLIMMIN
 10
0.0
 20
0.0
  9
$PLIMMAX
 10
12.0
 20
9.0
  9
$UNITMODE
 70
     0
  9
$VISRETAIN
 70
     0
  9
$PLINEGEN
 70
     1
  9
$PSLTSCALE
 70
     0
  9
$TREEDEPTH
 70
  3020
  9
$CMLSTYLE
  2
Standard
  9
$CMLJUST
 70
     0
  9
$CMLSCALE
 40
1.0
  9
$PROXYGRAPHICS
 70
     0
  9
$MEASUREMENT
 70
     1
  9
$CELWEIGHT
370
     0
  9
$ENDCAPS
280
     0
  9
$JOINSTYLE
280
     0
  9
$LWDISPLAY
290
     0
  9
$INSUNITS
 70
     4
  9
$HYPERLINKBASE
  1

  9
$STYLESHEET
  1

  9
$XEDIT
290
     1
  9
$CEPSNTYPE
380
     0
  9
$PSTYLEMODE
290
     1
  9
$FINGERPRINTGUID
  2

  9
$VERSIONGUID
  2
{0A869DB0-FF5F-41CD-9BA3-05438981DEB7}
  9
$EXTNAMES
290
     1
  9
$PSVPSCALE
 40
0.0
  9
$OLESTARTUP
290
     0
  0
ENDSEC
  0
SECTION
  2
CLASSES
  0
CLASS
  1
IMAGE
  2
AcDbRasterImage
  3
ISM
 90
    34943
280
     0
281
     1
  0
CLASS
  1
DICTIONARYVAR
  2
AcDbDictionaryVar
  3
ObjectDBX Classes
 90
        0
280
     0
281
     0
  0
CLASS
  1
RASTERVARIABLES
  2
AcDbRasterVariables
  3
ISM
 90
    32768
280
     0
281
     0
  0
CLASS
  1
IMAGEDEF
  2
AcDbRasterImageDef
  3
ISM
 90
    32768
280
     0
281
     0
  0
CLASS
  1
IMAGEDEF_REACTOR
  2
AcDbRasterImageDefReactor
  3
ISM
 90
    32769
280
     0
281
     0
  0
CLASS
  1
IDBUFFER
  2
AcDbIdBuffer
  3
ObjectDBX Classes
 90
    32768
280
     0
281
     0
  0
CLASS
  1
SPATIAL_FILTER
  2
AcDbSpatialFilter
  3
ObjectDBX Classes
 90
    32768
280
     0
281
     0
  0
CLASS
  1
SORTENTSTABLE
  2
AcDbSortentsTable
  3
ObjectDBX Classes
 90
    32768
280
     0
281
     0
  0
CLASS
  1
LAYER_INDEX
  2
AcDbLayerIndex
  3
ObjectDBX Classes
 90
    32768
280
     0
281
     0
  0
CLASS
  1
SPATIAL_INDEX
  2
AcDbSpatialIndex
  3
ObjectDBX Classes
 90
    32768
280
     0
281
     0
  0
CLASS
  1
OBJECT_PTR
  2
CAseDLPNTableRecord
  3
"ASE-LPNTableRecord"
 90
    32769
280
     0
281
     0
  0
CLASS
  1
LAYOUT
  2
AcDbLayout
  3
ObjectDBX Classes
 90
        0
280
     0
281
     0
  0
CLASS
  1
PLOTSETTINGS
  2
AcDbPlotSettings
  3
ObjectDBX Classes
 90
    32768
280
     0
281
     0
  0
CLASS
  1
ACDBDICTIONARYWDFLT
  2
AcDbDictionaryWithDefault
  3
ObjectDBX Classes
 90
        0
280
     0
281
     0
  0
CLASS
  1
ACDBPLACEHOLDER
  2
AcDbPlaceHolder
  3
ObjectDBX Classes
 90
        0
280
     0
281
     0
  0
CLASS
  1
VBA_PROJECT
  2
AcDbVbaProject
  3
acad
 90
    32768
280
     0
281
     0
  0
CLASS
  1
WIPEOUT
  2
AcDbWipeout
  3
"WipeOut|Product Desc: Object Enabler for WipeOut entity                        |Company: Autodesk, Inc.                        |WEB Address: www.autodesk.com"
 90
    34943
280
     0
281
     1
  0
CLASS
  1
WIPEOUTVARIABLES
  2
AcDbWipeoutVariables
  3
"WipeOut|Product Desc:     WipeOut Dbx Application|Company:          Autodesk, Inc.|WEB Address:      www.autodesk.com"
 90
        0
280
     0
281
     0
  0
CLASS
  1
RTEXT
  2
RText
  3
RText|AutoCAD Express Tool|expresstools@autodesk.com
 90
    32768
280
     0
281
     1
  0
CLASS
  1
ARCALIGNEDTEXT
  2
AcDbArcAlignedText
  3
ATEXT|AutoCAD Express Tool|expresstools@autodesk.com
 90
    32768
280
     0
281
     1
  0
CLASS
  1
MATERIAL
  2
AcDbMaterial
  3
ObjectDBX Classes
 90
     1153
280
     0
281
     0
  0
CLASS
  1
VISUALSTYLE
  2
AcDbVisualStyle
  3
ObjectDBX Classes
 90
     4095
280
     0
281
     0
  0
CLASS
  1
TABLESTYLE
  2
AcDbTableStyle
  3
ObjectDBX Classes
 90
     4095
280
     0
281
     0
  0
CLASS
  1
SCALE
  2
AcDbScale
  3
ObjectDBX Classes
 90
     1153
280
     0
281
     0
  0
CLASS
  1
MLEADERSTYLE
  2
AcDbMLeaderStyle
  3
ACDB_MLEADERSTYLE_CLASS
 90
     4095
280
     0
281
     0
  0
CLASS
  1
AEC_VARS_DWG_SETUP
  2
AecDbVarsDwgSetup
  3
AecBase50|Product Desc: Autodesk Architectural Desktop 2007 |Company: Autodesk,Inc. |WEB Address: www.autodesk.com
 90
      129
280
     0
281
     0
  0
CLASS
  1
CELLSTYLEMAP
  2
AcDbCellStyleMap
  3
ObjectDBX Classes
 90
     1152
280
     0
281
     0
  0
CLASS
  1
AEC_NOTIFICATION_TRACKER
  2
AecDbNotificationTracker
  3
AecBase50|Product Desc: Autodesk Architectural Desktop 2007 |Company: Autodesk,Inc. |WEB Address: www.autodesk.com
 90
      129
280
     0
281
     0
  0
CLASS
  1
NPOCOLLECTION
  2
AcDbImpNonPersistentObjectsCollection
  3
ObjectDBX Classes
 90
     1153
280
     0
281
     0
  0
CLASS
  1
AEC_DISP_REP_2D_SECTION
  2
AecDbDispRep2dSection
  3
AecBase50|Product Desc: Autodesk Architectural Desktop 2007 |Company: Autodesk,Inc. |WEB Address: www.autodesk.com
 90
      129
280
     0
281
     0
  0
CLASS
  1
AEC_DISP_PROPS_2D_SECTION
  2
AecDbDispProps2dSection
  3
AecBase50|Product Desc: Autodesk Architectural Desktop 2007 |Company: Autodesk,Inc. |WEB Address: www.autodesk.com
 90
      129
280
     0
281
     0
  0
CLASS
  1
AEC_DISP_REP_ANCHOR
  2
AecDbDispRepAnchor
  3
AecBase50|Product Desc: Autodesk Architectural Desktop 2007 |Company: Autodesk,Inc. |WEB Address: www.autodesk.com
 90
      129
280
     0
281
     0
  0
CLASS
  1
AEC_DISP_REP_ANCHOR_ENT_TO_NODE
  2
AecDbDispRepAnchorEntToNode
  3
AecBase50|Product Desc: Autodesk Architectural Desktop 2007 |Company: Autodesk,Inc. |WEB Address: www.autodesk.com
 90
      129
280
     0
281
     0
  0
CLASS
  1
AEC_DISP_PROPS_ENT
  2
AecDbDispPropsEnt
  3
AecBase50|Product Desc: Autodesk Architectural Desktop 2007 |Company: Autodesk,Inc. |WEB Address: www.autodesk.com
 90
      129
280
     0
281
     0
  0
CLASS
  1
AEC_DISP_REP_CLIP_VOLUME_MODEL
  2
AecDbDispRepClipVolModel
  3
AecBase50|Product Desc: Autodesk Architectural Desktop 2007 |Company: Autodesk,Inc. |WEB Address: www.autodesk.com
 90
      129
280
     0
281
     0
  0
CLASS
  1
AEC_DISP_PROPS_CLIP_VOLUME
  2
AecDbDispPropsClipVol
  3
AecBase50|Product Desc: Autodesk Architectural Desktop 2007 |Company: Autodesk,Inc. |WEB Address: www.autodesk.com
 90
      129
280
     0
281
     0
  0
CLASS
  1
AEC_DISP_REP_CLIP_VOLUME_PLAN
  2
AecDbDispRepClipVolPlan
  3
AecBase50|Product Desc: Autodesk Architectural Desktop 2007 |Company: Autodesk,Inc. |WEB Address: www.autodesk.com
 90
      129
280
     0
281
     0
  0
CLASS
  1
AEC_DISP_REP_CLIP_VOLUME_RESULT
  2
AecDbDispRepClipVolResult
  3
AecBase50|Product Desc: Autodesk Architectural Desktop 2007 |Company: Autodesk,Inc. |WEB Address: www.autodesk.com
 90
      129
280
     0
281
     0
  0
CLASS
  1
AEC_DISP_REP_CLIP_VOLUME_RESULT_SUBDIV
  2
AecDbDispRepClipVolResSubDiv
  3
AecBase50|Product Desc: Autodesk Architectural Desktop 2007 |Company: Autodesk,Inc. |WEB Address: www.autodesk.com
 90
      129
280
     0
281
     0
  0
CLASS
  1
AEC_DISP_PROPS_CLIP_VOLUME_RESULT
  2
AecDbDispPropsClipVolResSubDiv
  3
AecBase50|Product Desc: Autodesk Architectural Desktop 2007 |Company: Autodesk,Inc. |WEB Address: www.autodesk.com
 90
      129
280
     0
281
     0
  0
CLASS
  1
AEC_DISP_REP_DISPLAYTHEME
  2
AecDbDispRepDisplayTheme
  3
AecBase50|Product Desc: Autodesk Architectural Desktop 2007 |Company: Autodesk,Inc. |WEB Address: www.autodesk.com
 90
      129
280
     0
281
     0
  0
CLASS
  1
AEC_DISP_PROPS_DISPLAYTHEME
  2
AecDbDispPropsDisplayTheme
  3
AecBase50|Product Desc: Autodesk Architectural Desktop 2007 |Company: Autodesk,Inc. |WEB Address: www.autodesk.com
 90
      129
280
     0
281
     0
  0
CLASS
  1
AEC_DISP_REP_EDITINPLACEPROFILE
  2
AecDbDispRepEditInPlaceProfile
  3
AecBase50|Product Desc: Autodesk Architectural Desktop 2007 |Company: Autodesk,Inc. |WEB Address: www.autodesk.com
 90
      129
280
     0
281
     0
  0
CLASS
  1
AEC_DISP_PROPS_EDITINPLACEPROFILE_MODEL
  2
AecDbDispPropsEditInPlaceProfile
  3
AecBase50|Product Desc: Autodesk Architectural Desktop 2007 |Company: Autodesk,Inc. |WEB Address: www.autodesk.com
 90
      129
280
     0
281
     0
  0
CLASS
  1
AEC_DISP_REP_ENT_REF
  2
AecDbDispRepEntRef
  3
AecBase50|Product Desc: Autodesk Architectural Desktop 2007 |Company: Autodesk,Inc. |WEB Address: www.autodesk.com
 90
      129
280
     0
281
     0
  0
CLASS
  1
AEC_DISP_PROPS_ENT_REF
  2
AecDbDispPropsEntRef
  3
AecBase50|Product Desc: Autodesk Architectural Desktop 2007 |Company: Autodesk,Inc. |WEB Address: www.autodesk.com
 90
      129
280
     0
281
     0
  0
CLASS
  1
AEC_DISP_REP_LAYOUT_CURVE
  2
AecDbDispRepLayoutCurve
  3
AecBase50|Product Desc: Autodesk Architectural Desktop 2007 |Company: Autodesk,Inc. |WEB Address: www.autodesk.com
 90
      129
280
     0
281
     0
  0
CLASS
  1
AEC_DISP_PROPS_LAYOUT_CURVE
  2
AecDbDispPropsLayoutCurve
  3
AecBase50|Product Desc: Autodesk Architectural Desktop 2007 |Company: Autodesk,Inc. |WEB Address: www.autodesk.com
 90
      129
280
     0
281
     0
  0
CLASS
  1
AEC_DISP_REP_LAYOUT_GRID2D
  2
AecDbDispRepLayoutGrid2d
  3
AecBase50|Product Desc: Autodesk Architectural Desktop 2007 |Company: Autodesk,Inc. |WEB Address: www.autodesk.com
 90
      129
280
     0
281
     0
  0
CLASS
  1
AEC_DISP_PROPS_LAYOUT_GRID2D
  2
AecDbDispPropsLayoutGrid2d
  3
AecBase50|Product Desc: Autodesk Architectural Desktop 2007 |Company: Autodesk,Inc. |WEB Address: www.autodesk.com
 90
      129
280
     0
281
     0
  0
CLASS
  1
AEC_DISP_REP_LAYOUT_GRID3D
  2
AecDbDispRepLayoutGrid3d
  3
AecBase50|Product Desc: Autodesk Architectural Desktop 2007 |Company: Autodesk,Inc. |WEB Address: www.autodesk.com
 90
      129
280
     0
281
     0
  0
CLASS
  1
AEC_DISP_PROPS_LAYOUT_GRID3D
  2
AecDbDispPropsLayoutGrid3d
  3
AecBase50|Product Desc: Autodesk Architectural Desktop 2007 |Company: Autodesk,Inc. |WEB Address: www.autodesk.com
 90
      129
280
     0
281
     0
  0
CLASS
  1
AEC_DISP_REP_MASKBLOCK_REF
  2
AecDbDispRepMaskBlockRef
  3
AecBase50|Product Desc: Autodesk Architectural Desktop 2007 |Company: Autodesk,Inc. |WEB Address: www.autodesk.com
 90
      129
280
     0
281
     0
  0
CLASS
  1
AEC_DISP_PROPS_MASKBLOCK
  2
AecDbDispPropsMaskBlock
  3
AecBase50|Product Desc: Autodesk Architectural Desktop 2007 |Company: Autodesk,Inc. |WEB Address: www.autodesk.com
 90
      129
280
     0
281
     0
  0
CLASS
  1
AEC_DISP_REP_MATERIAL
  2
AecDbDispRepMaterial
  3
AecBase50|Product Desc: Autodesk Architectural Desktop 2007 |Company: Autodesk,Inc. |WEB Address: www.autodesk.com
 90
      129
280
     0
281
     0
  0
CLASS
  1
AEC_DISP_PROPS_MATERIAL
  2
AecDbDispPropsMaterial
  3
AecBase50|Product Desc: Autodesk Architectural Desktop 2007 |Company: Autodesk,Inc. |WEB Address: www.autodesk.com
 90
      129
280
     0
281
     0
  0
CLASS
  1
AEC_DISP_REP_MVBLOCK_REF
  2
AecDbDispRepMvBlockRef
  3
AecBase50|Product Desc: Autodesk Architectural Desktop 2007 |Company: Autodesk,Inc. |WEB Address: www.autodesk.com
 90
      129
280
     0
281
     0
  0
CLASS
  1
AEC_DISP_REP_MVBLOCK_REF_MODEL
  2
AecDbDispRepMvBlockRefModel
  3
AecBase50|Product Desc: Autodesk Architectural Desktop 2007 |Company: Autodesk,Inc. |WEB Address: www.autodesk.com
 90
      129
280
     0
281
     0
  0
CLASS
  1
AEC_DISP_REP_POLYGON_MODEL
  2
AecDbDispRepPolygonModel
  3
AecBase50|Product Desc: Autodesk Architectural Desktop 2007 |Company: Autodesk,Inc. |WEB Address: www.autodesk.com
 90
      129
280
     0
281
     0
  0
CLASS
  1
AEC_DISP_PROPS_POLYGON_MODEL
  2
AecDbDispPropsPolygonModel
  3
AecBase50|Product Desc: Autodesk Architectural Desktop 2007 |Company: Autodesk,Inc. |WEB Address: www.autodesk.com
 90
      129
280
     0
281
     0
  0
CLASS
  1
AEC_DISP_REP_POLYGON_TRUECOLOUR
  2
AecDbDispRepPolygonTrueColour
  3
AecBase50|Product Desc: Autodesk Architectural Desktop 2007 |Company: Autodesk,Inc. |WEB Address: www.autodesk.com
 90
      129
280
     0
281
     0
  0
CLASS
  1
AEC_DISP_PROPS_POLYGON_TRUECOLOUR
  2
AecDbDispPropsPolygonTrueColour
  3
AecBase50|Product Desc: Autodesk Architectural Desktop 2007 |Company: Autodesk,Inc. |WEB Address: www.autodesk.com
 90
      129
280
     0
281
     0
  0
CLASS
  1
AEC_DISP_REP_SLICE
  2
AecDbDispRepSlice
  3
AecBase50|Product Desc: Autodesk Architectural Desktop 2007 |Company: Autodesk,Inc. |WEB Address: www.autodesk.com
 90
      129
280
     0
281
     0
  0
CLASS
  1
AEC_DISP_PROPS_SLICE
  2
AecDbDispPropsSlice
  3
AecBase50|Product Desc: Autodesk Architectural Desktop 2007 |Company: Autodesk,Inc. |WEB Address: www.autodesk.com
 90
      129
280
     0
281
     0
  0
CLASS
  1
AEC_DISP_REP_MASS_ELEM_MODEL
  2
AecDbDispRepMassElemModel
  3
AecBaseEx50|Product Desc: Autodesk Architectural Desktop 2007 |Company: Autodesk,Inc. |WEB Address: www.autodesk.com
 90
      129
280
     0
281
     0
  0
CLASS
  1
AEC_DISP_PROPS_MASS_ELEM_MODEL
  2
AecDbDispPropsMassElem
  3
AecBaseEx50|Product Desc: Autodesk Architectural Desktop 2007 |Company: Autodesk,Inc. |WEB Address: www.autodesk.com
 90
      129
280
     0
281
     0
  0
CLASS
  1
AEC_DISP_REP_MASS_ELEM_SCHEM
  2
AecDbDispRepMassElemSchem
  3
AecBaseEx50|Product Desc: Autodesk Architectural Desktop 2007 |Company: Autodesk,Inc. |WEB Address: www.autodesk.com
 90
      129
280
     0
281
     0
  0
CLASS
  1
AEC_DISP_REP_MASS_GROUP_MODEL
  2
AecDbDispRepMassGroupModel
  3
AecBaseEx50|Product Desc: Autodesk Architectural Desktop 2007 |Company: Autodesk,Inc. |WEB Address: www.autodesk.com
 90
      129
280
     0
281
     0
  0
CLASS
  1
AEC_DISP_PROPS_MASS_GROUP
  2
AecDbDispPropsMassGroup
  3
AecBaseEx50|Product Desc: Autodesk Architectural Desktop 2007 |Company: Autodesk,Inc. |WEB Address: www.autodesk.com
 90
      129
280
     0
281
     0
  0
CLASS
  1
AEC_DISP_REP_MASS_GROUP_PLAN
  2
AecDbDispRepMassGroupPlan
  3
AecBaseEx50|Product Desc: Autodesk Architectural Desktop 2007 |Company: Autodesk,Inc. |WEB Address: www.autodesk.com
 90
      129
280
     0
281
     0
  0
CLASS
  1
AEC_DISP_REP_ANCHOR_TAG_TO_ENT
  2
AecDbDispRepAnchorTagToEnt
  3
AecScheduleData50|Product Desc: Autodesk Architectural Desktop 2007 |Company: Autodesk,Inc. |WEB Address: www.autodesk.com
 90
      129
280
     0
281
     0
  0
CLASS
  1
AEC_DISP_REP_ANCHOR_EXT_TAG_TO_ENT
  2
AecDbDispRepAnchorExtendedTagToEnt
  3
AecScheduleData50|Product Desc: Autodesk Architectural Desktop 2007 |Company: Autodesk,Inc. |WEB Address: www.autodesk.com
 90
      129
280
     0
281
     0
  0
CLASS
  1
AEC_DISP_REP_SCHEDULE_TABLE
  2
AecDbDispRepScheduleTable
  3
AecSchedule50|Product Desc: Autodesk Architectural Desktop 2007 |Company: Autodesk,Inc. |WEB Address: www.autodesk.com
 90
      129
280
     0
281
     0
  0
CLASS
  1
AEC_DISP_PROPS_SCHEDULE_TABLE
  2
AecDbDispPropsScheduleTable
  3
AecSchedule50|Product Desc: Autodesk Architectural Desktop 2007 |Company: Autodesk,Inc. |WEB Address: www.autodesk.com
 90
      129
280
     0
281
     0
  0
CLASS
  1
AEC_DISP_REP_BDG_ELEVLINE_MODEL
  2
AecDbDispRepBdgElevLineModel
  3
AecArchBase50|Product Desc: Autodesk Architectural Desktop 2007 |Company: Autodesk,Inc. |WEB Address: www.autodesk.com
 90
      129
280
     0
281
     0
  0
CLASS
  1
AEC_DISP_REP_BDG_SECTIONLINE_PLAN
  2
AecDbDispRepBdgElevLinePlan
  3
AecArchBase50|Product Desc: Autodesk Architectural Desktop 2007 |Company: Autodesk,Inc. |WEB Address: www.autodesk.com
 90
      129
280
     0
281
     0
  0
CLASS
  1
AEC_DISP_REP_BDG_ELEVLINE_RCP
  2
AecDbDispRepBdgElevLineRcp
  3
AecArchBase50|Product Desc: Autodesk Architectural Desktop 2007 |Company: Autodesk,Inc. |WEB Address: www.autodesk.com
 90
      129
280
     0
281
     0
  0
CLASS
  1
AEC_DISP_REP_BDG_SECTIONLINE_MODEL
  2
AecDbDispRepBdgSectionLineModel
  3
AecArchBase50|Product Desc: Autodesk Architectural Desktop 2007 |Company: Autodesk,Inc. |WEB Address: www.autodesk.com
 90
      129
280
     0
281
     0
  0
CLASS
  1
AEC_DISP_REP_BDG_SECTIONLINE_PLAN
  2
AecDbDispRepBdgSectionLinePlan
  3
AecArchBase50|Product Desc: Autodesk Architectural Desktop 2007 |Company: Autodesk,Inc. |WEB Address: www.autodesk.com
 90
      129
280
     0
281
     0
  0
CLASS
  1
AEC_DISP_REP_BDG_SECTIONLINE_RCP
  2
AecDbDispRepBdgSectionLineRcp
  3
AecArchBase50|Product Desc: Autodesk Architectural Desktop 2007 |Company: Autodesk,Inc. |WEB Address: www.autodesk.com
 90
      129
280
     0
281
     0
  0
CLASS
  1
AEC_DISP_REP_BDG_SECTION_MODEL
  2
AecDbDispRepBdgSectionModel
  3
AecArchBase50|Product Desc: Autodesk Architectural Desktop 2007 |Company: Autodesk,Inc. |WEB Address: www.autodesk.com
 90
      129
280
     0
281
     0
  0
CLASS
  1
AEC_DISP_REP_BDG_SECTION_SUBDIV
  2
AecDbDispRepBdgSectionSubDiv
  3
AecArchBase50|Product Desc: Autodesk Architectural Desktop 2007 |Company: Autodesk,Inc. |WEB Address: www.autodesk.com
 90
      129
280
     0
281
     0
  0
CLASS
  1
AEC_DISP_REP_CEILING_GRID
  2
AecDbDispRepCeilingGrid
  3
AecArchBase50|Product Desc: Autodesk Architectural Desktop 2007 |Company: Autodesk,Inc. |WEB Address: www.autodesk.com
 90
      893
280
     0
281
     0
  0
CLASS
  1
AEC_DISP_REP_CEILING_GRID_MODEL
  2
AecDbDispRepCeilingGridModel
  3
AecArchBase50|Product Desc: Autodesk Architectural Desktop 2007 |Company: Autodesk,Inc. |WEB Address: www.autodesk.com
 90
      129
280
     0
281
     0
  0
CLASS
  1
AEC_DISP_REP_CEILING_GRID_RCP
  2
AecDbDispRepCeilingGridRcp
  3
AecArchBase50|Product Desc: Autodesk Architectural Desktop 2007 |Company: Autodesk,Inc. |WEB Address: www.autodesk.com
 90
      129
280
     0
281
     0
  0
CLASS
  1
AEC_DISP_REP_CURTAIN_WALL_LAYOUT_MODEL
  2
AecDbDispRepCurtainWallLayoutModel
  3
AecArchBase50|Product Desc: Autodesk Architectural Desktop 2007 |Company: Autodesk,Inc. |WEB Address: www.autodesk.com
 90
      129
280
     0
281
     0
  0
CLASS
  1
AEC_DISP_PROPS_GRID_ASSEMBLY_MODEL
  2
AecDbDispPropsGridAssemblyModel
  3
AecArchBase50|Product Desc: Autodesk Architectural Desktop 2007 |Company: Autodesk,Inc. |WEB Address: www.autodesk.com
 90
      129
280
     0
281
     0
  0
CLASS
  1
AEC_DISP_REP_CURTAIN_WALL_LAYOUT_PLAN
  2
AecDbDispRepCurtainWallLayoutPlan
  3
AecArchBase50|Product Desc: Autodesk Architectural Desktop 2007 |Company: Autodesk,Inc. |WEB Address: www.autodesk.com
 90
      129
280
     0
281
     0
  0
CLASS
  1
AEC_DISP_PROPS_GRID_ASSEMBLY_PLAN
  2
AecDbDispPropsGridAssemblyPlan
  3
AecArchBase50|Product Desc: Autodesk Architectural Desktop 2007 |Company: Autodesk,Inc. |WEB Address: www.autodesk.com
 90
      129
280
     0
281
     0
  0
CLASS
  1
AEC_DISP_REP_CURTAIN_WALL_UNIT_MODEL
  2
AecDbDispRepCurtainWallUnitModel
  3
AecArchBase50|Product Desc: Autodesk Architectural Desktop 2007 |Company: Autodesk,Inc. |WEB Address: www.autodesk.com
 90
      129
280
     0
281
     0
  0
CLASS
  1
AEC_DISP_REP_CURTAIN_WALL_UNIT_PLAN
  2
AecDbDispRepCurtainWallUnitPlan
  3
AecArchBase50|Product Desc: Autodesk Architectural Desktop 2007 |Company: Autodesk,Inc. |WEB Address: www.autodesk.com
 90
      129
280
     0
281
     0
  0
CLASS
  1
AEC_DISP_REP_DOOR_MODEL
  2
AecDbDispRepDoorModel
  3
AecArchBase50|Product Desc: Autodesk Architectural Desktop 2007 |Company: Autodesk,Inc. |WEB Address: www.autodesk.com
 90
      129
280
     0
281
     0
  0
CLASS
  1
AEC_DISP_PROPS_DOOR
  2
AecDbDispPropsDoor
  3
AecArchBase50|Product Desc: Autodesk Architectural Desktop 2007 |Company: Autodesk,Inc. |WEB Address: www.autodesk.com
 90
      129
280
     0
281
     0
  0
CLASS
  1
AEC_DISP_REP_DOOR_ELEV
  2
AecDbDispRepDoorElev
  3
AecArchBase50|Product Desc: Autodesk Architectural Desktop 2007 |Company: Autodesk,Inc. |WEB Address: www.autodesk.com
 90
      129
280
     0
281
     0
  0
CLASS
  1
AEC_DISP_REP_DOOR_PLAN
  2
AecDbDispRepDoorPlan
  3
AecArchBase50|Product Desc: Autodesk Architectural Desktop 2007 |Company: Autodesk,Inc. |WEB Address: www.autodesk.com
 90
      129
280
     0
281
     0
  0
CLASS
  1
AEC_DISP_REP_DOOR_NOMINAL
  2
AecDbDispRepDoorNominal
  3
AecArchBase50|Product Desc: Autodesk Architectural Desktop 2007 |Company: Autodesk,Inc. |WEB Address: www.autodesk.com
 90
      129
280
     0
281
     0
  0
CLASS
  1
AEC_DISP_PROPS_DOOR_NOMINAL
  2
AecDbDispPropsDoorNominal
  3
AecArchBase50|Product Desc: Autodesk Architectural Desktop 2007 |Company: Autodesk,Inc. |WEB Address: www.autodesk.com
 90
      129
280
     0
281
     0
  0
CLASS
  1
AEC_DISP_REP_DOOR_RCP
  2
AecDbDispRepDoorRcp
  3
AecArchBase50|Product Desc: Autodesk Architectural Desktop 2007 |Company: Autodesk,Inc. |WEB Address: www.autodesk.com
 90
      129
280
     0
281
     0
  0
CLASS
  1
AEC_DISP_REP_DOOR_THRESHOLD_PLAN
  2
AecDbDispRepDoorThresholdPlan
  3
AecArchBase50|Product Desc: Autodesk Architectural Desktop 2007 |Company: Autodesk,Inc. |WEB Address: www.autodesk.com
 90
      129
280
     0
281
     0
  0
CLASS
  1
AEC_DISP_PROPS_DOOR_THRESHOLD_PLAN
  2
AecDbDispPropsDoorThresholdPlan
  3
AecArchBase50|Product Desc: Autodesk Architectural Desktop 2007 |Company: Autodesk,Inc. |WEB Address: www.autodesk.com
 90
      129
280
     0
281
     0
  0
CLASS
  1
AEC_DISP_REP_MASKBLOCK_REF_RCP
  2
AecDbDispRepMaskBlockRefRcp
  3
AecArchBase50|Product Desc: Autodesk Architectural Desktop 2007 |Company: Autodesk,Inc. |WEB Address: www.autodesk.com
 90
      129
280
     0
281
     0
  0
CLASS
  1
AEC_DISP_REP_MASS_ELEM_RCP
  2
AecDbDispRepMassElemRcp
  3
AecArchBase50|Product Desc: Autodesk Architectural Desktop 2007 |Company: Autodesk,Inc. |WEB Address: www.autodesk.com
 90
      129
280
     0
281
     0
  0
CLASS
  1
AEC_DISP_REP_MASS_GROUP_RCP
  2
AecDbDispRepMassGroupRcp
  3
AecArchBase50|Product Desc: Autodesk Architectural Desktop 2007 |Company: Autodesk,Inc. |WEB Address: www.autodesk.com
 90
      129
280
     0
281
     0
  0
CLASS
  1
AEC_DISP_REP_MVBLOCK_REF_RCP
  2
AecDbDispRepMvBlockRefRcp
  3
AecArchBase50|Product Desc: Autodesk Architectural Desktop 2007 |Company: Autodesk,Inc. |WEB Address: www.autodesk.com
 90
      129
280
     0
281
     0
  0
CLASS
  1
AEC_DISP_REP_OPENING
  2
AecDbDispRepOpening
  3
AecArchBase50|Product Desc: Autodesk Architectural Desktop 2007 |Company: Autodesk,Inc. |WEB Address: www.autodesk.com
 90
      129
280
     0
281
     0
  0
CLASS
  1
AEC_DISP_PROPS_OPENING
  2
AecDbDispPropsOpening
  3
AecArchBase50|Product Desc: Autodesk Architectural Desktop 2007 |Company: Autodesk,Inc. |WEB Address: www.autodesk.com
 90
      129
280
     0
281
     0
  0
CLASS
  1
AEC_DISP_REP_OPENING_MODEL
  2
AecDbDispRepOpeningModel
  3
AecArchBase50|Product Desc: Autodesk Architectural Desktop 2007 |Company: Autodesk,Inc. |WEB Address: www.autodesk.com
 90
      129
280
     0
281
     0
  0
CLASS
  1
AEC_DISP_REP_RAILING_MODEL
  2
AecDbDispRepRailingModel
  3
AecArchBase50|Product Desc: Autodesk Architectural Desktop 2007 |Company: Autodesk,Inc. |WEB Address: www.autodesk.com
 90
      129
280
     0
281
     0
  0
CLASS
  1
AEC_DISP_PROPS_RAILING_MODEL
  2
AecDbDispPropsRailingModel
  3
AecArchBase50|Product Desc: Autodesk Architectural Desktop 2007 |Company: Autodesk,Inc. |WEB Address: www.autodesk.com
 90
      129
280
     0
281
     0
  0
CLASS
  1
AEC_DISP_REP_RAILING_PLAN
  2
AecDbDispRepRailingPlan
  3
AecArchBase50|Product Desc: Autodesk Architectural Desktop 2007 |Company: Autodesk,Inc. |WEB Address: www.autodesk.com
 90
      129
280
     0
281
     0
  0
CLASS
  1
AEC_DISP_PROPS_RAILING_PLAN
  2
AecDbDispPropsRailingPlan
  3
AecArchBase50|Product Desc: Autodesk Architectural Desktop 2007 |Company: Autodesk,Inc. |WEB Address: www.autodesk.com
 90
      129
280
     0
281
     0
  0
CLASS
  1
AEC_DISP_REP_ROOF_MODEL
  2
AecDbDispRepRoofModel
  3
AecArchBase50|Product Desc: Autodesk Architectural Desktop 2007 |Company: Autodesk,Inc. |WEB Address: www.autodesk.com
 90
      129
280
     0
281
     0
  0
CLASS
  1
AEC_DISP_PROPS_ROOF
  2
AecDbDispPropsRoof
  3
AecArchBase50|Product Desc: Autodesk Architectural Desktop 2007 |Company: Autodesk,Inc. |WEB Address: www.autodesk.com
 90
      129
280
     0
281
     0
  0
CLASS
  1
AEC_DISP_REP_ROOF_PLAN
  2
AecDbDispRepRoofPlan
  3
AecArchBase50|Product Desc: Autodesk Architectural Desktop 2007 |Company: Autodesk,Inc. |WEB Address: www.autodesk.com
 90
      129
280
     0
281
     0
  0
CLASS
  1
AEC_DISP_REP_ROOF_RCP
  2
AecDbDispRepRoofRcp
  3
AecArchBase50|Product Desc: Autodesk Architectural Desktop 2007 |Company: Autodesk,Inc. |WEB Address: www.autodesk.com
 90
      129
280
     0
281
     0
  0
CLASS
  1
AEC_DISP_REP_SLAB_MODEL
  2
AecDbDispRepSlabModel
  3
AecArchBase50|Product Desc: Autodesk Architectural Desktop 2007 |Company: Autodesk,Inc. |WEB Address: www.autodesk.com
 90
      129
280
     0
281
     0
  0
CLASS
  1
AEC_DISP_PROPS_SLAB
  2
AecDbDispPropsSlab
  3
AecArchBase50|Product Desc: Autodesk Architectural Desktop 2007 |Company: Autodesk,Inc. |WEB Address: www.autodesk.com
 90
      129
280
     0
281
     0
  0
CLASS
  1
AEC_DISP_REP_ROOFSLAB_MODEL
  2
AecDbDispRepRoofSlabModel
  3
AecArchBase50|Product Desc: Autodesk Architectural Desktop 2007 |Company: Autodesk,Inc. |WEB Address: www.autodesk.com
 90
      129
280
     0
281
     0
  0
CLASS
  1
AEC_DISP_PROPS_ROOFSLAB
  2
AecDbDispPropsRoofSlab
  3
AecArchBase50|Product Desc: Autodesk Architectural Desktop 2007 |Company: Autodesk,Inc. |WEB Address: www.autodesk.com
 90
      129
280
     0
281
     0
  0
CLASS
  1
AEC_DISP_REP_SLAB_PLAN
  2
AecDbDispRepSlabPlan
  3
AecArchBase50|Product Desc: Autodesk Architectural Desktop 2007 |Company: Autodesk,Inc. |WEB Address: www.autodesk.com
 90
      129
280
     0
281
     0
  0
CLASS
  1
AEC_DISP_PROPS_SLAB_PLAN
  2
AecDbDispPropsSlabPlan
  3
AecArchBase50|Product Desc: Autodesk Architectural Desktop 2007 |Company: Autodesk,Inc. |WEB Address: www.autodesk.com
 90
      129
280
     0
281
     0
  0
CLASS
  1
AEC_DISP_REP_ROOFSLAB_PLAN
  2
AecDbDispRepRoofSlabPlan
  3
AecArchBase50|Product Desc: Autodesk Architectural Desktop 2007 |Company: Autodesk,Inc. |WEB Address: www.autodesk.com
 90
      129
280
     0
281
     0
  0
CLASS
  1
AEC_DISP_PROPS_ROOFSLAB_PLAN
  2
AecDbDispPropsRoofSlabPlan
  3
AecArchBase50|Product Desc: Autodesk Architectural Desktop 2007 |Company: Autodesk,Inc. |WEB Address: www.autodesk.com
 90
      129
280
     0
281
     0
  0
CLASS
  1
AEC_DISP_REP_SPACE_DECOMPOSED
  2
AecDbDispRepSpaceDecomposed
  3
AecArchBase50|Product Desc: Autodesk Architectural Desktop 2007 |Company: Autodesk,Inc. |WEB Address: www.autodesk.com
 90
      129
280
     0
281
     0
  0
CLASS
  1
AEC_DISP_PROPS_SPACE_DECOMPOSED
  2
AecDbDispPropsSpaceDecomposed
  3
AecArchBase50|Product Desc: Autodesk Architectural Desktop 2007 |Company: Autodesk,Inc. |WEB Address: www.autodesk.com
 90
      129
280
     0
281
     0
  0
CLASS
  1
AEC_DISP_REP_SPACE_MODEL
  2
AecDbDispRepSpaceModel
  3
AecArchBase50|Product Desc: Autodesk Architectural Desktop 2007 |Company: Autodesk,Inc. |WEB Address: www.autodesk.com
 90
      129
280
     0
281
     0
  0
CLASS
  1
AEC_DISP_PROPS_SPACE_MODEL
  2
AecDbDispPropsSpaceModel
  3
AecArchBase50|Product Desc: Autodesk Architectural Desktop 2007 |Company: Autodesk,Inc. |WEB Address: www.autodesk.com
 90
      129
280
     0
281
     0
  0
CLASS
  1
AEC_DISP_REP_SPACE_PLAN
  2
AecDbDispRepSpacePlan
  3
AecArchBase50|Product Desc: Autodesk Architectural Desktop 2007 |Company: Autodesk,Inc. |WEB Address: www.autodesk.com
 90
      129
280
     0
281
     0
  0
CLASS
  1
AEC_DISP_PROPS_SPACE_PLAN
  2
AecDbDispPropsSpacePlan
  3
AecArchBase50|Product Desc: Autodesk Architectural Desktop 2007 |Company: Autodesk,Inc. |WEB Address: www.autodesk.com
 90
      129
280
     0
281
     0
  0
CLASS
  1
AEC_DISP_REP_SPACE_RCP
  2
AecDbDispRepSpaceRcp
  3
AecArchBase50|Product Desc: Autodesk Architectural Desktop 2007 |Company: Autodesk,Inc. |WEB Address: www.autodesk.com
 90
      129
280
     0
281
     0
  0
CLASS
  1
AEC_DISP_REP_SPACE_VOLUME
  2
AecDbDispRepSpaceVolume
  3
AecArchBase50|Product Desc: Autodesk Architectural Desktop 2007 |Company: Autodesk,Inc. |WEB Address: www.autodesk.com
 90
      129
280
     0
281
     0
  0
CLASS
  1
AEC_DISP_REP_STAIR_MODEL
  2
AecDbDispRepStairModel
  3
AecArchBase50|Product Desc: Autodesk Architectural Desktop 2007 |Company: Autodesk,Inc. |WEB Address: www.autodesk.com
 90
      129
280
     0
281
     0
  0
CLASS
  1
AEC_DISP_PROPS_STAIR_MODEL
  2
AecDbDispPropsStairModel
  3
AecArchBase50|Product Desc: Autodesk Architectural Desktop 2007 |Company: Autodesk,Inc. |WEB Address: www.autodesk.com
 90
      129
280
     0
281
     0
  0
CLASS
  1
AEC_DISP_REP_STAIR_PLAN
  2
AecDbDispRepStairPlan
  3
AecArchBase50|Product Desc: Autodesk Architectural Desktop 2007 |Company: Autodesk,Inc. |WEB Address: www.autodesk.com
 90
      129
280
     0
281
     0
  0
CLASS
  1
AEC_DISP_PROPS_STAIR_PLAN
  2
AecDbDispPropsStairPlan
  3
AecArchBase50|Product Desc: Autodesk Architectural Desktop 2007 |Company: Autodesk,Inc. |WEB Address: www.autodesk.com
 90
      129
280
     0
281
     0
  0
CLASS
  1
AEC_DISP_REP_STAIR_PLAN_OVERLAPPING
  2
AecDbDispRepStairPlanOverlapping
  3
AecArchBase50|Product Desc: Autodesk Architectural Desktop 2007 |Company: Autodesk,Inc. |WEB Address: www.autodesk.com
 90
      129
280
     0
281
     0
  0
CLASS
  1
AEC_DISP_PROPS_STAIR_PLAN_OVERLAPPING
  2
AecDbDispPropsStairPlanOverlapping
  3
AecArchBase50|Product Desc: Autodesk Architectural Desktop 2007 |Company: Autodesk,Inc. |WEB Address: www.autodesk.com
 90
      129
280
     0
281
     0
  0
CLASS
  1
AEC_DISP_REP_STAIR_RCP
  2
AecDbDispRepStairRcp
  3
AecArchBase50|Product Desc: Autodesk Architectural Desktop 2007 |Company: Autodesk,Inc. |WEB Address: www.autodesk.com
 90
      129
280
     0
281
     0
  0
CLASS
  1
AEC_DISP_REP_WALL_GRAPH
  2
AecDbDispRepWallGraph
  3
AecArchBase50|Product Desc: Autodesk Architectural Desktop 2007 |Company: Autodesk,Inc. |WEB Address: www.autodesk.com
 90
      129
280
     0
281
     0
  0
CLASS
  1
AEC_DISP_PROPS_WALL_GRAPH
  2
AecDbDispPropsWallGraph
  3
AecArchBase50|Product Desc: Autodesk Architectural Desktop 2007 |Company: Autodesk,Inc. |WEB Address: www.autodesk.com
 90
      129
280
     0
281
     0
  0
CLASS
  1
AEC_DISP_REP_WALL_MODEL
  2
AecDbDispRepWallModel
  3
AecArchBase50|Product Desc: Autodesk Architectural Desktop 2007 |Company: Autodesk,Inc. |WEB Address: www.autodesk.com
 90
      129
280
     0
281
     0
  0
CLASS
  1
AEC_DISP_PROPS_WALL_MODEL
  2
AecDbDispPropsWallModel
  3
AecArchBase50|Product Desc: Autodesk Architectural Desktop 2007 |Company: Autodesk,Inc. |WEB Address: www.autodesk.com
 90
      129
280
     0
281
     0
  0
CLASS
  1
AEC_DISP_REP_WALL_PLAN
  2
AecDbDispRepWallPlan
  3
AecArchBase50|Product Desc: Autodesk Architectural Desktop 2007 |Company: Autodesk,Inc. |WEB Address: www.autodesk.com
 90
      129
280
     0
281
     0
  0
CLASS
  1
AEC_DISP_PROPS_WALL_PLAN
  2
AecDbDispPropsWallPlan
  3
AecArchBase50|Product Desc: Autodesk Architectural Desktop 2007 |Company: Autodesk,Inc. |WEB Address: www.autodesk.com
 90
      129
280
     0
281
     0
  0
CLASS
  1
AEC_DISP_REP_WALL_RCP
  2
AecDbDispRepWallRcp
  3
AecArchBase50|Product Desc: Autodesk Architectural Desktop 2007 |Company: Autodesk,Inc. |WEB Address: www.autodesk.com
 90
      129
280
     0
281
     0
  0
CLASS
  1
AEC_DISP_REP_WALL_SCHEM
  2
AecDbDispRepWallSchem
  3
AecArchBase50|Product Desc: Autodesk Architectural Desktop 2007 |Company: Autodesk,Inc. |WEB Address: www.autodesk.com
 90
      129
280
     0
281
     0
  0
CLASS
  1
AEC_DISP_PROPS_WALL_SCHEM
  2
AecDbDispPropsWallSchem
  3
AecArchBase50|Product Desc: Autodesk Architectural Desktop 2007 |Company: Autodesk,Inc. |WEB Address: www.autodesk.com
 90
      129
280
     0
281
     0
  0
CLASS
  1
AEC_DISP_REP_WINDOW_ASSEMBLY_MODEL
  2
AecDbDispRepWindowAssemblyModel
  3
AecArchBase50|Product Desc: Autodesk Architectural Desktop 2007 |Company: Autodesk,Inc. |WEB Address: www.autodesk.com
 90
      129
280
     0
281
     0
  0
CLASS
  1
AEC_DISP_REP_WINDOW_ASSEMBLY_PLAN
  2
AecDbDispRepWindowAssemblyPlan
  3
AecArchBase50|Product Desc: Autodesk Architectural Desktop 2007 |Company: Autodesk,Inc. |WEB Address: www.autodesk.com
 90
      129
280
     0
281
     0
  0
CLASS
  1
AEC_DISP_REP_WINDOWASSEMBLY_SILL_PLAN
  2
AecDbDispRepWindowAssemblySillPlan
  3
AecArchBase50|Product Desc: Autodesk Architectural Desktop 2007 |Company: Autodesk,Inc. |WEB Address: www.autodesk.com
 90
      129
280
     0
281
     0
  0
CLASS
  1
AEC_DISP_PROPS_WINDOW_ASSEMBLY_SILL_PLAN
  2
AecDbDispPropsWindowAssemblySillPlan
  3
AecArchBase50|Product Desc: Autodesk Architectural Desktop 2007 |Company: Autodesk,Inc. |WEB Address: www.autodesk.com
 90
      129
280
     0
281
     0
  0
CLASS
  1
AEC_DISP_REP_WINDOW_MODEL
  2
AecDbDispRepWindowModel
  3
AecArchBase50|Product Desc: Autodesk Architectural Desktop 2007 |Company: Autodesk,Inc. |WEB Address: www.autodesk.com
 90
      129
280
     0
281
     0
  0
CLASS
  1
AEC_DISP_PROPS_WINDOW
  2
AecDbDispPropsWindow
  3
AecArchBase50|Product Desc: Autodesk Architectural Desktop 2007 |Company: Autodesk,Inc. |WEB Address: www.autodesk.com
 90
      129
280
     0
281
     0
  0
CLASS
  1
AEC_DISP_REP_WINDOW_ELEV
  2
AecDbDispRepWindowElev
  3
AecArchBase50|Product Desc: Autodesk Architectural Desktop 2007 |Company: Autodesk,Inc. |WEB Address: www.autodesk.com
 90
      129
280
     0
281
     0
  0
CLASS
  1
AEC_DISP_REP_WINDOW_PLAN
  2
AecDbDispRepWindowPlan
  3
AecArchBase50|Product Desc: Autodesk Architectural Desktop 2007 |Company: Autodesk,Inc. |WEB Address: www.autodesk.com
 90
      129
280
     0
281
     0
  0
CLASS
  1
AEC_DISP_REP_WINDOW_NOMINAL
  2
AecDbDispRepWindowNominal
  3
AecArchBase50|Product Desc: Autodesk Architectural Desktop 2007 |Company: Autodesk,Inc. |WEB Address: www.autodesk.com
 90
      129
280
     0
281
     0
  0
CLASS
  1
AEC_DISP_PROPS_WINDOW_NOMINAL
  2
AecDbDispPropsWindowNominal
  3
AecArchBase50|Product Desc: Autodesk Architectural Desktop 2007 |Company: Autodesk,Inc. |WEB Address: www.autodesk.com
 90
      129
280
     0
281
     0
  0
CLASS
  1
AEC_DISP_REP_WINDOW_RCP
  2
AecDbDispRepWindowRcp
  3
AecArchBase50|Product Desc: Autodesk Architectural Desktop 2007 |Company: Autodesk,Inc. |WEB Address: www.autodesk.com
 90
      129
280
     0
281
     0
  0
CLASS
  1
AEC_DISP_REP_WINDOW_SILL_PLAN
  2
AecDbDispRepWindowSillPlan
  3
AecArchBase50|Product Desc: Autodesk Architectural Desktop 2007 |Company: Autodesk,Inc. |WEB Address: www.autodesk.com
 90
      129
280
     0
281
     0
  0
CLASS
  1
AEC_DISP_PROPS_WINDOW_SILL_PLAN
  2
AecDbDispPropsWindowSillPlan
  3
AecArchBase50|Product Desc: Autodesk Architectural Desktop 2007 |Company: Autodesk,Inc. |WEB Address: www.autodesk.com
 90
      129
280
     0
281
     0
  0
CLASS
  1
AEC_DISP_REP_ZONE
  2
AecDbDispRepZone
  3
AecArchBase50|Product Desc: Autodesk Architectural Desktop 2007 |Company: Autodesk,Inc. |WEB Address: www.autodesk.com
 90
      129
280
     0
281
     0
  0
CLASS
  1
AEC_DISP_PROPS_ZONE
  2
AecDbDispPropsZone
  3
AecArchBase50|Product Desc: Autodesk Architectural Desktop 2007 |Company: Autodesk,Inc. |WEB Address: www.autodesk.com
 90
      129
280
     0
281
     0
  0
CLASS
  1
AEC_DISP_REP_ANCHOR_BUB_TO_GRID
  2
AecDbDispRepAnchorBubToGrid
  3
AecStructureBase50|Product Desc: Autodesk Architectural Desktop 2007 |Company: Autodesk,Inc. |WEB Address: www.autodesk.com
 90
      129
280
     0
281
     0
  0
CLASS
  1
AEC_DISP_REP_ANCHOR_BUB_TO_GRID_MODEL
  2
AecDbDispRepAnchorBubToGridMdl
  3
AecStructureBase50|Product Desc: Autodesk Architectural Desktop 2007 |Company: Autodesk,Inc. |WEB Address: www.autodesk.com
 90
      129
280
     0
281
     0
  0
CLASS
  1
AEC_DISP_REP_ANCHOR_BUB_TO_GRID_RCP
  2
AecDbDispRepAnchorBubToGridRcp
  3
AecStructureBase50|Product Desc: Autodesk Architectural Desktop 2007 |Company: Autodesk,Inc. |WEB Address: www.autodesk.com
 90
      129
280
     0
281
     0
  0
CLASS
  1
AEC_DISP_REP_COLUMN_GRID
  2
AecDbDispRepColumnGrid
  3
AecStructureBase50|Product Desc: Autodesk Architectural Desktop 2007 |Company: Autodesk,Inc. |WEB Address: www.autodesk.com
 90
      129
280
     0
281
     0
  0
CLASS
  1
AEC_DISP_REP_COLUMN_GRID_MODEL
  2
AecDbDispRepColumnGridModel
  3
AecStructureBase50|Product Desc: Autodesk Architectural Desktop 2007 |Company: Autodesk,Inc. |WEB Address: www.autodesk.com
 90
      129
280
     0
281
     0
  0
CLASS
  1
AEC_DISP_REP_COLUMN_GRID_RCP
  2
AecDbDispRepColumnGridRcp
  3
AecStructureBase50|Product Desc: Autodesk Architectural Desktop 2007 |Company: Autodesk,Inc. |WEB Address: www.autodesk.com
 90
      129
280
     0
281
     0
  0
CLASS
  1
AECS_DISP_REP_MEMBER_ELEVATION_DESIGN
  2
AecsDbDispRepMemberElevationDesign
  3
AecStructureBase50|Product Desc: Autodesk Architectural Desktop 2007 |Company: Autodesk,Inc. |WEB Address: www.autodesk.com
 90
      129
280
     0
281
     0
  0
CLASS
  1
AECS_DISP_PROPS_MEMBER_PROJECTED
  2
AecsDbDispPropsMemberProjected
  3
AecStructureBase50|Product Desc: Autodesk Architectural Desktop 2007 |Company: Autodesk,Inc. |WEB Address: www.autodesk.com
 90
      129
280
     0
281
     0
  0
CLASS
  1
AECS_DISP_REP_MEMBER_ELEVATION_DETAIL
  2
AecsDbDispRepMemberElevationDetail
  3
AecStructureBase50|Product Desc: Autodesk Architectural Desktop 2007 |Company: Autodesk,Inc. |WEB Address: www.autodesk.com
 90
      129
280
     0
281
     0
  0
CLASS
  1
AECS_DISP_REP_MEMBER_LOGICAL
  2
AecsDbDispRepMemberLogical
  3
AecStructureBase50|Product Desc: Autodesk Architectural Desktop 2007 |Company: Autodesk,Inc. |WEB Address: www.autodesk.com
 90
      129
280
     0
281
     0
  0
CLASS
  1
AECS_DISP_PROPS_MEMBER_LOGICAL
  2
AecsDbDispPropsMemberLogical
  3
AecStructureBase50|Product Desc: Autodesk Architectural Desktop 2007 |Company: Autodesk,Inc. |WEB Address: www.autodesk.com
 90
      129
280
     0
281
     0
  0
CLASS
  1
AECS_DISP_REP_MEMBER_MODEL_DESIGN
  2
AecsDbDispRepMemberModelDesign
  3
AecStructureBase50|Product Desc: Autodesk Architectural Desktop 2007 |Company: Autodesk,Inc. |WEB Address: www.autodesk.com
 90
      129
280
     0
281
     0
  0
CLASS
  1
AECS_DISP_PROPS_MEMBER
  2
AecsDbDispPropsMember
  3
AecStructureBase50|Product Desc: Autodesk Architectural Desktop 2007 |Company: Autodesk,Inc. |WEB Address: www.autodesk.com
 90
      129
280
     0
281
     0
  0
CLASS
  1
AECS_DISP_REP_MEMBER_MODEL_DETAIL
  2
AecsDbDispRepMemberModelDetail
  3
AecStructureBase50|Product Desc: Autodesk Architectural Desktop 2007 |Company: Autodesk,Inc. |WEB Address: www.autodesk.com
 90
      129
280
     0
281
     0
  0
CLASS
  1
AECS_DISP_REP_MEMBER_PLAN_DESIGN
  2
AecsDbDispRepMemberPlanDesign
  3
AecStructureBase50|Product Desc: Autodesk Architectural Desktop 2007 |Company: Autodesk,Inc. |WEB Address: www.autodesk.com
 90
      129
280
     0
281
     0
  0
CLASS
  1
AECS_DISP_PROPS_MEMBER_PLAN
  2
AecsDbDispPropsMemberPlan
  3
AecStructureBase50|Product Desc: Autodesk Architectural Desktop 2007 |Company: Autodesk,Inc. |WEB Address: www.autodesk.com
 90
      129
280
     0
281
     0
  0
CLASS
  1
AECS_DISP_REP_MEMBER_PLAN_DETAIL
  2
AecsDbDispRepMemberPlanDetail
  3
AecStructureBase50|Product Desc: Autodesk Architectural Desktop 2007 |Company: Autodesk,Inc. |WEB Address: www.autodesk.com
 90
      129
280
     0
281
     0
  0
CLASS
  1
AECS_DISP_REP_MEMBER_PLAN_SKETCH
  2
AecsDbDispRepMemberPlanSketch
  3
AecStructureBase50|Product Desc: Autodesk Architectural Desktop 2007 |Company: Autodesk,Inc. |WEB Address: www.autodesk.com
 90
      129
280
     0
281
     0
  0
CLASS
  1
AECS_DISP_PROPS_MEMBER_PLAN_SKETCH
  2
AecsDbDispPropsMemberPlanSketch
  3
AecStructureBase50|Product Desc: Autodesk Architectural Desktop 2007 |Company: Autodesk,Inc. |WEB Address: www.autodesk.com
 90
      129
280
     0
281
     0
  0
CLASS
  1
AEC_AECDBDISPREPBDGELEVLINEPLAN100
  2
AecDbDispRepBdgElevLinePlan100
  3
AecArchDACHBase50|Product Desc: Autodesk Architectural Desktop 2007 |Company: Autodesk,Inc. |WEB Address: www.autodesk.com
 90
      129
280
     0
281
     0
  0
CLASS
  1
AEC_AECDBDISPREPBDGSECTIONLINEPLAN100
  2
AecDbDispRepBdgSectionLinePlan100
  3
AecArchDACHBase50|Product Desc: Autodesk Architectural Desktop 2007 |Company: Autodesk,Inc. |WEB Address: www.autodesk.com
 90
      129
280
     0
281
     0
  0
CLASS
  1
AEC_AECDBDISPREPCEILINGGRIDPLAN100
  2
AecDbDispRepCeilingGridPlan100
  3
AecArchDACHBase50|Product Desc: Autodesk Architectural Desktop 2007 |Company: Autodesk,Inc. |WEB Address: www.autodesk.com
 90
      129
280
     0
281
     0
  0
CLASS
  1
AEC_AECDBDISPREPCOLUMNGRIDPLAN100
  2
AecDbDispRepColumnGridPlan100
  3
AecArchDACHBase50|Product Desc: Autodesk Architectural Desktop 2007 |Company: Autodesk,Inc. |WEB Address: www.autodesk.com
 90
      129
280
     0
281
     0
  0
CLASS
  1
AEC_AECDBDISPREPCURTAINWALLLAYOUTPLAN100
  2
AecDbDispRepCurtainWallLayoutPlan100
  3
AecArchDACHBase50|Product Desc: Autodesk Architectural Desktop 2007 |Company: Autodesk,Inc. |WEB Address: www.autodesk.com
 90
      129
280
     0
281
     0
  0
CLASS
  1
AEC_AECDBDISPREPCURTAINWALLUNITPLAN100
  2
AecDbDispRepCurtainWallUnitPlan100
  3
AecArchDACHBase50|Product Desc: Autodesk Architectural Desktop 2007 |Company: Autodesk,Inc. |WEB Address: www.autodesk.com
 90
      129
280
     0
281
     0
  0
CLASS
  1
AEC_AECDBDISPREPMVBLOCKREFPLAN100
  2
AecDbDispRepMvBlockRefPlan100
  3
AecArchDACHBase50|Product Desc: Autodesk Architectural Desktop 2007 |Company: Autodesk,Inc. |WEB Address: www.autodesk.com
 90
      129
280
     0
281
     0
  0
CLASS
  1
AEC_AECDBDISPREPROOFPLAN100
  2
AecDbDispRepRoofPlan100
  3
AecArchDACHBase50|Product Desc: Autodesk Architectural Desktop 2007 |Company: Autodesk,Inc. |WEB Address: www.autodesk.com
 90
      129
280
     0
281
     0
  0
CLASS
  1
AEC_AECDBDISPREPROOFSLABPLAN100
  2
AecDbDispRepRoofSlabPlan100
  3
AecArchDACHBase50|Product Desc: Autodesk Architectural Desktop 2007 |Company: Autodesk,Inc. |WEB Address: www.autodesk.com
 90
      129
280
     0
281
     0
  0
CLASS
  1
AEC_AECDBDISPREPSLABPLAN100
  2
AecDbDispRepSlabPlan100
  3
AecArchDACHBase50|Product Desc: Autodesk Architectural Desktop 2007 |Company: Autodesk,Inc. |WEB Address: www.autodesk.com
 90
      129
280
     0
281
     0
  0
CLASS
  1
AEC_AECDBDISPREPSPACEPLAN100
  2
AecDbDispRepSpacePlan100
  3
AecArchDACHBase50|Product Desc: Autodesk Architectural Desktop 2007 |Company: Autodesk,Inc. |WEB Address: www.autodesk.com
 90
      129
280
     0
281
     0
  0
CLASS
  1
AEC_AECDBDISPREPWALLPLAN100
  2
AecDbDispRepWallPlan100
  3
AecArchDACHBase50|Product Desc: Autodesk Architectural Desktop 2007 |Company: Autodesk,Inc. |WEB Address: www.autodesk.com
 90
      129
280
     0
281
     0
  0
CLASS
  1
AEC_AECDBDISPREPWINDOWASSEMBLYPLAN100
  2
AecDbDispRepWindowAssemblyPlan100
  3
AecArchDACHBase50|Product Desc: Autodesk Architectural Desktop 2007 |Company: Autodesk,Inc. |WEB Address: www.autodesk.com
 90
      129
280
     0
281
     0
  0
CLASS
  1
AEC_AECDBDISPREPZONE100
  2
AecDbDispRepZonePlan100
  3
AecArchDACHBase50|Product Desc: Autodesk Architectural Desktop 2007 |Company: Autodesk,Inc. |WEB Address: www.autodesk.com
 90
      129
280
     0
281
     0
  0
CLASS
  1
AEC_AECDBDISPREPBDGELEVLINEPLAN50
  2
AecDbDispRepBdgElevLinePlan50
  3
AecArchDACHBase50|Product Desc: Autodesk Architectural Desktop 2007 |Company: Autodesk,Inc. |WEB Address: www.autodesk.com
 90
      129
280
     0
281
     0
  0
CLASS
  1
AEC_AECDBDISPREPBDGSECTIONLINEPLAN50
  2
AecDbDispRepBdgSectionLinePlan50
  3
AecArchDACHBase50|Product Desc: Autodesk Architectural Desktop 2007 |Company: Autodesk,Inc. |WEB Address: www.autodesk.com
 90
      129
280
     0
281
     0
  0
CLASS
  1
AEC_AECDBDISPREPCEILINGGRIDPLAN50
  2
AecDbDispRepCeilingGridPlan50
  3
AecArchDACHBase50|Product Desc: Autodesk Architectural Desktop 2007 |Company: Autodesk,Inc. |WEB Address: www.autodesk.com
 90
      129
280
     0
281
     0
  0
CLASS
  1
AEC_AECDBDISPREPCOLUMNGRIDPLAN50
  2
AecDbDispRepColumnGridPlan50
  3
AecArchDACHBase50|Product Desc: Autodesk Architectural Desktop 2007 |Company: Autodesk,Inc. |WEB Address: www.autodesk.com
 90
      129
280
     0
281
     0
  0
CLASS
  1
AEC_AECDBDISPREPCURTAINWALLLAYOUTPLAN50
  2
AecDbDispRepCurtainWallLayoutPlan50
  3
AecArchDACHBase50|Product Desc: Autodesk Architectural Desktop 2007 |Company: Autodesk,Inc. |WEB Address: www.autodesk.com
 90
      129
280
     0
281
     0
  0
CLASS
  1
AEC_AECDBDISPREPCURTAINWALLUNITPLAN50
  2
AecDbDispRepCurtainWallUnitPlan50
  3
AecArchDACHBase50|Product Desc: Autodesk Architectural Desktop 2007 |Company: Autodesk,Inc. |WEB Address: www.autodesk.com
 90
      129
280
     0
281
     0
  0
CLASS
  1
AEC_AECDBDISPREPMVBLOCKREFPLAN50
  2
AecDbDispRepMvBlockRefPlan50
  3
AecArchDACHBase50|Product Desc: Autodesk Architectural Desktop 2007 |Company: Autodesk,Inc. |WEB Address: www.autodesk.com
 90
      129
280
     0
281
     0
  0
CLASS
  1
AEC_AECDBDISPREPROOFPLAN50
  2
AecDbDispRepRoofPlan50
  3
AecArchDACHBase50|Product Desc: Autodesk Architectural Desktop 2007 |Company: Autodesk,Inc. |WEB Address: www.autodesk.com
 90
      129
280
     0
281
     0
  0
CLASS
  1
AEC_AECDBDISPREPROOFSLABPLAN50
  2
AecDbDispRepRoofSlabPlan50
  3
AecArchDACHBase50|Product Desc: Autodesk Architectural Desktop 2007 |Company: Autodesk,Inc. |WEB Address: www.autodesk.com
 90
      129
280
     0
281
     0
  0
CLASS
  1
AEC_AECDBDISPREPSLABPLAN50
  2
AecDbDispRepSlabPlan50
  3
AecArchDACHBase50|Product Desc: Autodesk Architectural Desktop 2007 |Company: Autodesk,Inc. |WEB Address: www.autodesk.com
 90
      129
280
     0
281
     0
  0
CLASS
  1
AEC_AECDBDISPREPSPACEPLAN50
  2
AecDbDispRepSpacePlan50
  3
AecArchDACHBase50|Product Desc: Autodesk Architectural Desktop 2007 |Company: Autodesk,Inc. |WEB Address: www.autodesk.com
 90
      129
280
     0
281
     0
  0
CLASS
  1
AEC_AECDBDISPREPWALLPLAN50
  2
AecDbDispRepWallPlan50
  3
AecArchDACHBase50|Product Desc: Autodesk Architectural Desktop 2007 |Company: Autodesk,Inc. |WEB Address: www.autodesk.com
 90
      129
280
     0
281
     0
  0
CLASS
  1
AEC_AECDBDISPREPWINDOWASSEMBLYPLAN50
  2
AecDbDispRepWindowAssemblyPlan50
  3
AecArchDACHBase50|Product Desc: Autodesk Architectural Desktop 2007 |Company: Autodesk,Inc. |WEB Address: www.autodesk.com
 90
      129
280
     0
281
     0
  0
CLASS
  1
AEC_AECDBDISPREPZONE50
  2
AecDbDispRepZonePlan50
  3
AecArchDACHBase50|Product Desc: Autodesk Architectural Desktop 2007 |Company: Autodesk,Inc. |WEB Address: www.autodesk.com
 90
      129
280
     0
281
     0
  0
CLASS
  1
AEC_DB_DISP_REP_DIM_GROUP_PLAN100
  2
AecDbDispRepDimGroupPlan100
  3
AecArchDACHBase50|Product Desc: Autodesk Architectural Desktop 2007 |Company: Autodesk,Inc. |WEB Address: www.autodesk.com
 90
      129
280
     0
281
     0
  0
CLASS
  1
AEC_DISP_PROPS_DIM
  2
AecDbDispPropsDimGroup
  3
AecArchDACHBase50|Product Desc: Autodesk Architectural Desktop 2007 |Company: Autodesk,Inc. |WEB Address: www.autodesk.com
 90
      129
280
     0
281
     0
  0
CLASS
  1
AEC_DB_DISP_REP_DIM_GROUP_PLAN50
  2
AecDbDispRepDimGroupPlan50
  3
AecArchDACHBase50|Product Desc: Autodesk Architectural Desktop 2007 |Company: Autodesk,Inc. |WEB Address: www.autodesk.com
 90
      129
280
     0
281
     0
  0
CLASS
  1
AEC_DB_DISP_REP_DIM_GROUP_PLAN
  2
AecDbDispRepDimGroupPlan
  3
AecArchDACHBase50|Product Desc: Autodesk Architectural Desktop 2007 |Company: Autodesk,Inc. |WEB Address: www.autodesk.com
 90
      129
280
     0
281
     0
  0
CLASS
  1
AEC_DISP_REP_DOOR_PLAN_50
  2
AecDbDispRepDoorPlan50
  3
AecArchDACHBase50|Product Desc: Autodesk Architectural Desktop 2007 |Company: Autodesk,Inc. |WEB Address: www.autodesk.com
 90
      129
280
     0
281
     0
  0
CLASS
  1
AEC_DISP_PROPS_DOOR_PLAN_50
  2
AecDbDispPropsDoorPlan50
  3
AecArchDACHBase50|Product Desc: Autodesk Architectural Desktop 2007 |Company: Autodesk,Inc. |WEB Address: www.autodesk.com
 90
      129
280
     0
281
     0
  0
CLASS
  1
AEC_DISP_REP_DOOR_PLAN_HEKTO
  2
AecDbDispRepDoorPlanHekto
  3
AecArchDACHBase50|Product Desc: Autodesk Architectural Desktop 2007 |Company: Autodesk,Inc. |WEB Address: www.autodesk.com
 90
      129
280
     0
281
     0
  0
CLASS
  1
AEC_DISP_PROPS_DOOR_PLAN_100
  2
AecDbDispPropsDoorPlan100
  3
AecArchDACHBase50|Product Desc: Autodesk Architectural Desktop 2007 |Company: Autodesk,Inc. |WEB Address: www.autodesk.com
 90
      129
280
     0
281
     0
  0
CLASS
  1
AEC_DISP_REP_DOOR_THRESHOLD_SYMBOL_PLAN
  2
AecDbDispRepDoorThresholdSymbolPlan
  3
AecArchDACHBase50|Product Desc: Autodesk Architectural Desktop 2007 |Company: Autodesk,Inc. |WEB Address: www.autodesk.com
 90
      129
280
     0
281
     0
  0
CLASS
  1
AEC_DISP_PROPS_DOOR_THRESHOLD_SYMBOL_PLAN
  2
AecDbDispPropsDoorThresholdSymbolPlan
  3
AecArchDACHBase50|Product Desc: Autodesk Architectural Desktop 2007 |Company: Autodesk,Inc. |WEB Address: www.autodesk.com
 90
      129
280
     0
281
     0
  0
CLASS
  1
AEC_DISPREPAECDBDISPREPMASSELEMPLAN100
  2
AecDbDispRepMassElemPlan100
  3
AecArchDACHBase50|Product Desc: Autodesk Architectural Desktop 2007 |Company: Autodesk,Inc. |WEB Address: www.autodesk.com
 90
      129
280
     0
281
     0
  0
CLASS
  1
AEC_DISPROPSMASSELEMPLANCOMMON
  2
AecDbDispPropsMassElemPlanCommon
  3
AecArchDACHBase50|Product Desc: Autodesk Architectural Desktop 2007 |Company: Autodesk,Inc. |WEB Address: www.autodesk.com
 90
      129
280
     0
281
     0
  0
CLASS
  1
AEC_DISPREPAECDBDISPREPMASSELEMPLAN50
  2
AecDbDispRepMassElemPlan50
  3
AecArchDACHBase50|Product Desc: Autodesk Architectural Desktop 2007 |Company: Autodesk,Inc. |WEB Address: www.autodesk.com
 90
      129
280
     0
281
     0
  0
CLASS
  1
AEC_DISPREPAECDBDISPREPMASSGROUPPLAN100
  2
AecDbDispRepMassGroupPlan100
  3
AecArchDACHBase50|Product Desc: Autodesk Architectural Desktop 2007 |Company: Autodesk,Inc. |WEB Address: www.autodesk.com
 90
      129
280
     0
281
     0
  0
CLASS
  1
AEC_DISPROPSMASSGROUPPLANCOMMON
  2
AecDbDispPropsMassGroupPlanCommon
  3
AecArchDACHBase50|Product Desc: Autodesk Architectural Desktop 2007 |Company: Autodesk,Inc. |WEB Address: www.autodesk.com
 90
      129
280
     0
281
     0
  0
CLASS
  1
AEC_DISPREPAECDBDISPREPMASSGROUPPLAN50
  2
AecDbDispRepMassGroupPlan50
  3
AecArchDACHBase50|Product Desc: Autodesk Architectural Desktop 2007 |Company: Autodesk,Inc. |WEB Address: www.autodesk.com
 90
      129
280
     0
281
     0
  0
CLASS
  1
AEC_DISPREPAECDBDISPREPOPENINGPLAN100
  2
AecDbDispRepOpeningPlan100
  3
AecArchDACHBase50|Product Desc: Autodesk Architectural Desktop 2007 |Company: Autodesk,Inc. |WEB Address: www.autodesk.com
 90
      129
280
     0
281
     0
  0
CLASS
  1
AEC_DISPROPSOPENINGPLANCOMMONHATCHED
  2
AecDbDispPropsOpeningPlanCommonHatched
  3
AecArchDACHBase50|Product Desc: Autodesk Architectural Desktop 2007 |Company: Autodesk,Inc. |WEB Address: www.autodesk.com
 90
      129
280
     0
281
     0
  0
CLASS
  1
AEC_DISPREPAECDBDISPREPOPENINGPLAN50
  2
AecDbDispRepOpeningPlan50
  3
AecArchDACHBase50|Product Desc: Autodesk Architectural Desktop 2007 |Company: Autodesk,Inc. |WEB Address: www.autodesk.com
 90
      129
280
     0
281
     0
  0
CLASS
  1
AEC_DISPREPAECDBDISPREPOPENINGPLANREFLECTED
  2
AecDbDispRepOpeningPlanReflected
  3
AecArchDACHBase50|Product Desc: Autodesk Architectural Desktop 2007 |Company: Autodesk,Inc. |WEB Address: www.autodesk.com
 90
      129
280
     0
281
     0
  0
CLASS
  1
AEC_DISPROPSOPENINGPLANCOMMON
  2
AecDbDispPropsOpeningPlanCommon
  3
AecArchDACHBase50|Product Desc: Autodesk Architectural Desktop 2007 |Company: Autodesk,Inc. |WEB Address: www.autodesk.com
 90
      129
280
     0
281
     0
  0
CLASS
  1
AEC_DISPREPAECDBDISPREPOPENINGSILLPLAN
  2
AecDbDispRepOpeningSillPlan
  3
AecArchDACHBase50|Product Desc: Autodesk Architectural Desktop 2007 |Company: Autodesk,Inc. |WEB Address: www.autodesk.com
 90
      129
280
     0
281
     0
  0
CLASS
  1
AEC_DISPROPSOPENINGSILLPLAN
  2
AecDbDispPropsOpeningSillPlan
  3
AecArchDACHBase50|Product Desc: Autodesk Architectural Desktop 2007 |Company: Autodesk,Inc. |WEB Address: www.autodesk.com
 90
      129
280
     0
281
     0
  0
CLASS
  1
AEC_DISP_REP_RAILING_PLAN_100
  2
AecDbDispRepRailingPlan100
  3
AecArchDACHBase50|Product Desc: Autodesk Architectural Desktop 2007 |Company: Autodesk,Inc. |WEB Address: www.autodesk.com
 90
      129
280
     0
281
     0
  0
CLASS
  1
AEC_DISP_ROPS_RAILING_PLAN_100
  2
AecDbDispPropsRailingPlan100
  3
AecArchDACHBase50|Product Desc: Autodesk Architectural Desktop 2007 |Company: Autodesk,Inc. |WEB Address: www.autodesk.com
 90
      129
280
     0
281
     0
  0
CLASS
  1
AEC_DISP_REP_RAILING_PLAN_50
  2
AecDbDispRepRailingPlan50
  3
AecArchDACHBase50|Product Desc: Autodesk Architectural Desktop 2007 |Company: Autodesk,Inc. |WEB Address: www.autodesk.com
 90
      129
280
     0
281
     0
  0
CLASS
  1
AEC_DISP_ROPS_RAILING_PLAN_50
  2
AecDbDispPropsRailingPlan50
  3
AecArchDACHBase50|Product Desc: Autodesk Architectural Desktop 2007 |Company: Autodesk,Inc. |WEB Address: www.autodesk.com
 90
      129
280
     0
281
     0
  0
CLASS
  1
AEC_DISP_REP_STAIR_PLAN_100
  2
AecDbDispRepStairPlan100
  3
AecArchDACHBase50|Product Desc: Autodesk Architectural Desktop 2007 |Company: Autodesk,Inc. |WEB Address: www.autodesk.com
 90
      129
280
     0
281
     0
  0
CLASS
  1
AEC_DISP_ROPS_STAIR_PLAN_100
  2
AecDbDispPropsStairPlan100
  3
AecArchDACHBase50|Product Desc: Autodesk Architectural Desktop 2007 |Company: Autodesk,Inc. |WEB Address: www.autodesk.com
 90
      129
280
     0
281
     0
  0
CLASS
  1
AEC_DISP_REP_STAIR_PLAN_50
  2
AecDbDispRepStairPlan50
  3
AecArchDACHBase50|Product Desc: Autodesk Architectural Desktop 2007 |Company: Autodesk,Inc. |WEB Address: www.autodesk.com
 90
      129
280
     0
281
     0
  0
CLASS
  1
AEC_DISP_ROPS_STAIR_PLAN_50
  2
AecDbDispPropsStairPlan50
  3
AecArchDACHBase50|Product Desc: Autodesk Architectural Desktop 2007 |Company: Autodesk,Inc. |WEB Address: www.autodesk.com
 90
      129
280
     0
281
     0
  0
CLASS
  1
AEC_DISP_REP_WINDOW_PLAN_100
  2
AecDbDispRepWindowPlan100
  3
AecArchDACHBase50|Product Desc: Autodesk Architectural Desktop 2007 |Company: Autodesk,Inc. |WEB Address: www.autodesk.com
 90
      129
280
     0
281
     0
  0
CLASS
  1
AEC_DISP_PROPS_WINDOW_PLAN_100
  2
AecDbDispPropsWindowPlan100
  3
AecArchDACHBase50|Product Desc: Autodesk Architectural Desktop 2007 |Company: Autodesk,Inc. |WEB Address: www.autodesk.com
 90
      129
280
     0
281
     0
  0
CLASS
  1
AEC_DISP_REP_WINDOW_PLAN_50
  2
AecDbDispRepWindowPlan50
  3
AecArchDACHBase50|Product Desc: Autodesk Architectural Desktop 2007 |Company: Autodesk,Inc. |WEB Address: www.autodesk.com
 90
      129
280
     0
281
     0
  0
CLASS
  1
AEC_DISP_PROPS_WINDOW_PLAN_50
  2
AecDbDispPropsWindowPlan50
  3
AecArchDACHBase50|Product Desc: Autodesk Architectural Desktop 2007 |Company: Autodesk,Inc. |WEB Address: www.autodesk.com
 90
      129
280
     0
281
     0
  0
CLASS
  1
AEC_DISP_REP_SET
  2
AecDbDispRepSet
  3
AecBase50|Product Desc: Autodesk Architectural Desktop 2007 |Company: Autodesk,Inc. |WEB Address: www.autodesk.com
 90
      129
280
     0
281
     0
  0
CLASS
  1
AEC_DISP_REP_CONFIG
  2
AecDbDispRepConfig
  3
AecBase50|Product Desc: Autodesk Architectural Desktop 2007 |Company: Autodesk,Inc. |WEB Address: www.autodesk.com
 90
      129
280
     0
281
     0
  0
ENDSEC
  0
SECTION
  2
TABLES
  0
TABLE
  2
VPORT
  5
7
330
0
100
AcDbSymbolTable
 70
     1
  0
VPORT
  5
15
330
7
100
AcDbSymbolTableRecord
100
AcDbViewportTableRecord
  2
*ACTIVE
 70
     0
 10
0.0
 20
0.0
 11
1.0
 21
1.0
 12
333.728418283795
 22
274.3332057086684
 13
0.0
 23
0.0
 14
1.0
 24
1.0
 15
0.0
 25
0.0
 16
0.0
 26
0.0
 36
1.0
 17
0.0
 27
0.0
 37
0.0
 40
485.6298533005208
 41
1.514877102199223
 42
50.0
 43
0.0
 44
0.0
 50
0.0
 51
0.0
 71
     0
 72
   100
 73
     1
 74
     1
 75
     0
 76
     0
 77
     0
 78
     0
281
     0
 65
     0
110
0.0
120
0.0
130
0.0
111
1.0
121
0.0
131
0.0
112
0.0
122
1.0
132
0.0
 79
     0
146
0.0
  0
ENDTAB
  0
TABLE
  2
LTYPE
  5
4
330
0
100
AcDbSymbolTable
 70
     3
  0
LTYPE
  5
11
330
4
100
AcDbSymbolTableRecord
100
AcDbLinetypeTableRecord
  2
ByBlock
 70
     0
  3

 72
    65
 73
     0
 40
0.0
  0
LTYPE
  5
12
330
4
100
AcDbSymbolTableRecord
100
AcDbLinetypeTableRecord
  2
ByLayer
 70
     0
  3

 72
    65
 73
     0
 40
0.0
  0
LTYPE
  5
13
330
4
100
AcDbSymbolTableRecord
100
AcDbLinetypeTableRecord
  2
Continuous
 70
     0
  3
Solid line
 72
    65
 73
     0
 40
0.0
  0
LTYPE
  5
4BA
330
4
100
AcDbSymbolTableRecord
100
AcDbLinetypeTableRecord
  2
HIDDEN
 70
     0
  3
Hidden __ __ __ __ __ __ __ __ __ __ __ __ __ __
 72
    65
 73
     2
 40
9.524999999999998
 49
6.349999999999999
 74
     0
 49
-3.174999999999999
 74
     0
  0
ENDTAB
  0
TABLE
  2
LAYER
  5
2
102
{ACAD_XDICTIONARY
360
2F0
102
}
330
0
100
AcDbSymbolTable
 70
     5
  0
LAYER
  5
14
102
{ACAD_XDICTIONARY
360
366
102
}
330
2
100
AcDbSymbolTableRecord
100
AcDbLayerTableRecord
  2
0
 70
     0
 62
     7
  6
Continuous
370
    -3
390
1D
  0
LAYER
  5
2E3
102
{ACAD_XDICTIONARY
360
2E4
102
}
330
2
100
AcDbSymbolTableRecord
100
AcDbLayerTableRecord
  2
A-001_Pan
 70
     0
 62
     7
  6
Continuous
370
     9
390
1D
  0
LAYER
  5
2E5
102
{ACAD_XDICTIONARY
360
2E6
102
}
330
2
100
AcDbSymbolTableRecord
100
AcDbLayerTableRecord
  2
A-043_Txt025
 70
     0
 62
     7
  6
Continuous
370
     9
390
1D
1001
AcAecLayerStandard
1000

1000

  0
LAYER
  5
2E7
102
{ACAD_XDICTIONARY
360
2E8
102
}
330
2
100
AcDbSymbolTableRecord
100
AcDbLayerTableRecord
  2
A-031_DimExt
 70
     0
 62
     7
  6
Continuous
370
     9
390
1D
1001
AcAecLayerStandard
1000

1000

  0
LAYER
  5
2E9
330
2
100
AcDbSymbolTableRecord
100
AcDbLayerTableRecord
  2
Defpoints
 70
     0
 62
     7
  6
Continuous
290
     0
370
     9
390
1D
  0
ENDTAB
  0
TABLE
  2
STYLE
  5
3
330
0
100
AcDbSymbolTable
 70
     3
  0
STYLE
  5
17
330
3
100
AcDbSymbolTableRecord
100
AcDbTextStyleTableRecord
  2
Standard
 70
     0
 40
0.0
 41
1.0
 50
0.0
 71
     0
 42
0.0
  3
txt
  4

  0
STYLE
  5
2EA
330
3
100
AcDbSymbolTableRecord
100
AcDbTextStyleTableRecord
  2
helvetica regular
 70
     0
 40
0.0
 41
1.0
 50
0.0
 71
     0
 42
20.0
  3
LTe50259.ttf
  4

1001
ACAD
1000
HelveticaNeue LT 55 Roman
1071
        2
  0
ENDTAB
  0
TABLE
  2
VIEW
  5
5
330
0
100
AcDbSymbolTable
 70
     0
  0
ENDTAB
  0
TABLE
  2
UCS
  5
6
330
0
100
AcDbSymbolTable
 70
     0
  0
ENDTAB
  0
TABLE
  2
APPID
  5
8
330
0
100
AcDbSymbolTable
 70
     9
  0
APPID
  5
16
330
8
100
AcDbSymbolTableRecord
100
AcDbRegAppTableRecord
  2
ACAD
 70
     0
  0
APPID
  5
2C5
330
8
100
AcDbSymbolTableRecord
100
AcDbRegAppTableRecord
  2
ACAD_MLEADERVER
 70
     0
  0
APPID
  5
2CA
330
8
100
AcDbSymbolTableRecord
100
AcDbRegAppTableRecord
  2
ACAD_EXEMPT_FROM_CAD_STANDARDS
 70
     0
  0
APPID
  5
2EC
330
8
100
AcDbSymbolTableRecord
100
AcDbRegAppTableRecord
  2
AcAecLayerStandard
 70
     0
  0
APPID
  5
2ED
330
8
100
AcDbSymbolTableRecord
100
AcDbRegAppTableRecord
  2
ACAD_DSTYLE_DIMJOGGED_JOGANGLE_SYMBOL
 70
     0
  0
APPID
  5
2EE
330
8
100
AcDbSymbolTableRecord
100
AcDbRegAppTableRecord
  2
ACAD_DSTYLE_DIMJAG
 70
     0
  0
APPID
  5
2EF
330
8
100
AcDbSymbolTableRecord
100
AcDbRegAppTableRecord
  2
ACAD_DSTYLE_DIMTALN
 70
     0
  0
APPID
  5
36B
330
8
100
AcDbSymbolTableRecord
100
AcDbRegAppTableRecord
  2
ACAD_PSEXT
 70
     0
  0
APPID
  5
4D2
330
8
100
AcDbSymbolTableRecord
100
AcDbRegAppTableRecord
  2
ACAD_DSTYLE_DIMEXT_LENGTH
 70
     0
  0
ENDTAB
  0
TABLE
  2
DIMSTYLE
  5
9
330
0
100
AcDbSymbolTable
 70
     3
100
AcDbDimStyleTable
 71
     2
340
2EB
340
18
  0
DIMSTYLE
105
18
330
9
100
AcDbSymbolTableRecord
100
AcDbDimStyleTableRecord
  2
Standard
 70
     0
340
17
  0
DIMSTYLE
105
2EB
102
{ACAD_REACTORS
330
314
330
31F
330
32C
330
34B
330
356
102
}
330
9
100
AcDbSymbolTableRecord
100
AcDbDimStyleTableRecord
  2
DIMEXT
 70
     0
  4
m
 40
50.0
 41
0.2
 42
0.5
 43
0.5
 44
0.2
 73
     0
 74
     0
 75
     1
 76
     1
 77
     1
 78
     1
140
0.4
141
0.1
143
0.01
147
0.1
172
     1
173
     1
174
     1
271
     0
272
     0
275
     1
276
     1
285
     8
340
2EA
343
2CB
344
2D2
1001
ACAD_DSTYLE_DIMJAG
1070
   388
1040
1.5
1001
ACAD_DSTYLE_DIMTALN
1070
   392
1070
     0
1001
ACAD_DSTYLE_DIMEXT_LENGTH
1070
   378
1040
0.2
1001
ACAD_DSTYLE_DIMJOGGED_JOGANGLE_SYMBOL
1070
   384
1040
1.570796326794896
  0
ENDTAB
  0
TABLE
  2
BLOCK_RECORD
  5
1
330
0
100
AcDbSymbolTable
 70
     7
  0
BLOCK_RECORD
  5
A
330
1
100
AcDbSymbolTableRecord
100
AcDbBlockTableRecord
  2
*MODEL_SPACE
340
20
  0
BLOCK_RECORD
  5
B
330
1
100
AcDbSymbolTableRecord
100
AcDbBlockTableRecord
  2
*PAPER_SPACE
340
21
  0
BLOCK_RECORD
  5
2CB
102
{ACAD_XDICTIONARY
360
4CC
102
}
330
1
100
AcDbSymbolTableRecord
100
AcDbBlockTableRecord
  2
DIML
340
0
310
2800000020000000200000000100080000000000000400000000000000000000000000000000000000000000000080000080000000808000800000008000800080800000C0C0C000C0DCC000F0CAA6000020400000206000002080000020A0000020C0000020E00000400000004020000040400000406000004080000040A0
310
000040C0000040E00000600000006020000060400000606000006080000060A0000060C0000060E00000800000008020000080400000806000008080000080A0000080C0000080E00000A0000000A0200000A0400000A0600000A0800000A0A00000A0C00000A0E00000C0000000C0200000C0400000C0600000C0800000C0
310
A00000C0C00000C0E00000E0000000E0200000E0400000E0600000E0800000E0A00000E0C00000E0E00040000000400020004000400040006000400080004000A0004000C0004000E00040200000402020004020400040206000402080004020A0004020C0004020E000404000004040200040404000404060004040800040
310
40A0004040C0004040E00040600000406020004060400040606000406080004060A0004060C0004060E00040800000408020004080400040806000408080004080A0004080C0004080E00040A0000040A0200040A0400040A0600040A0800040A0A00040A0C00040A0E00040C0000040C0200040C0400040C0600040C08000
310
40C0A00040C0C00040C0E00040E0000040E0200040E0400040E0600040E0800040E0A00040E0C00040E0E00080000000800020008000400080006000800080008000A0008000C0008000E00080200000802020008020400080206000802080008020A0008020C0008020E00080400000804020008040400080406000804080
310
008040A0008040C0008040E00080600000806020008060400080606000806080008060A0008060C0008060E00080800000808020008080400080806000808080008080A0008080C0008080E00080A0000080A0200080A0400080A0600080A0800080A0A00080A0C00080A0E00080C0000080C0200080C0400080C0600080C0
310
800080C0A00080C0C00080C0E00080E0000080E0200080E0400080E0600080E0800080E0A00080E0C00080E0E000C0000000C0002000C0004000C0006000C0008000C000A000C000C000C000E000C0200000C0202000C0204000C0206000C0208000C020A000C020C000C020E000C0400000C0402000C0404000C0406000C0
310
408000C040A000C040C000C040E000C0600000C0602000C0604000C0606000C0608000C060A000C060C000C060E000C0800000C0802000C0804000C0806000C0808000C080A000C080C000C080E000C0A00000C0A02000C0A04000C0A06000C0A08000C0A0A000C0A0C000C0A0E000C0C00000C0C02000C0C04000C0C06000
310
C0C08000C0C0A000F0FBFF00A4A0A000808080000000FF0000FF000000FFFF00FF000000FF00FF00FFFF0000FFFFFF00000000000000000000000000000000000000000000000000000000000000000000000000000000000000000000000000FF000000000000000000000000000000000000000000000000000000000000
310
00FF00000000000000000000000000000000000000000000000000000000000000FF00000000000000000000000000000000000000000000000000000000000000FF00000000000000000000000000000000000000000000000000000000000000FF0000000000000000000000000000000000000000000000000000000000
310
0000FF00000000000000000000000000000000000000000000000000000000000000FF00000000000000000000000000000000000000000000000000000000000000FF0000000000000000000000000000000000000000000000000000000000FFFFFFFF000000000000000000000000000000000000000000000000000000
310
00FFFFFFFF0000000000000000000000000000000000000000FFFFFFFFFFFFFFFFFFFFFFFFFFFFFFFFFFFFFFFF0000000000000000000000000000000000000000FFFFFFFF0000000000000000000000000000000000000000000000000000000000FFFF000000000000000000000000000000000000000000000000000000
310
00000000FF00000000000000000000000000000000000000000000000000000000000000FF00000000000000000000000000000000000000000000000000000000000000FF00000000000000000000000000000000000000000000000000000000000000FF0000000000000000000000000000000000000000000000000000
310
0000000000FF00000000000000000000000000000000000000000000000000000000000000FF00000000000000000000000000000000000000000000000000000000000000FF00000000000000000000000000000000000000000000000000000000000000FF00000000000000000000000000000000000000000000000000
310
000000000000FF00000000000000000000000000000000000000000000000000000000000000FF00000000000000000000000000000000000000000000000000000000000000FF00000000000000000000000000000000000000000000000000000000000000FF000000000000000000000000000000000000000000000000
310
00000000000000FF00000000000000000000000000000000000000000000000000000000000000FF00000000000000000000000000000000000000000000000000000000000000FF00000000000000000000000000000000000000000000000000000000000000FF0000000000000000000000000000000000000000000000
310
0000000000000000FF0000000000000000000000000000000000000000000000000000000000000000000000000000000000000000000000
102
{BLKREFS
331
319
331
324
331
346
331
350
331
35B
102
}
1001
ACAD
1000
DesignCenter Data
1002
{
1070
     1
1070
     4
1002
}
  0
BLOCK_RECORD
  5
2D2
102
{ACAD_XDICTIONARY
360
4CF
102
}
330
1
100
AcDbSymbolTableRecord
100
AcDbBlockTableRecord
  2
DIMR
340
0
310
2800000020000000200000000100080000000000000400000000000000000000000000000000000000000000000080000080000000808000800000008000800080800000C0C0C000C0DCC000F0CAA6000020400000206000002080000020A0000020C0000020E00000400000004020000040400000406000004080000040A0
310
000040C0000040E00000600000006020000060400000606000006080000060A0000060C0000060E00000800000008020000080400000806000008080000080A0000080C0000080E00000A0000000A0200000A0400000A0600000A0800000A0A00000A0C00000A0E00000C0000000C0200000C0400000C0600000C0800000C0
310
A00000C0C00000C0E00000E0000000E0200000E0400000E0600000E0800000E0A00000E0C00000E0E00040000000400020004000400040006000400080004000A0004000C0004000E00040200000402020004020400040206000402080004020A0004020C0004020E000404000004040200040404000404060004040800040
310
40A0004040C0004040E00040600000406020004060400040606000406080004060A0004060C0004060E00040800000408020004080400040806000408080004080A0004080C0004080E00040A0000040A0200040A0400040A0600040A0800040A0A00040A0C00040A0E00040C0000040C0200040C0400040C0600040C08000
310
40C0A00040C0C00040C0E00040E0000040E0200040E0400040E0600040E0800040E0A00040E0C00040E0E00080000000800020008000400080006000800080008000A0008000C0008000E00080200000802020008020400080206000802080008020A0008020C0008020E00080400000804020008040400080406000804080
310
008040A0008040C0008040E00080600000806020008060400080606000806080008060A0008060C0008060E00080800000808020008080400080806000808080008080A0008080C0008080E00080A0000080A0200080A0400080A0600080A0800080A0A00080A0C00080A0E00080C0000080C0200080C0400080C0600080C0
310
800080C0A00080C0C00080C0E00080E0000080E0200080E0400080E0600080E0800080E0A00080E0C00080E0E000C0000000C0002000C0004000C0006000C0008000C000A000C000C000C000E000C0200000C0202000C0204000C0206000C0208000C020A000C020C000C020E000C0400000C0402000C0404000C0406000C0
310
408000C040A000C040C000C040E000C0600000C0602000C0604000C0606000C0608000C060A000C060C000C060E000C0800000C0802000C0804000C0806000C0808000C080A000C080C000C080E000C0A00000C0A02000C0A04000C0A06000C0A08000C0A0A000C0A0C000C0A0E000C0C00000C0C02000C0C04000C0C06000
310
C0C08000C0C0A000F0FBFF00A4A0A000808080000000FF0000FF000000FFFF00FF000000FF00FF00FFFF0000FFFFFF000000000000000000000000000000000000000000000000000000000000000000000000000000000000000000000000FF00000000000000000000000000000000000000000000000000000000000000
310
FF00000000000000000000000000000000000000000000000000000000000000FF00000000000000000000000000000000000000000000000000000000000000FF00000000000000000000000000000000000000000000000000000000000000FF000000000000000000000000000000000000000000000000000000000000
310
00FF00000000000000000000000000000000000000000000000000000000000000FF00000000000000000000000000000000000000000000000000000000000000FF00000000000000000000000000000000000000000000000000000000000000FF0000000000000000000000000000000000000000000000000000000000
310
0000FF00000000000000000000000000000000000000000000000000000000000000FF00000000000000000000000000000000000000000000000000000000000000FF00000000000000000000000000000000000000000000000000000000000000FF00000000000000000000000000000000000000000000000000000000
310
000000FF00000000000000000000000000000000000000000000000000000000000000FF00000000000000000000000000000000000000000000000000000000000000FF00000000000000000000000000000000000000000000000000000000000000FF000000000000000000000000000000000000000000000000000000
310
00000000FF000000000000000000000000000000000000000000000000000000000000FFFFFFFF0000000000000000000000000000000000000000FFFFFFFFFFFFFFFFFFFFFFFFFFFFFFFFFFFFFFFF0000000000000000000000000000000000000000FFFFFFFF000000000000000000000000000000000000000000000000
310
0000000000FFFF000000000000000000000000000000000000000000000000000000000000FF00000000000000000000000000000000000000000000000000000000000000FF00000000000000000000000000000000000000000000000000000000000000FF00000000000000000000000000000000000000000000000000
310
000000000000FF00000000000000000000000000000000000000000000000000000000000000FF00000000000000000000000000000000000000000000000000000000000000FF00000000000000000000000000000000000000000000000000000000000000FF000000000000000000000000000000000000000000000000
310
00000000000000FF000000000000000000000000000000000000000000000000000000000000000000000000000000000000000000000000
102
{BLKREFS
331
31A
331
325
331
345
331
351
331
35C
102
}
1001
ACAD
1000
DesignCenter Data
1002
{
1070
     1
1070
     4
1002
}
  0
BLOCK_RECORD
  5
315
330
1
100
AcDbSymbolTableRecord
100
AcDbBlockTableRecord
  2
*D2
340
0
  0
BLOCK_RECORD
  5
320
330
1
100
AcDbSymbolTableRecord
100
AcDbBlockTableRecord
  2
*D3
340
0
  0
BLOCK_RECORD
  5
32D
330
1
100
AcDbSymbolTableRecord
100
AcDbBlockTableRecord
  2
*D4
340
0
  0
BLOCK_RECORD
  5
34C
330
1
100
AcDbSymbolTableRecord
100
AcDbBlockTableRecord
  2
*D5
340
0
  0
BLOCK_RECORD
  5
357
330
1
100
AcDbSymbolTableRecord
100
AcDbBlockTableRecord
  2
*D6
340
0
  0
ENDTAB
  0
ENDSEC
  0
SECTION
  2
BLOCKS
  0
BLOCK
  5
D
330
A
100
AcDbEntity
  8
0
100
AcDbBlockBegin
  2
*MODEL_SPACE
 70
     0
 10
0.0
 20
0.0
 30
0.0
  3
*MODEL_SPACE
  1

  0
ENDBLK
  5
E
330
A
100
AcDbEntity
  8
0
100
AcDbBlockEnd
  0
BLOCK
  5
F
330
B
100
AcDbEntity
 67
     1
  8
0
100
AcDbBlockBegin
  2
*PAPER_SPACE
 70
     0
 10
0.0
 20
0.0
 30
0.0
  3
*PAPER_SPACE
  1

  0
ENDBLK
  5
10
330
B
100
AcDbEntity
 67
     1
  8
0
100
AcDbBlockEnd
  0
BLOCK
  5
2CC
330
2CB
100
AcDbEntity
  8
0
100
AcDbBlockBegin
  2
DIML
 70
     0
 10
0.0
 20
0.0
 30
0.0
  3
DIML
  1

  0
LINE
  5
2CD
330
2CB
100
AcDbEntity
  8
0
 62
     0
100
AcDbLine
 10
0.0
 20
0.0000000000000071
 30
0.0
 11
0.0
 21
2.0
 31
0.0
  0
LINE
  5
2CE
330
2CB
100
AcDbEntity
  8
0
 62
     0
100
AcDbLine
 10
0.0
 20
-1.0
 30
0.0
 11
0.0
 21
0.0000000000000071
 31
0.0
  0
LINE
  5
2CF
330
2CB
100
AcDbEntity
  8
0
 62
     0
100
AcDbLine
 10
-1.0
 20
0.0
 30
0.0
 11
1.0
 21
0.0
 31
0.0
  0
LWPOLYLINE
  5
2D0
330
2CB
100
AcDbEntity
  8
0
370
     0
100
AcDbPolyline
 90
        2
 70
   129
 43
0.2
 10
-0.1000000000000014
 20
0.0
 42
1.0
 10
0.1000000000000014
 20
0.0
 42
1.0
  0
ENDBLK
  5
2D1
330
2CB
100
AcDbEntity
  8
0
100
AcDbBlockEnd
  0
BLOCK
  5
2D3
330
2D2
100
AcDbEntity
  8
0
100
AcDbBlockBegin
  2
DIMR
 70
     0
 10
0.0
 20
0.0
 30
0.0
  3
DIMR
  1

  0
LINE
  5
2D4
330
2D2
100
AcDbEntity
  8
0
 62
     0
100
AcDbLine
 10
1.000000000000007
 20
-0.0000000000000213
 30
0.0
 11
-0.9999999999999928
 21
0.0000000000000213
 31
0.0
  0
LINE
  5
2D5
330
2D2
100
AcDbEntity
  8
0
 62
     0
100
AcDbLine
 10
0.0000000000000071
 20
1.000000000000021
 30
0.0
 11
0.0
 21
0.0
 31
0.0
  0
LINE
  5
2D6
330
2D2
100
AcDbEntity
  8
0
 62
     0
100
AcDbLine
 10
0.0
 20
0.0
 30
0.0
 11
0.0000000000000071
 21
-1.999999999999978
 31
0.0
  0
LWPOLYLINE
  5
2D7
330
2D2
100
AcDbEntity
  8
0
370
     0
100
AcDbPolyline
 90
        2
 70
   129
 43
0.2
 10
-0.0999999999999943
 20
0.0
 42
1.0
 10
0.1000000000000085
 20
0.0
 42
1.0
  0
ENDBLK
  5
2D8
330
2D2
100
AcDbEntity
  8
0
100
AcDbBlockEnd
  0
BLOCK
  5
316
330
315
100
AcDbEntity
  8
0
370
     0
100
AcDbBlockBegin
  2
*D2
 70
     1
 10
0.0
 20
0.0
 30
0.0
  3
*D2
  1

  0
LINE
  5
318
330
315
100
AcDbEntity
  8
A-031_DimExt
 62
     0
370
    -2
100
AcDbLine
 10
128.942215626339
 20
93.44210700000008
 30
0.0
 11
128.942215626339
 21
261.442108
 31
0.0
  0
INSERT
  5
319
330
315
100
AcDbEntity
  8
A-031_DimExt
 62
     0
370
    -2
100
AcDbBlockReference
  2
DIML
 10
128.942215626339
 20
83.44210700000008
 30
0.0
 41
10.0
 42
10.0
 43
10.0
 50
270.0
  0
INSERT
  5
31A
330
315
100
AcDbEntity
  8
A-031_DimExt
 62
     0
370
    -2
100
AcDbBlockReference
  2
DIMR
 10
128.942215626339
 20
271.442108
 30
0.0
 41
10.0
 42
10.0
 43
10.0
 50
90.0
  0
MTEXT
  5
31B
330
315
100
AcDbEntity
  8
A-031_DimExt
 62
     0
370
     0
100
AcDbMText
 10
113.7741483994483
 20
177.4421075000001
 30
0.0
 40
20.0
 41
0.0
 71
     5
 72
     1
  1
\A1;188
  7
helvetica regular
 11
0.0000000000000001
 21
1.0
 31
0.0
 73
     1
 44
1.0
1001
ACAD
1000
MTEXTBEGIN
1070
    73
1070
     1
1070
    44
1040
1.0
1070
    74
1070
     0
1000
MTEXTEND
  0
POINT
  5
31C
330
315
100
AcDbEntity
  8
Defpoints
 62
     0
370
     0
100
AcDbPoint
 10
319.8544215047111
 20
83.44210700000003
 30
0.0
  0
POINT
  5
31D
330
315
100
AcDbEntity
  8
Defpoints
 62
     0
370
     0
100
AcDbPoint
 10
319.8544215047112
 20
271.442108
 30
0.0
  0
POINT
  5
31E
330
315
100
AcDbEntity
  8
Defpoints
 62
     0
370
     0
100
AcDbPoint
 10
128.942215626339
 20
271.442108
 30
0.0
  0
ENDBLK
  5
317
330
315
100
AcDbEntity
  8
0
370
     0
100
AcDbBlockEnd
  0
BLOCK
  5
321
330
320
100
AcDbEntity
  8
0
370
     0
100
AcDbBlockBegin
  2
*D3
 70
     1
 10
0.0
 20
0.0
 30
0.0
  3
*D3
  1

  0
LINE
  5
323
330
320
100
AcDbEntity
  8
A-031_DimExt
 62
     0
370
    -2
100
AcDbLine
 10
168.942215626339
 20
93.44210700000006
 30
0.0
 11
168.9422156263391
 21
210.1870073596451
 31
0.0
  0
INSERT
  5
324
330
320
100
AcDbEntity
  8
A-031_DimExt
 62
     0
370
    -2
100
AcDbBlockReference
  2
DIML
 10
168.942215626339
 20
83.44210700000006
 30
0.0
 41
10.0
 42
10.0
 43
10.0
 50
270.0
  0
INSERT
  5
325
330
320
100
AcDbEntity
  8
A-031_DimExt
 62
     0
370
    -2
100
AcDbBlockReference
  2
DIMR
 10
168.9422156263391
 20
220.1870073596452
 30
0.0
 41
10.0
 42
10.0
 43
10.0
 50
90.0
  0
MTEXT
  5
326
330
320
100
AcDbEntity
  8
A-031_DimExt
 62
     0
370
     0
100
AcDbMText
 10
153.7741483994483
 20
151.8145571798226
 30
0.0
 40
20.0
 41
0.0
 71
     5
 72
     1
  1
\A1;137
  7
helvetica regular
 11
0.0000000000000001
 21
1.0
 31
0.0
 73
     1
 44
1.0
1001
ACAD
1000
MTEXTBEGIN
1070
    73
1070
     1
1070
    44
1040
1.0
1070
    74
1070
     0
1000
MTEXTEND
  0
POINT
  5
327
330
320
100
AcDbEntity
  8
Defpoints
 62
     0
370
     0
100
AcDbPoint
 10
319.8544215047111
 20
83.44210700000003
 30
0.0
  0
POINT
  5
328
330
320
100
AcDbEntity
  8
Defpoints
 62
     0
370
     0
100
AcDbPoint
 10
225.3372584071483
 20
220.1870073596451
 30
0.0
  0
POINT
  5
329
330
320
100
AcDbEntity
  8
Defpoints
 62
     0
370
     0
100
AcDbPoint
 10
168.9422156263391
 20
220.1870073596452
 30
0.0
  0
ENDBLK
  5
322
330
320
100
AcDbEntity
  8
0
370
     0
100
AcDbBlockEnd
  0
BLOCK
  5
32E
330
32D
100
AcDbEntity
  8
0
370
     0
100
AcDbBlockBegin
  2
*D4
 70
     1
 10
0.0
 20
0.0
 30
0.0
  3
*D4
  1

  0
LINE
  5
342
330
32D
100
AcDbEntity
  8
A-031_DimExt
 62
     0
370
    -2
100
AcDbLine
 10
560.4925590822241
 20
43.44211199968668
 30
0.0
 11
570.4925590822241
 21
43.44211199968668
 31
0.0
  0
LINE
  5
343
330
32D
100
AcDbEntity
  8
A-031_DimExt
 62
     0
370
    -2
100
AcDbLine
 10
529.4956420203314
 20
43.44211199968668
 30
0.0
 11
486.3863983228525
 21
43.44211199968668
 31
0.0
  0
LINE
  5
344
330
32D
100
AcDbEntity
  8
A-031_DimExt
 62
     0
370
    -2
100
AcDbLine
 10
550.4925590822241
 20
43.44211199968668
 30
0.0
 11
539.4956420203315
 21
43.44211199968668
 31
0.0
  0
INSERT
  5
345
330
32D
100
AcDbEntity
  8
A-031_DimExt
 62
     0
370
    -2
100
AcDbBlockReference
  2
DIMR
 10
550.4925590822241
 20
43.44211199968668
 30
0.0
 41
10.0
 42
10.0
 43
10.0
 50
180.0
  0
INSERT
  5
346
330
32D
100
AcDbEntity
  8
A-031_DimExt
 62
     0
370
    -2
100
AcDbBlockReference
  2
DIML
 10
539.4956420203315
 20
43.44211199968668
 30
0.0
 41
10.0
 42
10.0
 43
10.0
  0
MTEXT
  5
347
330
32D
100
AcDbEntity
  8
A-031_DimExt
 62
     0
370
     0
100
AcDbMText
 10
502.9410201715919
 20
58.44211199968668
 30
0.0
 40
20.0
 41
0.0
 71
     5
 72
     1
  1
\A1;11
  7
helvetica regular
 73
     1
 44
1.0
1001
ACAD
1000
MTEXTBEGIN
1070
    73
1070
     1
1070
    44
1040
1.0
1070
    74
1070
     0
1000
MTEXTEND
  0
POINT
  5
348
330
32D
100
AcDbEntity
  8
Defpoints
 62
     0
370
     0
100
AcDbPoint
 10
539.4956420203315
 20
174.9509261456405
 30
0.0
  0
POINT
  5
349
330
32D
100
AcDbEntity
  8
Defpoints
 62
     0
370
     0
100
AcDbPoint
 10
550.4925590822241
 20
174.9509261456406
 30
0.0
  0
POINT
  5
34A
330
32D
100
AcDbEntity
  8
Defpoints
 62
     0
370
     0
100
AcDbPoint
 10
550.4925590822241
 20
43.44211199968668
 30
0.0
  0
ENDBLK
  5
32F
330
32D
100
AcDbEntity
  8
0
370
     0
100
AcDbBlockEnd
  0
BLOCK
  5
34D
330
34C
100
AcDbEntity
  8
0
370
     0
100
AcDbBlockBegin
  2
*D5
 70
     1
 10
0.0
 20
0.0
 30
0.0
  3
*D5
  1

  0
LINE
  5
34F
330
34C
100
AcDbEntity
  8
A-031_DimExt
 62
     0
370
    -2
100
AcDbLine
 10
218.9422156263391
 20
311.442108
 30
0.0
 11
420.868252024981
 21
311.442108
 31
0.0
  0
INSERT
  5
350
330
34C
100
AcDbEntity
  8
A-031_DimExt
 62
     0
370
    -2
100
AcDbBlockReference
  2
DIML
 10
208.9422156263391
 20
311.442108
 30
0.0
 41
10.0
 42
10.0
 43
10.0
 50
180.0
  0
INSERT
  5
351
330
34C
100
AcDbEntity
  8
A-031_DimExt
 62
     0
370
    -2
100
AcDbBlockReference
  2
DIMR
 10
430.868252024981
 20
311.442108
 30
0.0
 41
10.0
 42
10.0
 43
10.0
  0
MTEXT
  5
352
330
34C
100
AcDbEntity
  8
A-031_DimExt
 62
     0
370
     0
100
AcDbMText
 10
319.9052338256601
 20
326.4421079999999
 30
0.0
 40
20.0
 41
0.0
 71
     5
 72
     1
  1
\A1;222
  7
helvetica regular
 73
     1
 44
1.0
1001
ACAD
1000
MTEXTBEGIN
1070
    73
1070
     1
1070
    44
1040
1.0
1070
    74
1070
     0
1000
MTEXTEND
  0
POINT
  5
353
330
34C
100
AcDbEntity
  8
Defpoints
 62
     0
370
     0
100
AcDbPoint
 10
208.9422156263391
 20
209.3972453746435
 30
0.0
  0
POINT
  5
354
330
34C
100
AcDbEntity
  8
Defpoints
 62
     0
370
     0
100
AcDbPoint
 10
430.868252024981
 20
209.3972440140516
 30
0.0
  0
POINT
  5
355
330
34C
100
AcDbEntity
  8
Defpoints
 62
     0
370
     0
100
AcDbPoint
 10
430.868252024981
 20
311.442108
 30
0.0
  0
ENDBLK
  5
34E
330
34C
100
AcDbEntity
  8
0
370
     0
100
AcDbBlockEnd
  0
BLOCK
  5
358
330
357
100
AcDbEntity
  8
0
370
     0
100
AcDbBlockBegin
  2
*D6
 70
     1
 10
0.0
 20
0.0
 30
0.0
  3
*D6
  1

  0
LINE
  5
35A
330
357
100
AcDbEntity
  8
A-031_DimExt
 62
     0
370
    -2
100
AcDbLine
 10
398.8718342414587
 20
410.2063876572399
 30
0.0
 11
240.938633012751
 21
410.2063876572399
 31
0.0
  0
INSERT
  5
35B
330
357
100
AcDbEntity
  8
A-031_DimExt
 62
     0
370
    -2
100
AcDbBlockReference
  2
DIML
 10
408.8718342414587
 20
410.2063876572399
 30
0.0
 41
10.0
 42
10.0
 43
10.0
  0
INSERT
  5
35C
330
357
100
AcDbEntity
  8
A-031_DimExt
 62
     0
370
    -2
100
AcDbBlockReference
  2
DIMR
 10
230.938633012751
 20
410.2063876572399
 30
0.0
 41
10.0
 42
10.0
 43
10.0
 50
180.0
  0
MTEXT
  5
35D
330
357
100
AcDbEntity
  8
A-031_DimExt
 62
     0
370
     0
100
AcDbMText
 10
319.9052336271048
 20
425.3744548841306
 30
0.0
 40
20.0
 41
0.0
 71
     5
 72
     1
  1
\A1;178
  7
helvetica regular
 73
     1
 44
1.0
1001
ACAD
1000
MTEXTBEGIN
1070
    73
1070
     1
1070
    44
1040
1.0
1070
    74
1070
     0
1000
MTEXTEND
  0
POINT
  5
35E
330
357
100
AcDbEntity
  8
Defpoints
 62
     0
370
     0
100
AcDbPoint
 10
408.8718342414587
 20
450.2063886098711
 30
0.0
  0
POINT
  5
35F
330
357
100
AcDbEntity
  8
Defpoints
 62
     0
370
     0
100
AcDbPoint
 10
230.938633012751
 20
450.2063886098711
 30
0.0
  0
POINT
  5
360
330
357
100
AcDbEntity
  8
Defpoints
 62
     0
370
     0
100
AcDbPoint
 10
230.938633012751
 20
410.2063876572399
 30
0.0
  0
ENDBLK
  5
359
330
357
100
AcDbEntity
  8
0
370
     0
100
AcDbBlockEnd
  0
ENDSEC
  0
SECTION
  2
ENTITIES
  0
POLYLINE
  5
B1
330
A
100
AcDbEntity
  8
A-001_Pan
100
AcDb2dPolyline
 66
     1
 10
0.0
 20
0.0
 30
0.0
  0
VERTEX
  5
B2
330
B1
100
AcDbEntity
  8
A-001_Pan
100
AcDbVertex
100
AcDb2dVertex
 10
229.4848935401589
 20
261.2736850949615
 30
0.0
  0
VERTEX
  5
B3
330
B1
100
AcDbEntity
  8
A-001_Pan
100
AcDbVertex
100
AcDb2dVertex
 10
226.5800005440656
 20
255.1512736900868
 30
0.0
  0
VERTEX
  5
B4
330
B1
100
AcDbEntity
  8
A-001_Pan
100
AcDbVertex
100
AcDb2dVertex
 10
226.061543027635
 20
254.3227805987042
 30
0.0
  0
VERTEX
  5
B5
330
B1
100
AcDbEntity
  8
A-001_Pan
100
AcDbVertex
100
AcDb2dVertex
 10
225.4388820399953
 20
253.4917026692728
 30
0.0
  0
VERTEX
  5
B6
330
B1
100
AcDbEntity
  8
A-001_Pan
100
AcDbVertex
100
AcDb2dVertex
 10
224.7145974195086
 20
252.7648332107371
 30
0.0
  0
VERTEX
  5
B7
330
B1
100
AcDbEntity
  8
A-001_Pan
100
AcDbVertex
100
AcDb2dVertex
 10
223.8835194900771
 20
252.2463806939933
 30
0.0
  0
VERTEX
  5
B8
330
B1
100
AcDbEntity
  8
A-001_Pan
100
AcDbVertex
100
AcDb2dVertex
 10
223.0524415606457
 20
251.7279231775627
 30
0.0
  0
VERTEX
  5
B9
330
B1
100
AcDbEntity
  8
A-001_Pan
100
AcDbVertex
100
AcDb2dVertex
 10
222.1197399983671
 20
251.4178876026107
 30
0.0
  0
VERTEX
  5
BA
330
B1
100
AcDbEntity
  8
A-001_Pan
100
AcDbVertex
100
AcDb2dVertex
 10
221.1870384360885
 20
251.209470660819
 30
0.0
  0
VERTEX
  5
BB
330
B1
100
AcDbEntity
  8
A-001_Pan
100
AcDbVertex
100
AcDb2dVertex
 10
220.147548564552
 20
251.1052621899229
 30
0.0
  0
VERTEX
  5
BC
330
B1
100
AcDbEntity
  8
A-001_Pan
100
AcDbVertex
100
AcDb2dVertex
 10
218.696389485843
 20
251.1052621899229
 30
0.0
  0
VERTEX
  5
BD
330
B1
100
AcDbEntity
  8
A-001_Pan
100
AcDbVertex
100
AcDb2dVertex
 10
218.0737284982032
 20
251.1052621899229
 30
0.0
  0
VERTEX
  5
BE
330
B1
100
AcDbEntity
  8
A-001_Pan
100
AcDbVertex
100
AcDb2dVertex
 10
217.5552759814595
 20
250.8994300861801
 30
0.0
  0
VERTEX
  5
BF
330
B1
100
AcDbEntity
  8
A-001_Pan
100
AcDbVertex
100
AcDb2dVertex
 10
217.0368234647157
 20
250.5868096731791
 30
0.0
  0
VERTEX
  5
C0
330
B1
100
AcDbEntity
  8
A-001_Pan
100
AcDbVertex
100
AcDb2dVertex
 10
216.619989581132
 20
250.2767690985404
 30
0.0
  0
VERTEX
  5
C1
330
B1
100
AcDbEntity
  8
A-001_Pan
100
AcDbVertex
100
AcDb2dVertex
 10
216.2057455352841
 20
249.7583165817967
 30
0.0
  0
VERTEX
  5
C2
330
B1
100
AcDbEntity
  8
A-001_Pan
100
AcDbVertex
100
AcDb2dVertex
 10
215.8957049606455
 20
249.2372792270038
 30
0.0
  0
VERTEX
  5
C3
330
B1
100
AcDbEntity
  8
A-001_Pan
100
AcDbVertex
100
AcDb2dVertex
 10
215.7914964897496
 20
248.7188217105733
 30
0.0
  0
VERTEX
  5
C4
330
B1
100
AcDbEntity
  8
A-001_Pan
100
AcDbVertex
100
AcDb2dVertex
 10
215.6872880188536
 20
248.0961607229336
 30
0.0
  0
VERTEX
  5
C5
330
B1
100
AcDbEntity
  8
A-001_Pan
100
AcDbVertex
100
AcDb2dVertex
 10
215.6872880188536
 20
243.42748823513
 30
0.0
  0
VERTEX
  5
C6
330
B1
100
AcDbEntity
  8
A-001_Pan
100
AcDbVertex
100
AcDb2dVertex
 10
215.6872880188536
 20
242.9090357183861
 30
0.0
  0
VERTEX
  5
C7
330
B1
100
AcDbEntity
  8
A-001_Pan
100
AcDbVertex
100
AcDb2dVertex
 10
215.8957049606455
 20
242.4947866728516
 30
0.0
  0
VERTEX
  5
C8
330
B1
100
AcDbEntity
  8
A-001_Pan
100
AcDbVertex
100
AcDb2dVertex
 10
215.9973285934924
 20
241.9763341561077
 30
0.0
  0
VERTEX
  5
C9
330
B1
100
AcDbEntity
  8
A-001_Pan
100
AcDbVertex
100
AcDb2dVertex
 10
216.30995400618
 20
241.5595002725241
 30
0.0
  0
VERTEX
  5
CA
330
B1
100
AcDbEntity
  8
A-001_Pan
100
AcDbVertex
100
AcDb2dVertex
 10
216.619989581132
 20
241.2494646975721
 30
0.0
  0
VERTEX
  5
CB
330
B1
100
AcDbEntity
  8
A-001_Pan
100
AcDbVertex
100
AcDb2dVertex
 10
217.0368234647157
 20
240.9394241229334
 30
0.0
  0
VERTEX
  5
CC
330
B1
100
AcDbEntity
  8
A-001_Pan
100
AcDbVertex
100
AcDb2dVertex
 10
217.4510675105636
 20
240.7310071811417
 30
0.0
  0
VERTEX
  5
CD
330
B1
100
AcDbEntity
  8
A-001_Pan
100
AcDbVertex
100
AcDb2dVertex
 10
217.8653165560984
 20
240.5225952390366
 30
0.0
  0
VERTEX
  5
CE
330
B1
100
AcDbEntity
  8
A-001_Pan
100
AcDbVertex
100
AcDb2dVertex
 10
220.5643774484489
 20
239.7957207808141
 30
0.0
  0
VERTEX
  5
CF
330
B1
100
AcDbEntity
  8
A-001_Pan
100
AcDbVertex
100
AcDb2dVertex
 10
223.1566500315414
 20
239.0714361603275
 30
0.0
  0
VERTEX
  5
D0
330
B1
100
AcDbEntity
  8
A-001_Pan
100
AcDbVertex
100
AcDb2dVertex
 10
223.5734789154383
 20
238.8630242182223
 30
0.0
  0
VERTEX
  5
D1
330
B1
100
AcDbEntity
  8
A-001_Pan
100
AcDbVertex
100
AcDb2dVertex
 10
223.9877279609729
 20
238.6546072764306
 30
0.0
  0
VERTEX
  5
D2
330
B1
100
AcDbEntity
  8
A-001_Pan
100
AcDbVertex
100
AcDb2dVertex
 10
224.401972006821
 20
238.3445667017918
 30
0.0
  0
VERTEX
  5
D3
330
B1
100
AcDbEntity
  8
A-001_Pan
100
AcDbVertex
100
AcDb2dVertex
 10
224.7145974195086
 20
238.031946288791
 30
0.0
  0
VERTEX
  5
D4
330
B1
100
AcDbEntity
  8
A-001_Pan
100
AcDbVertex
100
AcDb2dVertex
 10
225.0246379941473
 20
237.6176972432563
 30
0.0
  0
VERTEX
  5
D5
330
B1
100
AcDbEntity
  8
A-001_Pan
100
AcDbVertex
100
AcDb2dVertex
 10
225.2330499362524
 20
237.0992447265126
 30
0.0
  0
VERTEX
  5
D6
330
B1
100
AcDbEntity
  8
A-001_Pan
100
AcDbVertex
100
AcDb2dVertex
 10
225.3372584071483
 20
236.6849956809779
 30
0.0
  0
VERTEX
  5
D7
330
B1
100
AcDbEntity
  8
A-001_Pan
100
AcDbVertex
100
AcDb2dVertex
 10
225.3372584071483
 20
236.166543164234
 30
0.0
  0
VERTEX
  5
D8
330
B1
100
AcDbEntity
  8
A-001_Pan
100
AcDbVertex
100
AcDb2dVertex
 10
225.3372584071483
 20
228.0719353258576
 30
0.0
  0
VERTEX
  5
D9
330
B1
100
AcDbEntity
  8
A-001_Pan
100
AcDbVertex
100
AcDb2dVertex
 10
225.3372584071483
 20
220.1883292673216
 30
0.0
  0
VERTEX
  5
DA
330
B1
100
AcDbEntity
  8
A-001_Pan
100
AcDbVertex
100
AcDb2dVertex
 10
225.3372584071483
 20
219.6698767505778
 30
0.0
  0
VERTEX
  5
DB
330
B1
100
AcDbEntity
  8
A-001_Pan
100
AcDbVertex
100
AcDb2dVertex
 10
225.1288414653564
 20
219.2530428669943
 30
0.0
  0
VERTEX
  5
DC
330
B1
100
AcDbEntity
  8
A-001_Pan
100
AcDbVertex
100
AcDb2dVertex
 10
224.9204295232514
 20
218.7345903502504
 30
0.0
  0
VERTEX
  5
DD
330
B1
100
AcDbEntity
  8
A-001_Pan
100
AcDbVertex
100
AcDb2dVertex
 10
224.6103889486127
 20
218.3203413047158
 30
0.0
  0
VERTEX
  5
DE
330
B1
100
AcDbEntity
  8
A-001_Pan
100
AcDbVertex
100
AcDb2dVertex
 10
224.2977685356117
 20
217.9060972588678
 30
0.0
  0
VERTEX
  5
DF
330
B1
100
AcDbEntity
  8
A-001_Pan
100
AcDbVertex
100
AcDb2dVertex
 10
223.8835194900771
 20
217.5934718461803
 30
0.0
  0
VERTEX
  5
E0
330
B1
100
AcDbEntity
  8
A-001_Pan
100
AcDbVertex
100
AcDb2dVertex
 10
223.3650669733332
 20
217.387644742124
 30
0.0
  0
VERTEX
  5
E1
330
B1
100
AcDbEntity
  8
A-001_Pan
100
AcDbVertex
100
AcDb2dVertex
 10
222.8466094569027
 20
217.2834362712282
 30
0.0
  0
VERTEX
  5
E2
330
B1
100
AcDbEntity
  8
A-001_Pan
100
AcDbVertex
100
AcDb2dVertex
 10
217.1384470975627
 20
216.2465262380538
 30
0.0
  0
VERTEX
  5
E3
330
B1
100
AcDbEntity
  8
A-001_Pan
100
AcDbVertex
100
AcDb2dVertex
 10
213.6108881141427
 20
215.6238652504141
 30
0.0
  0
VERTEX
  5
E4
330
B1
100
AcDbEntity
  8
A-001_Pan
100
AcDbVertex
100
AcDb2dVertex
 10
212.5739780809683
 20
215.3112398377265
 30
0.0
  0
VERTEX
  5
E5
330
B1
100
AcDbEntity
  8
A-001_Pan
100
AcDbVertex
100
AcDb2dVertex
 10
211.7454849895856
 20
214.8969957918786
 30
0.0
  0
VERTEX
  5
E6
330
B1
100
AcDbEntity
  8
A-001_Pan
100
AcDbVertex
100
AcDb2dVertex
 10
210.9144070601542
 20
214.378538275448
 30
0.0
  0
VERTEX
  5
E7
330
B1
100
AcDbEntity
  8
A-001_Pan
100
AcDbVertex
100
AcDb2dVertex
 10
210.2917460725144
 20
213.6516688169123
 30
0.0
  0
VERTEX
  5
E8
330
B1
100
AcDbEntity
  8
A-001_Pan
100
AcDbVertex
100
AcDb2dVertex
 10
209.6690850848748
 20
212.9247993583767
 30
0.0
  0
VERTEX
  5
E9
330
B1
100
AcDbEntity
  8
A-001_Pan
100
AcDbVertex
100
AcDb2dVertex
 10
209.2548360393402
 20
211.9920977960982
 30
0.0
  0
VERTEX
  5
EA
330
B1
100
AcDbEntity
  8
A-001_Pan
100
AcDbVertex
100
AcDb2dVertex
 10
209.0464240972351
 20
211.0568163954575
 30
0.0
  0
VERTEX
  5
EB
330
B1
100
AcDbEntity
  8
A-001_Pan
100
AcDbVertex
100
AcDb2dVertex
 10
208.9422156263391
 20
210.1241148331791
 30
0.0
  0
VERTEX
  5
EC
330
B1
100
AcDbEntity
  8
A-001_Pan
100
AcDbVertex
100
AcDb2dVertex
 10
208.9422156263391
 20
209.3972453746435
 30
0.0
  0
VERTEX
  5
ED
330
B1
100
AcDbEntity
  8
A-001_Pan
100
AcDbVertex
100
AcDb2dVertex
 10
208.9422156263391
 20
208.878787858213
 30
0.0
  0
VERTEX
  5
EE
330
B1
100
AcDbEntity
  8
A-001_Pan
100
AcDbVertex
100
AcDb2dVertex
 10
208.9422156263391
 20
208.360335341469
 30
0.0
  0
VERTEX
  5
EF
330
B1
100
AcDbEntity
  8
A-001_Pan
100
AcDbVertex
100
AcDb2dVertex
 10
209.0464240972351
 20
207.9460862959344
 30
0.0
  0
VERTEX
  5
F0
330
B1
100
AcDbEntity
  8
A-001_Pan
100
AcDbVertex
100
AcDb2dVertex
 10
209.0464240972351
 20
207.4276337791906
 30
0.0
  0
VERTEX
  5
F1
330
B1
100
AcDbEntity
  8
A-001_Pan
100
AcDbVertex
100
AcDb2dVertex
 10
209.150632568131
 20
206.9065964243979
 30
0.0
  0
VERTEX
  5
F2
330
B1
100
AcDbEntity
  8
A-001_Pan
100
AcDbVertex
100
AcDb2dVertex
 10
209.2548360393402
 20
206.4923473788632
 30
0.0
  0
VERTEX
  5
F3
330
B1
100
AcDbEntity
  8
A-001_Pan
100
AcDbVertex
100
AcDb2dVertex
 10
209.359044510236
 20
205.9738948621194
 30
0.0
  0
VERTEX
  5
F4
330
B1
100
AcDbEntity
  8
A-001_Pan
100
AcDbVertex
100
AcDb2dVertex
 10
209.4632529811317
 20
205.5596458165847
 30
0.0
  0
VERTEX
  5
F5
330
B1
100
AcDbEntity
  8
A-001_Pan
100
AcDbVertex
100
AcDb2dVertex
 10
209.5648766139789
 20
205.0411932998409
 30
0.0
  0
VERTEX
  5
F6
330
B1
100
AcDbEntity
  8
A-001_Pan
100
AcDbVertex
100
AcDb2dVertex
 10
209.6690850848748
 20
204.5201559450482
 30
0.0
  0
VERTEX
  5
F7
330
B1
100
AcDbEntity
  8
A-001_Pan
100
AcDbVertex
100
AcDb2dVertex
 10
209.8775020266665
 20
204.1059068995136
 30
0.0
  0
VERTEX
  5
F8
330
B1
100
AcDbEntity
  8
A-001_Pan
100
AcDbVertex
100
AcDb2dVertex
 10
210.0833291307227
 20
203.6916628536657
 30
0.0
  0
VERTEX
  5
F9
330
B1
100
AcDbEntity
  8
A-001_Pan
100
AcDbVertex
100
AcDb2dVertex
 10
210.1875376016187
 20
203.173205337235
 30
0.0
  0
VERTEX
  5
FA
330
B1
100
AcDbEntity
  8
A-001_Pan
100
AcDbVertex
100
AcDb2dVertex
 10
210.3959545434103
 20
202.7563764533383
 30
0.0
  0
VERTEX
  5
FB
330
B1
100
AcDbEntity
  8
A-001_Pan
100
AcDbVertex
100
AcDb2dVertex
 10
210.6043714852023
 20
202.3421324074903
 30
0.0
  0
VERTEX
  5
FC
330
B1
100
AcDbEntity
  8
A-001_Pan
100
AcDbVertex
100
AcDb2dVertex
 10
210.9144070601542
 20
201.9278833619555
 30
0.0
  0
VERTEX
  5
FD
330
B1
100
AcDbEntity
  8
A-001_Pan
100
AcDbVertex
100
AcDb2dVertex
 10
211.122824001946
 20
201.4094308452118
 30
0.0
  0
VERTEX
  5
FE
330
B1
100
AcDbEntity
  8
A-001_Pan
100
AcDbVertex
100
AcDb2dVertex
 10
211.3286561056889
 20
200.9925969616282
 30
0.0
  0
VERTEX
  5
FF
330
B1
100
AcDbEntity
  8
A-001_Pan
100
AcDbVertex
100
AcDb2dVertex
 10
211.5370730474807
 20
200.5783529157803
 30
0.0
  0
VERTEX
  5
100
330
B1
100
AcDbEntity
  8
A-001_Pan
100
AcDbVertex
100
AcDb2dVertex
 10
211.7454849895856
 20
200.0598953993498
 30
0.0
  0
VERTEX
  5
101
330
B1
100
AcDbEntity
  8
A-001_Pan
100
AcDbVertex
100
AcDb2dVertex
 10
211.8471086224328
 20
199.6456513535017
 30
0.0
  0
VERTEX
  5
102
330
B1
100
AcDbEntity
  8
A-001_Pan
100
AcDbVertex
100
AcDb2dVertex
 10
212.0555255642245
 20
199.228822469605
 30
0.0
  0
VERTEX
  5
103
330
B1
100
AcDbEntity
  8
A-001_Pan
100
AcDbVertex
100
AcDb2dVertex
 10
212.1597340351203
 20
198.7103649531744
 30
0.0
  0
VERTEX
  5
104
330
B1
100
AcDbEntity
  8
A-001_Pan
100
AcDbVertex
100
AcDb2dVertex
 10
212.2639425060163
 20
198.2961209073265
 30
0.0
  0
VERTEX
  5
105
330
B1
100
AcDbEntity
  8
A-001_Pan
100
AcDbVertex
100
AcDb2dVertex
 10
212.4697696100724
 20
197.777663390896
 30
0.0
  0
VERTEX
  5
106
330
B1
100
AcDbEntity
  8
A-001_Pan
100
AcDbVertex
100
AcDb2dVertex
 10
212.5739780809683
 20
197.2592108741521
 30
0.0
  0
VERTEX
  5
107
330
B1
100
AcDbEntity
  8
A-001_Pan
100
AcDbVertex
100
AcDb2dVertex
 10
212.5739780809683
 20
196.8449618286174
 30
0.0
  0
VERTEX
  5
108
330
B1
100
AcDbEntity
  8
A-001_Pan
100
AcDbVertex
100
AcDb2dVertex
 10
212.6781865518642
 20
196.3239244738248
 30
0.0
  0
VERTEX
  5
109
330
B1
100
AcDbEntity
  8
A-001_Pan
100
AcDbVertex
100
AcDb2dVertex
 10
212.7823950227602
 20
195.8054719570808
 30
0.0
  0
VERTEX
  5
10A
330
B1
100
AcDbEntity
  8
A-001_Pan
100
AcDbVertex
100
AcDb2dVertex
 10
212.7823950227602
 20
195.3912229115463
 30
0.0
  0
VERTEX
  5
10B
330
B1
100
AcDbEntity
  8
A-001_Pan
100
AcDbVertex
100
AcDb2dVertex
 10
212.7823950227602
 20
194.8727703948025
 30
0.0
  0
VERTEX
  5
10C
330
B1
100
AcDbEntity
  8
A-001_Pan
100
AcDbVertex
100
AcDb2dVertex
 10
212.7823950227602
 20
194.3543178780585
 30
0.0
  0
VERTEX
  5
10D
330
B1
100
AcDbEntity
  8
A-001_Pan
100
AcDbVertex
100
AcDb2dVertex
 10
212.7823950227602
 20
190.6183419528469
 30
0.0
  0
VERTEX
  5
10E
330
B1
100
AcDbEntity
  8
A-001_Pan
100
AcDbVertex
100
AcDb2dVertex
 10
212.7823950227602
 20
189.2688115066714
 30
0.0
  0
VERTEX
  5
10F
330
B1
100
AcDbEntity
  8
A-001_Pan
100
AcDbVertex
100
AcDb2dVertex
 10
212.7823950227602
 20
188.0260743694409
 30
0.0
  0
VERTEX
  5
110
330
B1
100
AcDbEntity
  8
A-001_Pan
100
AcDbVertex
100
AcDb2dVertex
 10
212.8866034936559
 20
186.6765389235789
 30
0.0
  0
VERTEX
  5
111
330
B1
100
AcDbEntity
  8
A-001_Pan
100
AcDbVertex
100
AcDb2dVertex
 10
212.8866034936559
 20
185.3270084774036
 30
0.0
  0
VERTEX
  5
112
330
B1
100
AcDbEntity
  8
A-001_Pan
100
AcDbVertex
100
AcDb2dVertex
 10
212.9908119645519
 20
184.0816865021242
 30
0.0
  0
VERTEX
  5
113
330
B1
100
AcDbEntity
  8
A-001_Pan
100
AcDbVertex
100
AcDb2dVertex
 10
213.0924355973988
 20
182.734735894311
 30
0.0
  0
VERTEX
  5
114
330
B1
100
AcDbEntity
  8
A-001_Pan
100
AcDbVertex
100
AcDb2dVertex
 10
213.1966440682947
 20
181.4894139190315
 30
0.0
  0
VERTEX
  5
115
330
B1
100
AcDbEntity
  8
A-001_Pan
100
AcDbVertex
100
AcDb2dVertex
 10
213.3008475395038
 20
180.1398834728562
 30
0.0
  0
VERTEX
  5
116
330
B1
100
AcDbEntity
  8
A-001_Pan
100
AcDbVertex
100
AcDb2dVertex
 10
213.4050560103998
 20
178.7903480269942
 30
0.0
  0
VERTEX
  5
117
330
B1
100
AcDbEntity
  8
A-001_Pan
100
AcDbVertex
100
AcDb2dVertex
 10
213.6108881141427
 20
177.5450260517148
 30
0.0
  0
VERTEX
  5
118
330
B1
100
AcDbEntity
  8
A-001_Pan
100
AcDbVertex
100
AcDb2dVertex
 10
213.8193050559345
 20
176.1980754439016
 30
0.0
  0
VERTEX
  5
119
330
B1
100
AcDbEntity
  8
A-001_Pan
100
AcDbVertex
100
AcDb2dVertex
 10
213.9235135268303
 20
174.9527534686222
 30
0.0
  0
VERTEX
  5
11A
330
B1
100
AcDbEntity
  8
A-001_Pan
100
AcDbVertex
100
AcDb2dVertex
 10
214.1319254689355
 20
173.6032230224469
 30
0.0
  0
VERTEX
  5
11B
330
B1
100
AcDbEntity
  8
A-001_Pan
100
AcDbVertex
100
AcDb2dVertex
 10
214.3377575726784
 20
172.3578960474807
 30
0.0
  0
VERTEX
  5
11C
330
B1
100
AcDbEntity
  8
A-001_Pan
100
AcDbVertex
100
AcDb2dVertex
 10
214.6503829853659
 20
171.0083656013054
 30
0.0
  0
VERTEX
  5
11D
330
B1
100
AcDbEntity
  8
A-001_Pan
100
AcDbVertex
100
AcDb2dVertex
 10
214.8562100894221
 20
169.7656284640749
 30
0.0
  0
VERTEX
  5
11E
330
B1
100
AcDbEntity
  8
A-001_Pan
100
AcDbVertex
100
AcDb2dVertex
 10
215.1688355021098
 20
168.4160930182128
 30
0.0
  0
VERTEX
  5
11F
330
B1
100
AcDbEntity
  8
A-001_Pan
100
AcDbVertex
100
AcDb2dVertex
 10
215.3746676058527
 20
167.1707710429334
 30
0.0
  0
VERTEX
  5
120
330
B1
100
AcDbEntity
  8
A-001_Pan
100
AcDbVertex
100
AcDb2dVertex
 10
215.6872880188536
 20
165.8212405967581
 30
0.0
  0
VERTEX
  5
121
330
B1
100
AcDbEntity
  8
A-001_Pan
100
AcDbVertex
100
AcDb2dVertex
 10
215.9973285934924
 20
164.5759136217919
 30
0.0
  0
VERTEX
  5
122
330
B1
100
AcDbEntity
  8
A-001_Pan
100
AcDbVertex
100
AcDb2dVertex
 10
216.30995400618
 20
163.3331764845614
 30
0.0
  0
VERTEX
  5
123
330
B1
100
AcDbEntity
  8
A-001_Pan
100
AcDbVertex
100
AcDb2dVertex
 10
216.724198052028
 20
162.0878495095953
 30
0.0
  0
VERTEX
  5
124
330
B1
100
AcDbEntity
  8
A-001_Pan
100
AcDbVertex
100
AcDb2dVertex
 10
217.0368234647157
 20
160.7383190634199
 30
0.0
  0
VERTEX
  5
125
330
B1
100
AcDbEntity
  8
A-001_Pan
100
AcDbVertex
100
AcDb2dVertex
 10
217.4510675105636
 20
159.4929970881405
 30
0.0
  0
VERTEX
  5
126
330
B1
100
AcDbEntity
  8
A-001_Pan
100
AcDbVertex
100
AcDb2dVertex
 10
217.7611080852024
 20
158.2476701131743
 30
0.0
  0
VERTEX
  5
127
330
B1
100
AcDbEntity
  8
A-001_Pan
100
AcDbVertex
100
AcDb2dVertex
 10
218.1779369690992
 20
157.0023481378949
 30
0.0
  0
VERTEX
  5
128
330
B1
100
AcDbEntity
  8
A-001_Pan
100
AcDbVertex
100
AcDb2dVertex
 10
218.5921860146339
 20
155.7570211629287
 30
0.0
  0
VERTEX
  5
129
330
B1
100
AcDbEntity
  8
A-001_Pan
100
AcDbVertex
100
AcDb2dVertex
 10
219.0064300604817
 20
154.5142840256982
 30
0.0
  0
VERTEX
  5
12A
330
B1
100
AcDbEntity
  8
A-001_Pan
100
AcDbVertex
100
AcDb2dVertex
 10
219.5248875769123
 20
153.2689570507321
 30
0.0
  0
VERTEX
  5
12B
330
B1
100
AcDbEntity
  8
A-001_Pan
100
AcDbVertex
100
AcDb2dVertex
 10
219.9417164608092
 20
152.0236350754526
 30
0.0
  0
VERTEX
  5
12C
330
B1
100
AcDbEntity
  8
A-001_Pan
100
AcDbVertex
100
AcDb2dVertex
 10
220.4601689775531
 20
150.8825165713824
 30
0.0
  0
VERTEX
  5
12D
330
B1
100
AcDbEntity
  8
A-001_Pan
100
AcDbVertex
100
AcDb2dVertex
 10
220.9786264939837
 20
149.637194596103
 30
0.0
  0
VERTEX
  5
12E
330
B1
100
AcDbEntity
  8
A-001_Pan
100
AcDbVertex
100
AcDb2dVertex
 10
221.4970790107273
 20
148.3918726208235
 30
0.0
  0
VERTEX
  5
12F
330
B1
100
AcDbEntity
  8
A-001_Pan
100
AcDbVertex
100
AcDb2dVertex
 10
222.0155315274713
 20
147.2507541167532
 30
0.0
  0
VERTEX
  5
130
330
B1
100
AcDbEntity
  8
A-001_Pan
100
AcDbVertex
100
AcDb2dVertex
 10
222.5339890439018
 20
146.0054321414738
 30
0.0
  0
VERTEX
  5
131
330
B1
100
AcDbEntity
  8
A-001_Pan
100
AcDbVertex
100
AcDb2dVertex
 10
223.0524415606457
 20
144.8643136374036
 30
0.0
  0
VERTEX
  5
132
330
B1
100
AcDbEntity
  8
A-001_Pan
100
AcDbVertex
100
AcDb2dVertex
 10
223.6751025482853
 20
143.6189916621242
 30
0.0
  0
VERTEX
  5
133
330
B1
100
AcDbEntity
  8
A-001_Pan
100
AcDbVertex
100
AcDb2dVertex
 10
224.1935600647159
 20
142.4778731580538
 30
0.0
  0
VERTEX
  5
134
330
B1
100
AcDbEntity
  8
A-001_Pan
100
AcDbVertex
100
AcDb2dVertex
 10
224.8162210523556
 20
141.2325511827744
 30
0.0
  0
VERTEX
  5
135
330
B1
100
AcDbEntity
  8
A-001_Pan
100
AcDbVertex
100
AcDb2dVertex
 10
225.4388820399953
 20
140.0914326787041
 30
0.0
  0
VERTEX
  5
136
330
B1
100
AcDbEntity
  8
A-001_Pan
100
AcDbVertex
100
AcDb2dVertex
 10
226.061543027635
 20
138.9503141746339
 30
0.0
  0
VERTEX
  5
137
330
B1
100
AcDbEntity
  8
A-001_Pan
100
AcDbVertex
100
AcDb2dVertex
 10
226.6842090149614
 20
137.8092006702503
 30
0.0
  0
VERTEX
  5
138
330
B1
100
AcDbEntity
  8
A-001_Pan
100
AcDbVertex
100
AcDb2dVertex
 10
227.411078473497
 20
136.6680821661801
 30
0.0
  0
VERTEX
  5
139
330
B1
100
AcDbEntity
  8
A-001_Pan
100
AcDbVertex
100
AcDb2dVertex
 10
228.0337394611367
 20
135.5269686617965
 30
0.0
  0
VERTEX
  5
13A
330
B1
100
AcDbEntity
  8
A-001_Pan
100
AcDbVertex
100
AcDb2dVertex
 10
228.7606089196724
 20
134.3858501577262
 30
0.0
  0
VERTEX
  5
13B
330
B1
100
AcDbEntity
  8
A-001_Pan
100
AcDbVertex
100
AcDb2dVertex
 10
229.3832699073121
 20
133.3489401245519
 30
0.0
  0
VERTEX
  5
13C
330
B1
100
AcDbEntity
  8
A-001_Pan
100
AcDbVertex
100
AcDb2dVertex
 10
230.1075545277988
 20
132.2052417821194
 30
0.0
  0
VERTEX
  5
13D
330
B1
100
AcDbEntity
  8
A-001_Pan
100
AcDbVertex
100
AcDb2dVertex
 10
230.8344239863343
 20
131.0641232780492
 30
0.0
  0
VERTEX
  5
13E
330
B1
100
AcDbEntity
  8
A-001_Pan
100
AcDbVertex
100
AcDb2dVertex
 10
231.56129344487
 20
130.0272182445616
 30
0.0
  0
VERTEX
  5
13F
330
B1
100
AcDbEntity
  8
A-001_Pan
100
AcDbVertex
100
AcDb2dVertex
 10
232.2881629034057
 20
128.8860997404913
 30
0.0
  0
VERTEX
  5
140
330
B1
100
AcDbEntity
  8
A-001_Pan
100
AcDbVertex
100
AcDb2dVertex
 10
233.1166559947882
 20
127.8491897073169
 30
0.0
  0
VERTEX
  5
141
330
B1
100
AcDbEntity
  8
A-001_Pan
100
AcDbVertex
100
AcDb2dVertex
 10
233.8435254533239
 20
126.8122846738292
 30
0.0
  0
VERTEX
  5
142
330
B1
100
AcDbEntity
  8
A-001_Pan
100
AcDbVertex
100
AcDb2dVertex
 10
234.6746033827553
 20
125.7727898026059
 30
0.0
  0
VERTEX
  5
143
330
B1
100
AcDbEntity
  8
A-001_Pan
100
AcDbVertex
100
AcDb2dVertex
 10
235.5030964741379
 20
124.7358797694316
 30
0.0
  0
VERTEX
  5
144
330
B1
100
AcDbEntity
  8
A-001_Pan
100
AcDbVertex
100
AcDb2dVertex
 10
236.2299659326734
 20
123.6989747359439
 30
0.0
  0
VERTEX
  5
145
330
B1
100
AcDbEntity
  8
A-001_Pan
100
AcDbVertex
100
AcDb2dVertex
 10
237.0610438621049
 20
122.6620647027696
 30
0.0
  0
VERTEX
  5
146
330
B1
100
AcDbEntity
  8
A-001_Pan
100
AcDbVertex
100
AcDb2dVertex
 10
237.9937454243835
 20
121.6225698315463
 30
0.0
  0
VERTEX
  5
147
330
B1
100
AcDbEntity
  8
A-001_Pan
100
AcDbVertex
100
AcDb2dVertex
 10
238.824823353815
 20
120.6898682692678
 30
0.0
  0
VERTEX
  5
148
330
B1
100
AcDbEntity
  8
A-001_Pan
100
AcDbVertex
100
AcDb2dVertex
 10
239.6533164451976
 20
119.6529632357802
 30
0.0
  0
VERTEX
  5
149
330
B1
100
AcDbEntity
  8
A-001_Pan
100
AcDbVertex
100
AcDb2dVertex
 10
240.588602845525
 20
118.7176768354528
 30
0.0
  0
VERTEX
  5
14A
330
B1
100
AcDbEntity
  8
A-001_Pan
100
AcDbVertex
100
AcDb2dVertex
 10
241.4170959369076
 20
117.6807668022785
 30
0.0
  0
VERTEX
  5
14B
330
B1
100
AcDbEntity
  8
A-001_Pan
100
AcDbVertex
100
AcDb2dVertex
 10
242.352382337235
 20
116.7480652399999
 30
0.0
  0
VERTEX
  5
14C
330
B1
100
AcDbEntity
  8
A-001_Pan
100
AcDbVertex
100
AcDb2dVertex
 10
243.2850838995136
 20
115.8127838393592
 30
0.0
  0
VERTEX
  5
14D
330
B1
100
AcDbEntity
  8
A-001_Pan
100
AcDbVertex
100
AcDb2dVertex
 10
244.2177804621051
 20
114.8800822770808
 30
0.0
  0
VERTEX
  5
14E
330
B1
100
AcDbEntity
  8
A-001_Pan
100
AcDbVertex
100
AcDb2dVertex
 10
245.1530668624325
 20
113.9473807148023
 30
0.0
  0
VERTEX
  5
14F
330
B1
100
AcDbEntity
  8
A-001_Pan
100
AcDbVertex
100
AcDb2dVertex
 10
246.0857684247111
 20
113.0120943144749
 30
0.0
  0
VERTEX
  5
150
330
B1
100
AcDbEntity
  8
A-001_Pan
100
AcDbVertex
100
AcDb2dVertex
 10
247.0210548250384
 20
112.0793927521964
 30
0.0
  0
VERTEX
  5
151
330
B1
100
AcDbEntity
  8
A-001_Pan
100
AcDbVertex
100
AcDb2dVertex
 10
247.9537563873169
 20
111.2483148227649
 30
0.0
  0
VERTEX
  5
152
330
B1
100
AcDbEntity
  8
A-001_Pan
100
AcDbVertex
100
AcDb2dVertex
 10
248.9906614208045
 20
110.3156132604864
 30
0.0
  0
VERTEX
  5
153
330
B1
100
AcDbEntity
  8
A-001_Pan
100
AcDbVertex
100
AcDb2dVertex
 10
249.9259478211321
 20
109.4845403307416
 30
0.0
  0
VERTEX
  5
154
330
B1
100
AcDbEntity
  8
A-001_Pan
100
AcDbVertex
100
AcDb2dVertex
 10
250.9628578543064
 20
108.656047239359
 30
0.0
  0
VERTEX
  5
155
330
B1
100
AcDbEntity
  8
A-001_Pan
100
AcDbVertex
100
AcDb2dVertex
 10
251.9997678874807
 20
107.8249693099275
 30
0.0
  0
VERTEX
  5
156
330
B1
100
AcDbEntity
  8
A-001_Pan
100
AcDbVertex
100
AcDb2dVertex
 10
252.9350492881213
 20
106.9938913804961
 30
0.0
  0
VERTEX
  5
157
330
B1
100
AcDbEntity
  8
A-001_Pan
100
AcDbVertex
100
AcDb2dVertex
 10
253.9719593212957
 20
106.1653982891134
 30
0.0
  0
VERTEX
  5
158
330
B1
100
AcDbEntity
  8
A-001_Pan
100
AcDbVertex
100
AcDb2dVertex
 10
255.0088693544701
 20
105.334320359682
 30
0.0
  0
VERTEX
  5
159
330
B1
100
AcDbEntity
  8
A-001_Pan
100
AcDbVertex
100
AcDb2dVertex
 10
256.1499828588537
 20
104.6074509011464
 30
0.0
  0
VERTEX
  5
15A
330
B1
100
AcDbEntity
  8
A-001_Pan
100
AcDbVertex
100
AcDb2dVertex
 10
257.186892892028
 20
103.7789578097638
 30
0.0
  0
VERTEX
  5
15B
330
B1
100
AcDbEntity
  8
A-001_Pan
100
AcDbVertex
100
AcDb2dVertex
 10
258.2263877632513
 20
103.0520883512282
 30
0.0
  0
VERTEX
  5
15C
330
B1
100
AcDbEntity
  8
A-001_Pan
100
AcDbVertex
100
AcDb2dVertex
 10
259.3675012676348
 20
102.2210104217966
 30
0.0
  0
VERTEX
  5
15D
330
B1
100
AcDbEntity
  8
A-001_Pan
100
AcDbVertex
100
AcDb2dVertex
 10
260.4044113008093
 20
101.4967258013099
 30
0.0
  0
VERTEX
  5
15E
330
B1
100
AcDbEntity
  8
A-001_Pan
100
AcDbVertex
100
AcDb2dVertex
 10
261.5455298048795
 20
100.7698563427743
 30
0.0
  0
VERTEX
  5
15F
330
B1
100
AcDbEntity
  8
A-001_Pan
100
AcDbVertex
100
AcDb2dVertex
 10
262.582434838367
 20
100.1471903554479
 30
0.0
  0
VERTEX
  5
160
330
B1
100
AcDbEntity
  8
A-001_Pan
100
AcDbVertex
100
AcDb2dVertex
 10
263.7235533424375
 20
99.42032089691236
 30
0.0
  0
VERTEX
  5
161
330
B1
100
AcDbEntity
  8
A-001_Pan
100
AcDbVertex
100
AcDb2dVertex
 10
264.8646668468209
 20
98.69345143837676
 30
0.0
  0
VERTEX
  5
162
330
B1
100
AcDbEntity
  8
A-001_Pan
100
AcDbVertex
100
AcDb2dVertex
 10
266.0057853508912
 20
98.07337528878594
 30
0.0
  0
VERTEX
  5
163
330
B1
100
AcDbEntity
  8
A-001_Pan
100
AcDbVertex
100
AcDb2dVertex
 10
267.1469038549616
 20
97.34650583025036
 30
0.0
  0
VERTEX
  5
164
330
B1
100
AcDbEntity
  8
A-001_Pan
100
AcDbVertex
100
AcDb2dVertex
 10
268.2880173593451
 20
96.72384484261057
 30
0.0
  0
VERTEX
  5
165
330
B1
100
AcDbEntity
  8
A-001_Pan
100
AcDbVertex
100
AcDb2dVertex
 10
269.4317207014643
 20
96.10117885528417
 30
0.0
  0
VERTEX
  5
166
330
B1
100
AcDbEntity
  8
A-001_Pan
100
AcDbVertex
100
AcDb2dVertex
 10
270.5728342058477
 20
95.47851786764443
 30
0.0
  0
VERTEX
  5
167
330
B1
100
AcDbEntity
  8
A-001_Pan
100
AcDbVertex
100
AcDb2dVertex
 10
271.713952709918
 20
94.96006535090065
 30
0.0
  0
VERTEX
  5
168
330
B1
100
AcDbEntity
  8
A-001_Pan
100
AcDbVertex
100
AcDb2dVertex
 10
272.9592746851974
 20
94.33740436326088
 30
0.0
  0
VERTEX
  5
169
330
B1
100
AcDbEntity
  8
A-001_Pan
100
AcDbVertex
100
AcDb2dVertex
 10
274.1003931892677
 20
93.71473837593446
 30
0.0
  0
VERTEX
  5
16A
330
B1
100
AcDbEntity
  8
A-001_Pan
100
AcDbVertex
100
AcDb2dVertex
 10
275.3431303264982
 20
93.19628585919065
 30
0.0
  0
VERTEX
  5
16B
330
B1
100
AcDbEntity
  8
A-001_Pan
100
AcDbVertex
100
AcDb2dVertex
 10
276.4868336686173
 20
92.67783334244688
 30
0.0
  0
VERTEX
  5
16C
330
B1
100
AcDbEntity
  8
A-001_Pan
100
AcDbVertex
100
AcDb2dVertex
 10
277.729570805848
 20
92.15937582601624
 30
0.0
  0
VERTEX
  5
16D
330
B1
100
AcDbEntity
  8
A-001_Pan
100
AcDbVertex
100
AcDb2dVertex
 10
278.974897780814
 20
91.63833847122356
 30
0.0
  0
VERTEX
  5
16E
330
B1
100
AcDbEntity
  8
A-001_Pan
100
AcDbVertex
100
AcDb2dVertex
 10
280.1160112851977
 20
91.11988595447968
 30
0.0
  0
VERTEX
  5
16F
330
B1
100
AcDbEntity
  8
A-001_Pan
100
AcDbVertex
100
AcDb2dVertex
 10
281.3613382601639
 20
90.60142843804914
 30
0.0
  0
VERTEX
  5
170
330
B1
100
AcDbEntity
  8
A-001_Pan
100
AcDbVertex
100
AcDb2dVertex
 10
282.6066602354432
 20
90.18718439220123
 30
0.0
  0
VERTEX
  5
171
330
B1
100
AcDbEntity
  8
A-001_Pan
100
AcDbVertex
100
AcDb2dVertex
 10
283.8519822107226
 20
89.7729353466666
 30
0.0
  0
VERTEX
  5
172
330
B1
100
AcDbEntity
  8
A-001_Pan
100
AcDbVertex
100
AcDb2dVertex
 10
285.0973091856888
 20
89.25448282992277
 30
0.0
  0
VERTEX
  5
173
330
B1
100
AcDbEntity
  8
A-001_Pan
100
AcDbVertex
100
AcDb2dVertex
 10
286.3426311609682
 20
88.83765394602585
 30
0.0
  0
VERTEX
  5
174
330
B1
100
AcDbEntity
  8
A-001_Pan
100
AcDbVertex
100
AcDb2dVertex
 10
287.5879581359345
 20
88.52761337138714
 30
0.0
  0
VERTEX
  5
175
330
B1
100
AcDbEntity
  8
A-001_Pan
100
AcDbVertex
100
AcDb2dVertex
 10
288.8332801112138
 20
88.11078448749032
 30
0.0
  0
VERTEX
  5
176
330
B1
100
AcDbEntity
  8
A-001_Pan
100
AcDbVertex
100
AcDb2dVertex
 10
290.076022248131
 20
87.69653544195557
 30
0.0
  0
VERTEX
  5
177
330
B1
100
AcDbEntity
  8
A-001_Pan
100
AcDbVertex
100
AcDb2dVertex
 10
291.3213442234106
 20
87.38649486731679
 30
0.0
  0
VERTEX
  5
178
330
B1
100
AcDbEntity
  8
A-001_Pan
100
AcDbVertex
100
AcDb2dVertex
 10
292.6708746695858
 20
86.96966598341999
 30
0.0
  0
VERTEX
  5
179
330
B1
100
AcDbEntity
  8
A-001_Pan
100
AcDbVertex
100
AcDb2dVertex
 10
293.9162016445518
 20
86.65962540878126
 30
0.0
  0
VERTEX
  5
17A
330
B1
100
AcDbEntity
  8
A-001_Pan
100
AcDbVertex
100
AcDb2dVertex
 10
295.1615236198314
 20
86.3470049957803
 30
0.0
  0
VERTEX
  5
17B
330
B1
100
AcDbEntity
  8
A-001_Pan
100
AcDbVertex
100
AcDb2dVertex
 10
296.4068505947976
 20
86.03696442114154
 30
0.0
  0
VERTEX
  5
17C
330
B1
100
AcDbEntity
  8
A-001_Pan
100
AcDbVertex
100
AcDb2dVertex
 10
297.7537962029239
 20
85.82854747934977
 30
0.0
  0
VERTEX
  5
17D
330
B1
100
AcDbEntity
  8
A-001_Pan
100
AcDbVertex
100
AcDb2dVertex
 10
298.9991181782035
 20
85.51851190439776
 30
0.0
  0
VERTEX
  5
17E
330
B1
100
AcDbEntity
  8
A-001_Pan
100
AcDbVertex
100
AcDb2dVertex
 10
300.3486536240656
 20
85.31009496260594
 30
0.0
  0
VERTEX
  5
17F
330
B1
100
AcDbEntity
  8
A-001_Pan
100
AcDbVertex
100
AcDb2dVertex
 10
301.5939755993449
 20
85.0000543879671
 30
0.0
  0
VERTEX
  5
180
330
B1
100
AcDbEntity
  8
A-001_Pan
100
AcDbVertex
100
AcDb2dVertex
 10
302.9435060455202
 20
84.79164244586218
 30
0.0
  0
VERTEX
  5
181
330
B1
100
AcDbEntity
  8
A-001_Pan
100
AcDbVertex
100
AcDb2dVertex
 10
304.1862481824376
 20
84.5832255040703
 30
0.0
  0
VERTEX
  5
182
330
B1
100
AcDbEntity
  8
A-001_Pan
100
AcDbVertex
100
AcDb2dVertex
 10
305.5357786286129
 20
84.48160187122335
 30
0.0
  0
VERTEX
  5
183
330
B1
100
AcDbEntity
  8
A-001_Pan
100
AcDbVertex
100
AcDb2dVertex
 10
306.781105603579
 20
84.27318492943157
 30
0.0
  0
VERTEX
  5
184
330
B1
100
AcDbEntity
  8
A-001_Pan
100
AcDbVertex
100
AcDb2dVertex
 10
308.1306360497543
 20
84.16898145822239
 30
0.0
  0
VERTEX
  5
185
330
B1
100
AcDbEntity
  8
A-001_Pan
100
AcDbVertex
100
AcDb2dVertex
 10
309.4775816578807
 20
83.96314935447952
 30
0.0
  0
VERTEX
  5
186
330
B1
100
AcDbEntity
  8
A-001_Pan
100
AcDbVertex
100
AcDb2dVertex
 10
310.7229086328469
 20
83.85894088358368
 30
0.0
  0
VERTEX
  5
187
330
B1
100
AcDbEntity
  8
A-001_Pan
100
AcDbVertex
100
AcDb2dVertex
 10
312.0724390790221
 20
83.75473241268776
 30
0.0
  0
VERTEX
  5
188
330
B1
100
AcDbEntity
  8
A-001_Pan
100
AcDbVertex
100
AcDb2dVertex
 10
313.2135525834058
 20
83.65052394179185
 30
0.0
  0
VERTEX
  5
189
330
B1
100
AcDbEntity
  8
A-001_Pan
100
AcDbVertex
100
AcDb2dVertex
 10
314.5630880292678
 20
83.65052394179185
 30
0.0
  0
VERTEX
  5
18A
330
B1
100
AcDbEntity
  8
A-001_Pan
100
AcDbVertex
100
AcDb2dVertex
 10
315.9100336373941
 20
83.54631547089599
 30
0.0
  0
VERTEX
  5
18B
330
B1
100
AcDbEntity
  8
A-001_Pan
100
AcDbVertex
100
AcDb2dVertex
 10
317.1553606123604
 20
83.54631547089599
 30
0.0
  0
VERTEX
  5
18C
330
B1
100
AcDbEntity
  8
A-001_Pan
100
AcDbVertex
100
AcDb2dVertex
 10
318.5048910585357
 20
83.44210700000003
 30
0.0
  0
VERTEX
  5
18D
330
B1
100
AcDbEntity
  8
A-001_Pan
100
AcDbVertex
100
AcDb2dVertex
 10
319.8544215047111
 20
83.44210700000003
 30
0.0
  0
VERTEX
  5
18E
330
B1
100
AcDbEntity
  8
A-001_Pan
100
AcDbVertex
100
AcDb2dVertex
 10
321.0997434799903
 20
83.44210700000003
 30
0.0
  0
VERTEX
  5
18F
330
B1
100
AcDbEntity
  8
A-001_Pan
100
AcDbVertex
100
AcDb2dVertex
 10
322.4466940878035
 20
83.54631547089599
 30
0.0
  0
VERTEX
  5
190
330
B1
100
AcDbEntity
  8
A-001_Pan
100
AcDbVertex
100
AcDb2dVertex
 10
323.7962245339788
 20
83.54631547089599
 30
0.0
  0
VERTEX
  5
191
330
B1
100
AcDbEntity
  8
A-001_Pan
100
AcDbVertex
100
AcDb2dVertex
 10
325.0415515089451
 20
83.65052394179185
 30
0.0
  0
VERTEX
  5
192
330
B1
100
AcDbEntity
  8
A-001_Pan
100
AcDbVertex
100
AcDb2dVertex
 10
326.3910819551203
 20
83.65052394179185
 30
0.0
  0
VERTEX
  5
193
330
B1
100
AcDbEntity
  8
A-001_Pan
100
AcDbVertex
100
AcDb2dVertex
 10
327.7380275632467
 20
83.75473241268776
 30
0.0
  0
VERTEX
  5
194
330
B1
100
AcDbEntity
  8
A-001_Pan
100
AcDbVertex
100
AcDb2dVertex
 10
328.983354538213
 20
83.85894088358368
 30
0.0
  0
VERTEX
  5
195
330
B1
100
AcDbEntity
  8
A-001_Pan
100
AcDbVertex
100
AcDb2dVertex
 10
330.3328849843883
 20
83.96314935447952
 30
0.0
  0
VERTEX
  5
196
330
B1
100
AcDbEntity
  8
A-001_Pan
100
AcDbVertex
100
AcDb2dVertex
 10
331.6824154305635
 20
84.16898145822239
 30
0.0
  0
VERTEX
  5
197
330
B1
100
AcDbEntity
  8
A-001_Pan
100
AcDbVertex
100
AcDb2dVertex
 10
332.9277424055298
 20
84.27318492943157
 30
0.0
  0
VERTEX
  5
198
330
B1
100
AcDbEntity
  8
A-001_Pan
100
AcDbVertex
100
AcDb2dVertex
 10
334.274688013656
 20
84.48160187122335
 30
0.0
  0
VERTEX
  5
199
330
B1
100
AcDbEntity
  8
A-001_Pan
100
AcDbVertex
100
AcDb2dVertex
 10
335.5200099889356
 20
84.5832255040703
 30
0.0
  0
VERTEX
  5
19A
330
B1
100
AcDbEntity
  8
A-001_Pan
100
AcDbVertex
100
AcDb2dVertex
 10
336.8695454347977
 20
84.79164244586218
 30
0.0
  0
VERTEX
  5
19B
330
B1
100
AcDbEntity
  8
A-001_Pan
100
AcDbVertex
100
AcDb2dVertex
 10
338.1148674100771
 20
85.0000543879671
 30
0.0
  0
VERTEX
  5
19C
330
B1
100
AcDbEntity
  8
A-001_Pan
100
AcDbVertex
100
AcDb2dVertex
 10
339.4618130182035
 20
85.31009496260594
 30
0.0
  0
VERTEX
  5
19D
330
B1
100
AcDbEntity
  8
A-001_Pan
100
AcDbVertex
100
AcDb2dVertex
 10
340.7071399931695
 20
85.51851190439776
 30
0.0
  0
VERTEX
  5
19E
330
B1
100
AcDbEntity
  8
A-001_Pan
100
AcDbVertex
100
AcDb2dVertex
 10
342.056670439345
 20
85.82854747934977
 30
0.0
  0
VERTEX
  5
19F
330
B1
100
AcDbEntity
  8
A-001_Pan
100
AcDbVertex
100
AcDb2dVertex
 10
343.301997414311
 20
86.03696442114154
 30
0.0
  0
VERTEX
  5
1A0
330
B1
100
AcDbEntity
  8
A-001_Pan
100
AcDbVertex
100
AcDb2dVertex
 10
344.5473193895906
 20
86.3470049957803
 30
0.0
  0
VERTEX
  5
1A1
330
B1
100
AcDbEntity
  8
A-001_Pan
100
AcDbVertex
100
AcDb2dVertex
 10
345.8942649977171
 20
86.65962540878126
 30
0.0
  0
VERTEX
  5
1A2
330
B1
100
AcDbEntity
  8
A-001_Pan
100
AcDbVertex
100
AcDb2dVertex
 10
347.1395919726831
 20
86.96966598341999
 30
0.0
  0
VERTEX
  5
1A3
330
B1
100
AcDbEntity
  8
A-001_Pan
100
AcDbVertex
100
AcDb2dVertex
 10
348.3849139479626
 20
87.38649486731679
 30
0.0
  0
VERTEX
  5
1A4
330
B1
100
AcDbEntity
  8
A-001_Pan
100
AcDbVertex
100
AcDb2dVertex
 10
349.6302409229287
 20
87.69653544195557
 30
0.0
  0
VERTEX
  5
1A5
330
B1
100
AcDbEntity
  8
A-001_Pan
100
AcDbVertex
100
AcDb2dVertex
 10
350.979771369104
 20
88.11078448749032
 30
0.0
  0
VERTEX
  5
1A6
330
B1
100
AcDbEntity
  8
A-001_Pan
100
AcDbVertex
100
AcDb2dVertex
 10
352.2250933443835
 20
88.52761337138714
 30
0.0
  0
VERTEX
  5
1A7
330
B1
100
AcDbEntity
  8
A-001_Pan
100
AcDbVertex
100
AcDb2dVertex
 10
353.4704203193496
 20
88.83765394602585
 30
0.0
  0
VERTEX
  5
1A8
330
B1
100
AcDbEntity
  8
A-001_Pan
100
AcDbVertex
100
AcDb2dVertex
 10
354.7131574565801
 20
89.25448282992277
 30
0.0
  0
VERTEX
  5
1A9
330
B1
100
AcDbEntity
  8
A-001_Pan
100
AcDbVertex
100
AcDb2dVertex
 10
355.9584844315464
 20
89.7729353466666
 30
0.0
  0
VERTEX
  5
1AA
330
B1
100
AcDbEntity
  8
A-001_Pan
100
AcDbVertex
100
AcDb2dVertex
 10
357.2038064068257
 20
90.18718439220123
 30
0.0
  0
VERTEX
  5
1AB
330
B1
100
AcDbEntity
  8
A-001_Pan
100
AcDbVertex
100
AcDb2dVertex
 10
358.3449249108959
 20
90.60142843804914
 30
0.0
  0
VERTEX
  5
1AC
330
B1
100
AcDbEntity
  8
A-001_Pan
100
AcDbVertex
100
AcDb2dVertex
 10
359.5902468861755
 20
91.11988595447968
 30
0.0
  0
VERTEX
  5
1AD
330
B1
100
AcDbEntity
  8
A-001_Pan
100
AcDbVertex
100
AcDb2dVertex
 10
360.8355688614548
 20
91.63833847122356
 30
0.0
  0
VERTEX
  5
1AE
330
B1
100
AcDbEntity
  8
A-001_Pan
100
AcDbVertex
100
AcDb2dVertex
 10
362.0808958364211
 20
92.15937582601624
 30
0.0
  0
VERTEX
  5
1AF
330
B1
100
AcDbEntity
  8
A-001_Pan
100
AcDbVertex
100
AcDb2dVertex
 10
363.2220093408045
 20
92.67783334244688
 30
0.0
  0
VERTEX
  5
1B0
330
B1
100
AcDbEntity
  8
A-001_Pan
100
AcDbVertex
100
AcDb2dVertex
 10
364.4673363157707
 20
93.19628585919065
 30
0.0
  0
VERTEX
  5
1B1
330
B1
100
AcDbEntity
  8
A-001_Pan
100
AcDbVertex
100
AcDb2dVertex
 10
365.6084498201543
 20
93.71473837593446
 30
0.0
  0
VERTEX
  5
1B2
330
B1
100
AcDbEntity
  8
A-001_Pan
100
AcDbVertex
100
AcDb2dVertex
 10
366.8537767951205
 20
94.33740436326088
 30
0.0
  0
VERTEX
  5
1B3
330
B1
100
AcDbEntity
  8
A-001_Pan
100
AcDbVertex
100
AcDb2dVertex
 10
367.994890299504
 20
94.96006535090065
 30
0.0
  0
VERTEX
  5
1B4
330
B1
100
AcDbEntity
  8
A-001_Pan
100
AcDbVertex
100
AcDb2dVertex
 10
369.1360088035741
 20
95.47851786764443
 30
0.0
  0
VERTEX
  5
1B5
330
B1
100
AcDbEntity
  8
A-001_Pan
100
AcDbVertex
100
AcDb2dVertex
 10
370.3813307788537
 20
96.10117885528417
 30
0.0
  0
VERTEX
  5
1B6
330
B1
100
AcDbEntity
  8
A-001_Pan
100
AcDbVertex
100
AcDb2dVertex
 10
371.522449282924
 20
96.72384484261057
 30
0.0
  0
VERTEX
  5
1B7
330
B1
100
AcDbEntity
  8
A-001_Pan
100
AcDbVertex
100
AcDb2dVertex
 10
372.6635677869941
 20
97.34650583025036
 30
0.0
  0
VERTEX
  5
1B8
330
B1
100
AcDbEntity
  8
A-001_Pan
100
AcDbVertex
100
AcDb2dVertex
 10
373.8046812913779
 20
98.07337528878594
 30
0.0
  0
VERTEX
  5
1B9
330
B1
100
AcDbEntity
  8
A-001_Pan
100
AcDbVertex
100
AcDb2dVertex
 10
374.945799795448
 20
98.69345143837676
 30
0.0
  0
VERTEX
  5
1BA
330
B1
100
AcDbEntity
  8
A-001_Pan
100
AcDbVertex
100
AcDb2dVertex
 10
376.0869132998315
 20
99.42032089691236
 30
0.0
  0
VERTEX
  5
1BB
330
B1
100
AcDbEntity
  8
A-001_Pan
100
AcDbVertex
100
AcDb2dVertex
 10
377.123823333006
 20
100.1471903554479
 30
0.0
  0
VERTEX
  5
1BC
330
B1
100
AcDbEntity
  8
A-001_Pan
100
AcDbVertex
100
AcDb2dVertex
 10
378.2649418370762
 20
100.7698563427743
 30
0.0
  0
VERTEX
  5
1BD
330
B1
100
AcDbEntity
  8
A-001_Pan
100
AcDbVertex
100
AcDb2dVertex
 10
379.4060553414597
 20
101.4967258013099
 30
0.0
  0
VERTEX
  5
1BE
330
B1
100
AcDbEntity
  8
A-001_Pan
100
AcDbVertex
100
AcDb2dVertex
 10
380.445550212683
 20
102.2210104217966
 30
0.0
  0
VERTEX
  5
1BF
330
B1
100
AcDbEntity
  8
A-001_Pan
100
AcDbVertex
100
AcDb2dVertex
 10
381.4824552461707
 20
103.0520883512282
 30
0.0
  0
VERTEX
  5
1C0
330
B1
100
AcDbEntity
  8
A-001_Pan
100
AcDbVertex
100
AcDb2dVertex
 10
382.6235737502409
 20
103.7789578097638
 30
0.0
  0
VERTEX
  5
1C1
330
B1
100
AcDbEntity
  8
A-001_Pan
100
AcDbVertex
100
AcDb2dVertex
 10
383.6604837834152
 20
104.6074509011464
 30
0.0
  0
VERTEX
  5
1C2
330
B1
100
AcDbEntity
  8
A-001_Pan
100
AcDbVertex
100
AcDb2dVertex
 10
384.6973888169029
 20
105.334320359682
 30
0.0
  0
VERTEX
  5
1C3
330
B1
100
AcDbEntity
  8
A-001_Pan
100
AcDbVertex
100
AcDb2dVertex
 10
385.7368836881262
 20
106.1653982891134
 30
0.0
  0
VERTEX
  5
1C4
330
B1
100
AcDbEntity
  8
A-001_Pan
100
AcDbVertex
100
AcDb2dVertex
 10
386.7737937213005
 20
106.9938913804961
 30
0.0
  0
VERTEX
  5
1C5
330
B1
100
AcDbEntity
  8
A-001_Pan
100
AcDbVertex
100
AcDb2dVertex
 10
387.8107037544749
 20
107.8249693099275
 30
0.0
  0
VERTEX
  5
1C6
330
B1
100
AcDbEntity
  8
A-001_Pan
100
AcDbVertex
100
AcDb2dVertex
 10
388.8476087879627
 20
108.656047239359
 30
0.0
  0
VERTEX
  5
1C7
330
B1
100
AcDbEntity
  8
A-001_Pan
100
AcDbVertex
100
AcDb2dVertex
 10
389.7828951882899
 20
109.4845403307416
 30
0.0
  0
VERTEX
  5
1C8
330
B1
100
AcDbEntity
  8
A-001_Pan
100
AcDbVertex
100
AcDb2dVertex
 10
390.8198052214644
 20
110.3156132604864
 30
0.0
  0
VERTEX
  5
1C9
330
B1
100
AcDbEntity
  8
A-001_Pan
100
AcDbVertex
100
AcDb2dVertex
 10
391.7525067837428
 20
111.2483148227649
 30
0.0
  0
VERTEX
  5
1CA
330
B1
100
AcDbEntity
  8
A-001_Pan
100
AcDbVertex
100
AcDb2dVertex
 10
392.7919966552795
 20
112.0793927521964
 30
0.0
  0
VERTEX
  5
1CB
330
B1
100
AcDbEntity
  8
A-001_Pan
100
AcDbVertex
100
AcDb2dVertex
 10
393.7246982175578
 20
113.0120943144749
 30
0.0
  0
VERTEX
  5
1CC
330
B1
100
AcDbEntity
  8
A-001_Pan
100
AcDbVertex
100
AcDb2dVertex
 10
394.6599846178853
 20
113.9473807148023
 30
0.0
  0
VERTEX
  5
1CD
330
B1
100
AcDbEntity
  8
A-001_Pan
100
AcDbVertex
100
AcDb2dVertex
 10
395.5926861801638
 20
114.8800822770808
 30
0.0
  0
VERTEX
  5
1CE
330
B1
100
AcDbEntity
  8
A-001_Pan
100
AcDbVertex
100
AcDb2dVertex
 10
396.5253877424423
 20
115.8127838393592
 30
0.0
  0
VERTEX
  5
1CF
330
B1
100
AcDbEntity
  8
A-001_Pan
100
AcDbVertex
100
AcDb2dVertex
 10
397.4606691430829
 20
116.7480652399999
 30
0.0
  0
VERTEX
  5
1D0
330
B1
100
AcDbEntity
  8
A-001_Pan
100
AcDbVertex
100
AcDb2dVertex
 10
398.2891622344654
 20
117.6807668022785
 30
0.0
  0
VERTEX
  5
1D1
330
B1
100
AcDbEntity
  8
A-001_Pan
100
AcDbVertex
100
AcDb2dVertex
 10
399.224448634793
 20
118.7176768354528
 30
0.0
  0
VERTEX
  5
1D2
330
B1
100
AcDbEntity
  8
A-001_Pan
100
AcDbVertex
100
AcDb2dVertex
 10
400.0529417261754
 20
119.6529632357802
 30
0.0
  0
VERTEX
  5
1D3
330
B1
100
AcDbEntity
  8
A-001_Pan
100
AcDbVertex
100
AcDb2dVertex
 10
400.988228126503
 20
120.6898682692678
 30
0.0
  0
VERTEX
  5
1D4
330
B1
100
AcDbEntity
  8
A-001_Pan
100
AcDbVertex
100
AcDb2dVertex
 10
401.8167212178854
 20
121.6225698315463
 30
0.0
  0
VERTEX
  5
1D5
330
B1
100
AcDbEntity
  8
A-001_Pan
100
AcDbVertex
100
AcDb2dVertex
 10
402.647799147317
 20
122.6620647027696
 30
0.0
  0
VERTEX
  5
1D6
330
B1
100
AcDbEntity
  8
A-001_Pan
100
AcDbVertex
100
AcDb2dVertex
 10
403.4788770767485
 20
123.6989747359439
 30
0.0
  0
VERTEX
  5
1D7
330
B1
100
AcDbEntity
  8
A-001_Pan
100
AcDbVertex
100
AcDb2dVertex
 10
404.307370168131
 20
124.7358797694316
 30
0.0
  0
VERTEX
  5
1D8
330
B1
100
AcDbEntity
  8
A-001_Pan
100
AcDbVertex
100
AcDb2dVertex
 10
405.1384480975626
 20
125.7727898026059
 30
0.0
  0
VERTEX
  5
1D9
330
B1
100
AcDbEntity
  8
A-001_Pan
100
AcDbVertex
100
AcDb2dVertex
 10
405.8627327180492
 20
126.8122846738292
 30
0.0
  0
VERTEX
  5
1DA
330
B1
100
AcDbEntity
  8
A-001_Pan
100
AcDbVertex
100
AcDb2dVertex
 10
406.6938106474807
 20
127.8491897073169
 30
0.0
  0
VERTEX
  5
1DB
330
B1
100
AcDbEntity
  8
A-001_Pan
100
AcDbVertex
100
AcDb2dVertex
 10
407.4206801060163
 20
128.8860997404913
 30
0.0
  0
VERTEX
  5
1DC
330
B1
100
AcDbEntity
  8
A-001_Pan
100
AcDbVertex
100
AcDb2dVertex
 10
408.1475495645519
 20
130.0272182445616
 30
0.0
  0
VERTEX
  5
1DD
330
B1
100
AcDbEntity
  8
A-001_Pan
100
AcDbVertex
100
AcDb2dVertex
 10
408.8718341850388
 20
131.0641232780492
 30
0.0
  0
VERTEX
  5
1DE
330
B1
100
AcDbEntity
  8
A-001_Pan
100
AcDbVertex
100
AcDb2dVertex
 10
409.5987036435742
 20
132.2052417821194
 30
0.0
  0
VERTEX
  5
1DF
330
B1
100
AcDbEntity
  8
A-001_Pan
100
AcDbVertex
100
AcDb2dVertex
 10
410.3255731021099
 20
133.3489401245519
 30
0.0
  0
VERTEX
  5
1E0
330
B1
100
AcDbEntity
  8
A-001_Pan
100
AcDbVertex
100
AcDb2dVertex
 10
411.0524425606454
 20
134.3858501577262
 30
0.0
  0
VERTEX
  5
1E1
330
B1
100
AcDbEntity
  8
A-001_Pan
100
AcDbVertex
100
AcDb2dVertex
 10
411.7767271811321
 20
135.5269686617965
 30
0.0
  0
VERTEX
  5
1E2
330
B1
100
AcDbEntity
  8
A-001_Pan
100
AcDbVertex
100
AcDb2dVertex
 10
412.3993931684587
 20
136.6680821661801
 30
0.0
  0
VERTEX
  5
1E3
330
B1
100
AcDbEntity
  8
A-001_Pan
100
AcDbVertex
100
AcDb2dVertex
 10
413.0220541560983
 20
137.8092006702503
 30
0.0
  0
VERTEX
  5
1E4
330
B1
100
AcDbEntity
  8
A-001_Pan
100
AcDbVertex
100
AcDb2dVertex
 10
413.644715143738
 20
138.9503141746339
 30
0.0
  0
VERTEX
  5
1E5
330
B1
100
AcDbEntity
  8
A-001_Pan
100
AcDbVertex
100
AcDb2dVertex
 10
414.3715846022736
 20
140.0914326787041
 30
0.0
  0
VERTEX
  5
1E6
330
B1
100
AcDbEntity
  8
A-001_Pan
100
AcDbVertex
100
AcDb2dVertex
 10
414.8900371190174
 20
141.2325511827744
 30
0.0
  0
VERTEX
  5
1E7
330
B1
100
AcDbEntity
  8
A-001_Pan
100
AcDbVertex
100
AcDb2dVertex
 10
415.5127031063439
 20
142.4778731580538
 30
0.0
  0
VERTEX
  5
1E8
330
B1
100
AcDbEntity
  8
A-001_Pan
100
AcDbVertex
100
AcDb2dVertex
 10
416.1353640939836
 20
143.6189916621242
 30
0.0
  0
VERTEX
  5
1E9
330
B1
100
AcDbEntity
  8
A-001_Pan
100
AcDbVertex
100
AcDb2dVertex
 10
416.6538166107275
 20
144.8643136374036
 30
0.0
  0
VERTEX
  5
1EA
330
B1
100
AcDbEntity
  8
A-001_Pan
100
AcDbVertex
100
AcDb2dVertex
 10
417.2764775983672
 20
146.0054321414738
 30
0.0
  0
VERTEX
  5
1EB
330
B1
100
AcDbEntity
  8
A-001_Pan
100
AcDbVertex
100
AcDb2dVertex
 10
417.7949351147977
 20
147.2507541167532
 30
0.0
  0
VERTEX
  5
1EC
330
B1
100
AcDbEntity
  8
A-001_Pan
100
AcDbVertex
100
AcDb2dVertex
 10
418.3133876315416
 20
148.3918726208235
 30
0.0
  0
VERTEX
  5
1ED
330
B1
100
AcDbEntity
  8
A-001_Pan
100
AcDbVertex
100
AcDb2dVertex
 10
418.8327050940928
 20
149.637194596103
 30
0.0
  0
VERTEX
  5
1EE
330
B1
100
AcDbEntity
  8
A-001_Pan
100
AcDbVertex
100
AcDb2dVertex
 10
419.3528825027648
 20
150.8825165713824
 30
0.0
  0
VERTEX
  5
1EF
330
B1
100
AcDbEntity
  8
A-001_Pan
100
AcDbVertex
100
AcDb2dVertex
 10
419.7671265486128
 20
152.0236350754526
 30
0.0
  0
VERTEX
  5
1F0
330
B1
100
AcDbEntity
  8
A-001_Pan
100
AcDbVertex
100
AcDb2dVertex
 10
420.2855840650433
 20
153.2689570507321
 30
0.0
  0
VERTEX
  5
1F1
330
B1
100
AcDbEntity
  8
A-001_Pan
100
AcDbVertex
100
AcDb2dVertex
 10
420.6998281108911
 20
154.5142840256982
 30
0.0
  0
VERTEX
  5
1F2
330
B1
100
AcDbEntity
  8
A-001_Pan
100
AcDbVertex
100
AcDb2dVertex
 10
421.116656994788
 20
155.7570211629287
 30
0.0
  0
VERTEX
  5
1F3
330
B1
100
AcDbEntity
  8
A-001_Pan
100
AcDbVertex
100
AcDb2dVertex
 10
421.5309060403228
 20
157.0023481378949
 30
0.0
  0
VERTEX
  5
1F4
330
B1
100
AcDbEntity
  8
A-001_Pan
100
AcDbVertex
100
AcDb2dVertex
 10
421.9451500861707
 20
158.2476701131743
 30
0.0
  0
VERTEX
  5
1F5
330
B1
100
AcDbEntity
  8
A-001_Pan
100
AcDbVertex
100
AcDb2dVertex
 10
422.360259077826
 20
159.4929970881405
 30
0.0
  0
VERTEX
  5
1F6
330
B1
100
AcDbEntity
  8
A-001_Pan
100
AcDbVertex
100
AcDb2dVertex
 10
422.7762280156022
 20
160.7383190634199
 30
0.0
  0
VERTEX
  5
1F7
330
B1
100
AcDbEntity
  8
A-001_Pan
100
AcDbVertex
100
AcDb2dVertex
 10
423.0862685902409
 20
162.0878495095953
 30
0.0
  0
VERTEX
  5
1F8
330
B1
100
AcDbEntity
  8
A-001_Pan
100
AcDbVertex
100
AcDb2dVertex
 10
423.3988940029286
 20
163.3331764845614
 30
0.0
  0
VERTEX
  5
1F9
330
B1
100
AcDbEntity
  8
A-001_Pan
100
AcDbVertex
100
AcDb2dVertex
 10
423.7089295778807
 20
164.5759136217919
 30
0.0
  0
VERTEX
  5
1FA
330
B1
100
AcDbEntity
  8
A-001_Pan
100
AcDbVertex
100
AcDb2dVertex
 10
424.0215549905683
 20
165.9254440679672
 30
0.0
  0
VERTEX
  5
1FB
330
B1
100
AcDbEntity
  8
A-001_Pan
100
AcDbVertex
100
AcDb2dVertex
 10
424.3315905655204
 20
167.1707710429334
 30
0.0
  0
VERTEX
  5
1FC
330
B1
100
AcDbEntity
  8
A-001_Pan
100
AcDbVertex
100
AcDb2dVertex
 10
424.644215978208
 20
168.4160930182128
 30
0.0
  0
VERTEX
  5
1FD
330
B1
100
AcDbEntity
  8
A-001_Pan
100
AcDbVertex
100
AcDb2dVertex
 10
424.9542565528468
 20
169.7656284640749
 30
0.0
  0
VERTEX
  5
1FE
330
B1
100
AcDbEntity
  8
A-001_Pan
100
AcDbVertex
100
AcDb2dVertex
 10
425.1626684949518
 20
171.0083656013054
 30
0.0
  0
VERTEX
  5
1FF
330
B1
100
AcDbEntity
  8
A-001_Pan
100
AcDbVertex
100
AcDb2dVertex
 10
425.3685005986946
 20
172.3578960474807
 30
0.0
  0
VERTEX
  5
200
330
B1
100
AcDbEntity
  8
A-001_Pan
100
AcDbVertex
100
AcDb2dVertex
 10
425.5769175404865
 20
173.6032230224469
 30
0.0
  0
VERTEX
  5
201
330
B1
100
AcDbEntity
  8
A-001_Pan
100
AcDbVertex
100
AcDb2dVertex
 10
425.7853344822783
 20
174.9527534686222
 30
0.0
  0
VERTEX
  5
202
330
B1
100
AcDbEntity
  8
A-001_Pan
100
AcDbVertex
100
AcDb2dVertex
 10
425.9911615863345
 20
176.1980754439016
 30
0.0
  0
VERTEX
  5
203
330
B1
100
AcDbEntity
  8
A-001_Pan
100
AcDbVertex
100
AcDb2dVertex
 10
426.1995785281262
 20
177.5450260517148
 30
0.0
  0
VERTEX
  5
204
330
B1
100
AcDbEntity
  8
A-001_Pan
100
AcDbVertex
100
AcDb2dVertex
 10
426.303786999022
 20
178.7903480269942
 30
0.0
  0
VERTEX
  5
205
330
B1
100
AcDbEntity
  8
A-001_Pan
100
AcDbVertex
100
AcDb2dVertex
 10
426.4079954699182
 20
180.1398834728562
 30
0.0
  0
VERTEX
  5
206
330
B1
100
AcDbEntity
  8
A-001_Pan
100
AcDbVertex
100
AcDb2dVertex
 10
426.6138275736608
 20
181.4894139190315
 30
0.0
  0
VERTEX
  5
207
330
B1
100
AcDbEntity
  8
A-001_Pan
100
AcDbVertex
100
AcDb2dVertex
 10
426.7180310448701
 20
182.734735894311
 30
0.0
  0
VERTEX
  5
208
330
B1
100
AcDbEntity
  8
A-001_Pan
100
AcDbVertex
100
AcDb2dVertex
 10
426.7180310448701
 20
184.0816865021242
 30
0.0
  0
VERTEX
  5
209
330
B1
100
AcDbEntity
  8
A-001_Pan
100
AcDbVertex
100
AcDb2dVertex
 10
426.822239515766
 20
185.3270084774036
 30
0.0
  0
VERTEX
  5
20A
330
B1
100
AcDbEntity
  8
A-001_Pan
100
AcDbVertex
100
AcDb2dVertex
 10
426.9264479866619
 20
186.6765389235789
 30
0.0
  0
VERTEX
  5
20B
330
B1
100
AcDbEntity
  8
A-001_Pan
100
AcDbVertex
100
AcDb2dVertex
 10
426.9264479866619
 20
188.0260743694409
 30
0.0
  0
VERTEX
  5
20C
330
B1
100
AcDbEntity
  8
A-001_Pan
100
AcDbVertex
100
AcDb2dVertex
 10
426.9264479866619
 20
189.2688115066714
 30
0.0
  0
VERTEX
  5
20D
330
B1
100
AcDbEntity
  8
A-001_Pan
100
AcDbVertex
100
AcDb2dVertex
 10
426.9264479866619
 20
190.6183419528469
 30
0.0
  0
VERTEX
  5
20E
330
B1
100
AcDbEntity
  8
A-001_Pan
100
AcDbVertex
100
AcDb2dVertex
 10
426.9264479866619
 20
194.3543178780585
 30
0.0
  0
VERTEX
  5
20F
330
B1
100
AcDbEntity
  8
A-001_Pan
100
AcDbVertex
100
AcDb2dVertex
 10
426.9264479866619
 20
194.8727703948025
 30
0.0
  0
VERTEX
  5
210
330
B1
100
AcDbEntity
  8
A-001_Pan
100
AcDbVertex
100
AcDb2dVertex
 10
427.0280716195089
 20
195.3912229115463
 30
0.0
  0
VERTEX
  5
211
330
B1
100
AcDbEntity
  8
A-001_Pan
100
AcDbVertex
100
AcDb2dVertex
 10
427.0280716195089
 20
195.8054719570808
 30
0.0
  0
VERTEX
  5
212
330
B1
100
AcDbEntity
  8
A-001_Pan
100
AcDbVertex
100
AcDb2dVertex
 10
427.1322800904047
 20
196.3239244738248
 30
0.0
  0
VERTEX
  5
213
330
B1
100
AcDbEntity
  8
A-001_Pan
100
AcDbVertex
100
AcDb2dVertex
 10
427.1322800904047
 20
196.8449618286174
 30
0.0
  0
VERTEX
  5
214
330
B1
100
AcDbEntity
  8
A-001_Pan
100
AcDbVertex
100
AcDb2dVertex
 10
427.2364885613005
 20
197.2592108741521
 30
0.0
  0
VERTEX
  5
215
330
B1
100
AcDbEntity
  8
A-001_Pan
100
AcDbVertex
100
AcDb2dVertex
 10
427.3406970321965
 20
197.777663390896
 30
0.0
  0
VERTEX
  5
216
330
B1
100
AcDbEntity
  8
A-001_Pan
100
AcDbVertex
100
AcDb2dVertex
 10
427.4449005034057
 20
198.2961209073265
 30
0.0
  0
VERTEX
  5
217
330
B1
100
AcDbEntity
  8
A-001_Pan
100
AcDbVertex
100
AcDb2dVertex
 10
427.5491089743016
 20
198.7103649531744
 30
0.0
  0
VERTEX
  5
218
330
B1
100
AcDbEntity
  8
A-001_Pan
100
AcDbVertex
100
AcDb2dVertex
 10
427.7549410780444
 20
199.228822469605
 30
0.0
  0
VERTEX
  5
219
330
B1
100
AcDbEntity
  8
A-001_Pan
100
AcDbVertex
100
AcDb2dVertex
 10
427.8591495489404
 20
199.6456513535017
 30
0.0
  0
VERTEX
  5
21A
330
B1
100
AcDbEntity
  8
A-001_Pan
100
AcDbVertex
100
AcDb2dVertex
 10
428.0675664907321
 20
200.0598953993498
 30
0.0
  0
VERTEX
  5
21B
330
B1
100
AcDbEntity
  8
A-001_Pan
100
AcDbVertex
100
AcDb2dVertex
 10
428.273398594475
 20
200.5783529157803
 30
0.0
  0
VERTEX
  5
21C
330
B1
100
AcDbEntity
  8
A-001_Pan
100
AcDbVertex
100
AcDb2dVertex
 10
428.48181053658
 20
200.9925969616282
 30
0.0
  0
VERTEX
  5
21D
330
B1
100
AcDbEntity
  8
A-001_Pan
100
AcDbVertex
100
AcDb2dVertex
 10
428.6902274783718
 20
201.4094308452118
 30
0.0
  0
VERTEX
  5
21E
330
B1
100
AcDbEntity
  8
A-001_Pan
100
AcDbVertex
100
AcDb2dVertex
 10
428.8960595821147
 20
201.9278833619555
 30
0.0
  0
VERTEX
  5
21F
330
B1
100
AcDbEntity
  8
A-001_Pan
100
AcDbVertex
100
AcDb2dVertex
 10
429.1044715242198
 20
202.3421324074903
 30
0.0
  0
VERTEX
  5
220
330
B1
100
AcDbEntity
  8
A-001_Pan
100
AcDbVertex
100
AcDb2dVertex
 10
429.3128884660116
 20
202.7563764533383
 30
0.0
  0
VERTEX
  5
221
330
B1
100
AcDbEntity
  8
A-001_Pan
100
AcDbVertex
100
AcDb2dVertex
 10
429.5187205697544
 20
203.173205337235
 30
0.0
  0
VERTEX
  5
222
330
B1
100
AcDbEntity
  8
A-001_Pan
100
AcDbVertex
100
AcDb2dVertex
 10
429.7271375115461
 20
203.6916628536657
 30
0.0
  0
VERTEX
  5
223
330
B1
100
AcDbEntity
  8
A-001_Pan
100
AcDbVertex
100
AcDb2dVertex
 10
429.9355494536512
 20
204.1059068995136
 30
0.0
  0
VERTEX
  5
224
330
B1
100
AcDbEntity
  8
A-001_Pan
100
AcDbVertex
100
AcDb2dVertex
 10
430.0371730864981
 20
204.5201559450482
 30
0.0
  0
VERTEX
  5
225
330
B1
100
AcDbEntity
  8
A-001_Pan
100
AcDbVertex
100
AcDb2dVertex
 10
430.24559002829
 20
205.0411932998409
 30
0.0
  0
VERTEX
  5
226
330
B1
100
AcDbEntity
  8
A-001_Pan
100
AcDbVertex
100
AcDb2dVertex
 10
430.3497984991858
 20
205.5596458165847
 30
0.0
  0
VERTEX
  5
227
330
B1
100
AcDbEntity
  8
A-001_Pan
100
AcDbVertex
100
AcDb2dVertex
 10
430.4540069700818
 20
205.9738948621194
 30
0.0
  0
VERTEX
  5
228
330
B1
100
AcDbEntity
  8
A-001_Pan
100
AcDbVertex
100
AcDb2dVertex
 10
430.5556306029289
 20
206.4923473788632
 30
0.0
  0
VERTEX
  5
229
330
B1
100
AcDbEntity
  8
A-001_Pan
100
AcDbVertex
100
AcDb2dVertex
 10
430.6598390738247
 20
206.9065964243979
 30
0.0
  0
VERTEX
  5
22A
330
B1
100
AcDbEntity
  8
A-001_Pan
100
AcDbVertex
100
AcDb2dVertex
 10
430.6598390738247
 20
207.4276337791906
 30
0.0
  0
VERTEX
  5
22B
330
B1
100
AcDbEntity
  8
A-001_Pan
100
AcDbVertex
100
AcDb2dVertex
 10
430.7640425450338
 20
207.9460862959344
 30
0.0
  0
VERTEX
  5
22C
330
B1
100
AcDbEntity
  8
A-001_Pan
100
AcDbVertex
100
AcDb2dVertex
 10
430.7640425450338
 20
208.360335341469
 30
0.0
  0
VERTEX
  5
22D
330
B1
100
AcDbEntity
  8
A-001_Pan
100
AcDbVertex
100
AcDb2dVertex
 10
430.7640425450338
 20
208.878787858213
 30
0.0
  0
VERTEX
  5
22E
330
B1
100
AcDbEntity
  8
A-001_Pan
100
AcDbVertex
100
AcDb2dVertex
 10
430.8682510159298
 20
209.3972453746435
 30
0.0
  0
VERTEX
  5
22F
330
B1
100
AcDbEntity
  8
A-001_Pan
100
AcDbVertex
100
AcDb2dVertex
 10
430.8682510159298
 20
210.1241148331791
 30
0.0
  0
VERTEX
  5
230
330
B1
100
AcDbEntity
  8
A-001_Pan
100
AcDbVertex
100
AcDb2dVertex
 10
430.7640425450338
 20
211.0568163954575
 30
0.0
  0
VERTEX
  5
231
330
B1
100
AcDbEntity
  8
A-001_Pan
100
AcDbVertex
100
AcDb2dVertex
 10
430.4540069700818
 20
211.9920977960982
 30
0.0
  0
VERTEX
  5
232
330
B1
100
AcDbEntity
  8
A-001_Pan
100
AcDbVertex
100
AcDb2dVertex
 10
430.0371730864981
 20
212.9247993583767
 30
0.0
  0
VERTEX
  5
233
330
B1
100
AcDbEntity
  8
A-001_Pan
100
AcDbVertex
100
AcDb2dVertex
 10
429.5187205697544
 20
213.6516688169123
 30
0.0
  0
VERTEX
  5
234
330
B1
100
AcDbEntity
  8
A-001_Pan
100
AcDbVertex
100
AcDb2dVertex
 10
428.7918511112188
 20
214.378538275448
 30
0.0
  0
VERTEX
  5
235
330
B1
100
AcDbEntity
  8
A-001_Pan
100
AcDbVertex
100
AcDb2dVertex
 10
428.0675664907321
 20
214.8969957918786
 30
0.0
  0
VERTEX
  5
236
330
B1
100
AcDbEntity
  8
A-001_Pan
100
AcDbVertex
100
AcDb2dVertex
 10
427.1322800904047
 20
215.3112398377265
 30
0.0
  0
VERTEX
  5
237
330
B1
100
AcDbEntity
  8
A-001_Pan
100
AcDbVertex
100
AcDb2dVertex
 10
426.1995785281262
 20
215.6238652504141
 30
0.0
  0
VERTEX
  5
238
330
B1
100
AcDbEntity
  8
A-001_Pan
100
AcDbVertex
100
AcDb2dVertex
 10
422.5678160734971
 20
216.2465262380538
 30
0.0
  0
VERTEX
  5
239
330
B1
100
AcDbEntity
  8
A-001_Pan
100
AcDbVertex
100
AcDb2dVertex
 10
416.8622335525193
 20
217.2834362712282
 30
0.0
  0
VERTEX
  5
23A
330
B1
100
AcDbEntity
  8
A-001_Pan
100
AcDbVertex
100
AcDb2dVertex
 10
416.3437760360887
 20
217.387644742124
 30
0.0
  0
VERTEX
  5
23B
330
B1
100
AcDbEntity
  8
A-001_Pan
100
AcDbVertex
100
AcDb2dVertex
 10
415.9269471521918
 20
217.5934718461803
 30
0.0
  0
VERTEX
  5
23C
330
B1
100
AcDbEntity
  8
A-001_Pan
100
AcDbVertex
100
AcDb2dVertex
 10
415.5127031063439
 20
217.9060972588678
 30
0.0
  0
VERTEX
  5
23D
330
B1
100
AcDbEntity
  8
A-001_Pan
100
AcDbVertex
100
AcDb2dVertex
 10
415.0984540608093
 20
218.3203413047158
 30
0.0
  0
VERTEX
  5
23E
330
B1
100
AcDbEntity
  8
A-001_Pan
100
AcDbVertex
100
AcDb2dVertex
 10
414.7858336478084
 20
218.7345903502504
 30
0.0
  0
VERTEX
  5
23F
330
B1
100
AcDbEntity
  8
A-001_Pan
100
AcDbVertex
100
AcDb2dVertex
 10
414.5800015440655
 20
219.2530428669943
 30
0.0
  0
VERTEX
  5
240
330
B1
100
AcDbEntity
  8
A-001_Pan
100
AcDbVertex
100
AcDb2dVertex
 10
414.4757930731694
 20
219.6698767505778
 30
0.0
  0
VERTEX
  5
241
330
B1
100
AcDbEntity
  8
A-001_Pan
100
AcDbVertex
100
AcDb2dVertex
 10
414.3715846022736
 20
220.1883292673216
 30
0.0
  0
VERTEX
  5
242
330
B1
100
AcDbEntity
  8
A-001_Pan
100
AcDbVertex
100
AcDb2dVertex
 10
414.3715846022736
 20
228.0719353258576
 30
0.0
  0
VERTEX
  5
243
330
B1
100
AcDbEntity
  8
A-001_Pan
100
AcDbVertex
100
AcDb2dVertex
 10
414.3715846022736
 20
236.166543164234
 30
0.0
  0
VERTEX
  5
244
330
B1
100
AcDbEntity
  8
A-001_Pan
100
AcDbVertex
100
AcDb2dVertex
 10
414.4757930731694
 20
236.6849956809779
 30
0.0
  0
VERTEX
  5
245
330
B1
100
AcDbEntity
  8
A-001_Pan
100
AcDbVertex
100
AcDb2dVertex
 10
414.5800015440655
 20
237.0992447265126
 30
0.0
  0
VERTEX
  5
246
330
B1
100
AcDbEntity
  8
A-001_Pan
100
AcDbVertex
100
AcDb2dVertex
 10
414.7858336478084
 20
237.6176972432563
 30
0.0
  0
VERTEX
  5
247
330
B1
100
AcDbEntity
  8
A-001_Pan
100
AcDbVertex
100
AcDb2dVertex
 10
414.9942455899133
 20
238.031946288791
 30
0.0
  0
VERTEX
  5
248
330
B1
100
AcDbEntity
  8
A-001_Pan
100
AcDbVertex
100
AcDb2dVertex
 10
415.3051461106728
 20
238.3445667017918
 30
0.0
  0
VERTEX
  5
249
330
B1
100
AcDbEntity
  8
A-001_Pan
100
AcDbVertex
100
AcDb2dVertex
 10
415.7211150484489
 20
238.6546072764306
 30
0.0
  0
VERTEX
  5
24A
330
B1
100
AcDbEntity
  8
A-001_Pan
100
AcDbVertex
100
AcDb2dVertex
 10
416.1353640939836
 20
238.8630242182223
 30
0.0
  0
VERTEX
  5
24B
330
B1
100
AcDbEntity
  8
A-001_Pan
100
AcDbVertex
100
AcDb2dVertex
 10
416.6538166107275
 20
239.0714361603275
 30
0.0
  0
VERTEX
  5
24C
330
B1
100
AcDbEntity
  8
A-001_Pan
100
AcDbVertex
100
AcDb2dVertex
 10
419.2486740318689
 20
239.7957207808141
 30
0.0
  0
VERTEX
  5
24D
330
B1
100
AcDbEntity
  8
A-001_Pan
100
AcDbVertex
100
AcDb2dVertex
 10
421.8409466149614
 20
240.5225952390366
 30
0.0
  0
VERTEX
  5
24E
330
B1
100
AcDbEntity
  8
A-001_Pan
100
AcDbVertex
100
AcDb2dVertex
 10
422.360259077826
 20
240.7310071811417
 30
0.0
  0
VERTEX
  5
24F
330
B1
100
AcDbEntity
  8
A-001_Pan
100
AcDbVertex
100
AcDb2dVertex
 10
422.7762280156022
 20
240.9394241229334
 30
0.0
  0
VERTEX
  5
250
330
B1
100
AcDbEntity
  8
A-001_Pan
100
AcDbVertex
100
AcDb2dVertex
 10
423.0862685902409
 20
241.2494646975721
 30
0.0
  0
VERTEX
  5
251
330
B1
100
AcDbEntity
  8
A-001_Pan
100
AcDbVertex
100
AcDb2dVertex
 10
423.5005176357757
 20
241.5595002725241
 30
0.0
  0
VERTEX
  5
252
330
B1
100
AcDbEntity
  8
A-001_Pan
100
AcDbVertex
100
AcDb2dVertex
 10
423.7089295778807
 20
241.9763341561077
 30
0.0
  0
VERTEX
  5
253
330
B1
100
AcDbEntity
  8
A-001_Pan
100
AcDbVertex
100
AcDb2dVertex
 10
423.9173465196724
 20
242.4947866728516
 30
0.0
  0
VERTEX
  5
254
330
B1
100
AcDbEntity
  8
A-001_Pan
100
AcDbVertex
100
AcDb2dVertex
 10
424.0215549905683
 20
242.9090357183861
 30
0.0
  0
VERTEX
  5
255
330
B1
100
AcDbEntity
  8
A-001_Pan
100
AcDbVertex
100
AcDb2dVertex
 10
424.0215549905683
 20
243.42748823513
 30
0.0
  0
VERTEX
  5
256
330
B1
100
AcDbEntity
  8
A-001_Pan
100
AcDbVertex
100
AcDb2dVertex
 10
424.0215549905683
 20
248.0961607229336
 30
0.0
  0
VERTEX
  5
257
330
B1
100
AcDbEntity
  8
A-001_Pan
100
AcDbVertex
100
AcDb2dVertex
 10
424.0215549905683
 20
248.7188217105733
 30
0.0
  0
VERTEX
  5
258
330
B1
100
AcDbEntity
  8
A-001_Pan
100
AcDbVertex
100
AcDb2dVertex
 10
423.8131380487764
 20
249.2372792270038
 30
0.0
  0
VERTEX
  5
259
330
B1
100
AcDbEntity
  8
A-001_Pan
100
AcDbVertex
100
AcDb2dVertex
 10
423.6047211069847
 20
249.7583165817967
 30
0.0
  0
VERTEX
  5
25A
330
B1
100
AcDbEntity
  8
A-001_Pan
100
AcDbVertex
100
AcDb2dVertex
 10
423.1904770611369
 20
250.2767690985404
 30
0.0
  0
VERTEX
  5
25B
330
B1
100
AcDbEntity
  8
A-001_Pan
100
AcDbVertex
100
AcDb2dVertex
 10
422.7762280156022
 20
250.5868096731791
 30
0.0
  0
VERTEX
  5
25C
330
B1
100
AcDbEntity
  8
A-001_Pan
100
AcDbVertex
100
AcDb2dVertex
 10
422.2577754988584
 20
250.8994300861801
 30
0.0
  0
VERTEX
  5
25D
330
B1
100
AcDbEntity
  8
A-001_Pan
100
AcDbVertex
100
AcDb2dVertex
 10
421.6351145112185
 20
251.1052621899229
 30
0.0
  0
VERTEX
  5
25E
330
B1
100
AcDbEntity
  8
A-001_Pan
100
AcDbVertex
100
AcDb2dVertex
 10
421.116656994788
 20
251.1052621899229
 30
0.0
  0
VERTEX
  5
25F
330
B1
100
AcDbEntity
  8
A-001_Pan
100
AcDbVertex
100
AcDb2dVertex
 10
419.5587146065077
 20
251.1052621899229
 30
0.0
  0
VERTEX
  5
260
330
B1
100
AcDbEntity
  8
A-001_Pan
100
AcDbVertex
100
AcDb2dVertex
 10
418.6260130442291
 20
251.209470660819
 30
0.0
  0
VERTEX
  5
261
330
B1
100
AcDbEntity
  8
A-001_Pan
100
AcDbVertex
100
AcDb2dVertex
 10
417.6907266439018
 20
251.4178876026107
 30
0.0
  0
VERTEX
  5
262
330
B1
100
AcDbEntity
  8
A-001_Pan
100
AcDbVertex
100
AcDb2dVertex
 10
416.7580250816233
 20
251.7279231775627
 30
0.0
  0
VERTEX
  5
263
330
B1
100
AcDbEntity
  8
A-001_Pan
100
AcDbVertex
100
AcDb2dVertex
 10
415.8253235193448
 20
252.2463806939933
 30
0.0
  0
VERTEX
  5
264
330
B1
100
AcDbEntity
  8
A-001_Pan
100
AcDbVertex
100
AcDb2dVertex
 10
414.9942455899133
 20
252.7648332107371
 30
0.0
  0
VERTEX
  5
265
330
B1
100
AcDbEntity
  8
A-001_Pan
100
AcDbVertex
100
AcDb2dVertex
 10
414.3715846022736
 20
253.4917026692728
 30
0.0
  0
VERTEX
  5
266
330
B1
100
AcDbEntity
  8
A-001_Pan
100
AcDbVertex
100
AcDb2dVertex
 10
413.748923614634
 20
254.3227805987042
 30
0.0
  0
VERTEX
  5
267
330
B1
100
AcDbEntity
  8
A-001_Pan
100
AcDbVertex
100
AcDb2dVertex
 10
413.2304660982034
 20
255.1512736900868
 30
0.0
  0
VERTEX
  5
268
330
B1
100
AcDbEntity
  8
A-001_Pan
100
AcDbVertex
100
AcDb2dVertex
 10
410.3255731021099
 20
261.2736850949615
 30
0.0
  0
VERTEX
  5
269
330
B1
100
AcDbEntity
  8
A-001_Pan
100
AcDbVertex
100
AcDb2dVertex
 10
406.279561601946
 20
269.7799571408237
 30
0.0
  0
VERTEX
  5
26A
330
B1
100
AcDbEntity
  8
A-001_Pan
100
AcDbVertex
100
AcDb2dVertex
 10
406.0711446601543
 20
270.0925775538246
 30
0.0
  0
VERTEX
  5
26B
330
B1
100
AcDbEntity
  8
A-001_Pan
100
AcDbVertex
100
AcDb2dVertex
 10
405.8627327180492
 20
270.4026181284634
 30
0.0
  0
VERTEX
  5
26C
330
B1
100
AcDbEntity
  8
A-001_Pan
100
AcDbVertex
100
AcDb2dVertex
 10
405.5526921434106
 20
270.7152385414644
 30
0.0
  0
VERTEX
  5
26D
330
B1
100
AcDbEntity
  8
A-001_Pan
100
AcDbVertex
100
AcDb2dVertex
 10
405.2426515687717
 20
271.0252791161031
 30
0.0
  0
VERTEX
  5
26E
330
B1
100
AcDbEntity
  8
A-001_Pan
100
AcDbVertex
100
AcDb2dVertex
 10
404.8258226848749
 20
271.2336960578949
 30
0.0
  0
VERTEX
  5
26F
330
B1
100
AcDbEntity
  8
A-001_Pan
100
AcDbVertex
100
AcDb2dVertex
 10
404.4115786390269
 20
271.3379045287908
 30
0.0
  0
VERTEX
  5
270
330
B1
100
AcDbEntity
  8
A-001_Pan
100
AcDbVertex
100
AcDb2dVertex
 10
403.9973295934921
 20
271.442108
 30
0.0
  0
VERTEX
  5
271
330
B1
100
AcDbEntity
  8
A-001_Pan
100
AcDbVertex
100
AcDb2dVertex
 10
403.5805007095953
 20
271.442108
 30
0.0
  0
VERTEX
  5
272
330
B1
100
AcDbEntity
  8
A-001_Pan
100
AcDbVertex
100
AcDb2dVertex
 10
319.8544215047111
 20
271.442108
 30
0.0
  0
VERTEX
  5
273
330
B1
100
AcDbEntity
  8
A-001_Pan
100
AcDbVertex
100
AcDb2dVertex
 10
236.1257624614643
 20
271.442108
 30
0.0
  0
VERTEX
  5
274
330
B1
100
AcDbEntity
  8
A-001_Pan
100
AcDbVertex
100
AcDb2dVertex
 10
235.7115134159296
 20
271.442108
 30
0.0
  0
VERTEX
  5
275
330
B1
100
AcDbEntity
  8
A-001_Pan
100
AcDbVertex
100
AcDb2dVertex
 10
235.2972693700817
 20
271.3379045287908
 30
0.0
  0
VERTEX
  5
276
330
B1
100
AcDbEntity
  8
A-001_Pan
100
AcDbVertex
100
AcDb2dVertex
 10
234.9846439573941
 20
271.2336960578949
 30
0.0
  0
VERTEX
  5
277
330
B1
100
AcDbEntity
  8
A-001_Pan
100
AcDbVertex
100
AcDb2dVertex
 10
234.5703949118593
 20
271.0252791161031
 30
0.0
  0
VERTEX
  5
278
330
B1
100
AcDbEntity
  8
A-001_Pan
100
AcDbVertex
100
AcDb2dVertex
 10
234.2577744988584
 20
270.7152385414644
 30
0.0
  0
VERTEX
  5
279
330
B1
100
AcDbEntity
  8
A-001_Pan
100
AcDbVertex
100
AcDb2dVertex
 10
233.9477339242196
 20
270.4026181284634
 30
0.0
  0
VERTEX
  5
27A
330
B1
100
AcDbEntity
  8
A-001_Pan
100
AcDbVertex
100
AcDb2dVertex
 10
233.6351135112187
 20
270.0925775538246
 30
0.0
  0
VERTEX
  5
27B
330
B1
100
AcDbEntity
  8
A-001_Pan
100
AcDbVertex
100
AcDb2dVertex
 10
233.4292814074759
 20
269.7799571408237
 30
0.0
  0
VERTEX
  5
27C
330
B1
100
AcDbEntity
  8
A-001_Pan
100
AcDbVertex
100
AcDb2dVertex
 10
229.4848935401589
 20
261.2736850949615
 30
0.0
  0
SEQEND
  5
27D
330
B1
100
AcDbEntity
  8
A-001_Pan
  0
SPLINE
  5
B0
330
A
100
AcDbEntity
  8
A-001_Pan
100
AcDbSpline
210
0.0
220
0.0
230
1.0
 70
    11
 71
     3
 72
   203
 73
   199
 74
     0
 42
0.0000000001
 43
0.0000000001
 40
0.0
 40
0.0
 40
0.0
 40
0.0
 40
1.0
 40
1.0
 40
1.0
 40
2.0
 40
2.0
 40
2.0
 40
3.0
 40
3.0
 40
3.0
 40
4.0
 40
4.0
 40
4.0
 40
5.0
 40
5.0
 40
5.0
 40
6.0
 40
6.0
 40
6.0
 40
7.0
 40
7.0
 40
7.0
 40
8.0
 40
8.0
 40
8.0
 40
9.0
 40
9.0
 40
9.0
 40
10.0
 40
10.0
 40
10.0
 40
11.0
 40
11.0
 40
11.0
 40
12.0
 40
12.0
 40
12.0
 40
13.0
 40
13.0
 40
13.0
 40
14.0
 40
14.0
 40
14.0
 40
15.0
 40
15.0
 40
15.0
 40
16.0
 40
16.0
 40
16.0
 40
17.0
 40
17.0
 40
17.0
 40
18.0
 40
18.0
 40
18.0
 40
19.0
 40
19.0
 40
19.0
 40
20.0
 40
20.0
 40
20.0
 40
21.0
 40
21.0
 40
21.0
 40
22.0
 40
22.0
 40
22.0
 40
23.0
 40
23.0
 40
23.0
 40
24.0
 40
24.0
 40
24.0
 40
25.0
 40
25.0
 40
25.0
 40
26.0
 40
26.0
 40
26.0
 40
27.0
 40
27.0
 40
27.0
 40
28.0
 40
28.0
 40
28.0
 40
29.0
 40
29.0
 40
29.0
 40
30.0
 40
30.0
 40
30.0
 40
31.0
 40
31.0
 40
31.0
 40
32.0
 40
32.0
 40
32.0
 40
33.0
 40
33.0
 40
33.0
 40
34.0
 40
34.0
 40
34.0
 40
35.0
 40
35.0
 40
35.0
 40
36.0
 40
36.0
 40
36.0
 40
37.0
 40
37.0
 40
37.0
 40
38.0
 40
38.0
 40
38.0
 40
39.0
 40
39.0
 40
39.0
 40
40.0
 40
40.0
 40
40.0
 40
41.0
 40
41.0
 40
41.0
 40
42.0
 40
42.0
 40
42.0
 40
43.0
 40
43.0
 40
43.0
 40
44.0
 40
44.0
 40
44.0
 40
45.0
 40
45.0
 40
45.0
 40
46.0
 40
46.0
 40
46.0
 40
47.0
 40
47.0
 40
47.0
 40
48.0
 40
48.0
 40
48.0
 40
49.0
 40
49.0
 40
49.0
 40
50.0
 40
50.0
 40
50.0
 40
51.0
 40
51.0
 40
51.0
 40
52.0
 40
52.0
 40
52.0
 40
53.0
 40
53.0
 40
53.0
 40
54.0
 40
54.0
 40
54.0
 40
55.0
 40
55.0
 40
55.0
 40
56.0
 40
56.0
 40
56.0
 40
57.0
 40
57.0
 40
57.0
 40
58.0
 40
58.0
 40
58.0
 40
59.0
 40
59.0
 40
59.0
 40
60.0
 40
60.0
 40
60.0
 40
61.0
 40
61.0
 40
61.0
 40
62.0
 40
62.0
 40
62.0
 40
63.0
 40
63.0
 40
63.0
 40
64.0
 40
64.0
 40
64.0
 40
65.0
 40
65.0
 40
65.0
 40
66.0
 40
66.0
 40
66.0
 40
66.0
 10
229.4848938005594
 20
261.2736866595335
 30
0.0
 10
229.4848938005594
 20
261.2736866595335
 30
0.0
 10
226.5799990359135
 20
255.1512743020277
 30
0.0
 10
226.5799990359135
 20
255.1512743020277
 30
0.0
 10
225.3794584779778
 20
252.6838792528991
 30
0.0
 10
222.8690024332276
 20
251.1052631534043
 30
0.0
 10
220.1475475099304
 20
251.1052631534043
 30
0.0
 10
220.1475475099304
 20
251.1052631534043
 30
0.0
 10
220.1475475099304
 20
251.1052631534043
 30
0.0
 10
220.1475475099304
 20
251.1052631534043
 30
0.0
 10
220.1475475099304
 20
251.1052631534043
 30
0.0
 10
218.6963919574763
 20
251.1052631534043
 30
0.0
 10
218.6963919574763
 20
251.1052631534043
 30
0.0
 10
217.0350987463877
 20
251.1052631534043
 30
0.0
 10
215.6872895834256
 20
249.7583152103547
 30
0.0
 10
215.6872895834256
 20
248.0961607793536
 30
0.0
 10
215.6872895834256
 20
248.0961607793536
 30
0.0
 10
215.6872895834256
 20
248.0961607793536
 30
0.0
 10
215.6872895834256
 20
248.0961607793536
 30
0.0
 10
215.6872895834256
 20
248.0961607793536
 30
0.0
 10
215.6872895834256
 20
243.4274876340392
 30
0.0
 10
215.6872895834256
 20
243.4274876340392
 30
0.0
 10
215.6872895834256
 20
242.0822621308146
 30
0.0
 10
216.5812358525339
 20
240.889472552091
 30
0.0
 10
217.8653147419757
 20
240.5225928693932
 30
0.0
 10
217.8653147419757
 20
240.5225928693932
 30
0.0
 10
220.5643779475495
 20
239.7957232632975
 30
0.0
 10
220.5643779475495
 20
239.7957232632975
 30
0.0
 10
220.5643779475495
 20
239.7957232632975
 30
0.0
 10
220.5643779475495
 20
239.7957232632975
 30
0.0
 10
220.5643779475495
 20
239.7957232632975
 30
0.0
 10
220.5643779475495
 20
239.7957232632975
 30
0.0
 10
223.1566498839812
 20
239.0714373169391
 30
0.0
 10
223.1566498839812
 20
239.0714373169391
 30
0.0
 10
224.4424512132479
 20
238.7045576342414
 30
0.0
 10
225.3372587022686
 20
237.5117680555178
 30
0.0
 10
225.3372587022686
 20
236.1665425522931
 30
0.0
 10
225.3372587022686
 20
236.1665425522931
 30
0.0
 10
225.3372587022686
 20
228.0719365953091
 30
0.0
 10
225.3372587022686
 20
228.0719365953091
 30
0.0
 10
225.3372587022686
 20
228.0719365953091
 30
0.0
 10
225.3372587022686
 20
228.0719365953091
 30
0.0
 10
225.3372587022686
 20
228.0719365953091
 30
0.0
 10
225.3372587022686
 20
228.0719365953091
 30
0.0
 10
225.3372587022686
 20
220.1883295168721
 30
0.0
 10
225.3372587022686
 20
220.1883295168721
 30
0.0
 10
225.3372587022686
 20
218.747508603367
 30
0.0
 10
224.2857091891846
 20
217.5228538878831
 30
0.0
 10
222.8466107155043
 20
217.2834347522262
 30
0.0
 10
222.8466107155043
 20
217.2834347522262
 30
0.0
 10
217.1384451358799
 20
216.2465259776534
 30
0.0
 10
217.1384451358799
 20
216.2465259776534
 30
0.0
 10
217.1384451358799
 20
216.2465259776534
 30
0.0
 10
217.1384451358799
 20
216.2465259776534
 30
0.0
 10
217.1384451358799
 20
216.2465259776534
 30
0.0
 10
217.1384451358799
 20
216.2465259776534
 30
0.0
 10
213.610888374543
 20
215.6238639809623
 30
0.0
 10
213.610888374543
 20
215.6238639809623
 30
0.0
 10
210.9126863888816
 20
215.1424420499107
 30
0.0
 10
208.9422152292288
 20
212.8240380456335
 30
0.0
 10
208.9422152292288
 20
210.1241136201474
 30
0.0
 10
208.9422152292288
 20
210.1241136201474
 30
0.0
 10
208.9422152292288
 20
210.1241136201474
 30
0.0
 10
208.9422152292288
 20
210.1241136201474
 30
0.0
 10
208.9422152292288
 20
210.1241136201474
 30
0.0
 10
208.9422152292288
 20
209.3972440140516
 30
0.0
 10
208.9422152292288
 20
209.3972440140516
 30
0.0
 10
208.9422152292288
 20
206.7446866837495
 30
0.0
 10
209.6217177401405
 20
204.1730840252161
 30
0.0
 10
210.9144088287063
 20
201.927883713496
 30
0.0
 10
210.9144088287063
 20
201.927883713496
 30
0.0
 10
210.9144088287063
 20
201.927883713496
 30
0.0
 10
210.9144088287063
 20
201.927883713496
 30
0.0
 10
212.1399247641026
 20
199.6137858087811
 30
0.0
 10
212.78239481878
 20
197.0068731338379
 30
0.0
 10
212.78239481878
 20
194.3543158035357
 30
0.0
 10
212.78239481878
 20
194.3543158035357
 30
0.0
 10
212.78239481878
 20
194.3543158035357
 30
0.0
 10
212.78239481878
 20
194.3543158035357
 30
0.0
 10
212.78239481878
 20
194.3543158035357
 30
0.0
 10
212.78239481878
 20
190.6183438233893
 30
0.0
 10
212.78239481878
 20
190.6183438233893
 30
0.0
 10
212.78239481878
 20
131.4275604615903
 30
0.0
 10
260.7196175847803
 20
83.44210938049327
 30
0.0
 10
319.8544216522711
 20
83.44210938049327
 30
0.0
 10
319.8544216522711
 20
83.44210938049327
 30
0.0
 10
319.8544216522711
 20
83.44210938049327
 30
0.0
 10
319.8544216522711
 20
83.44210938049327
 30
0.0
 10
378.9883644998495
 20
83.44210938049327
 30
0.0
 10
426.9264484857625
 20
131.4275604615903
 30
0.0
 10
426.9264484857625
 20
190.6183438233893
 30
0.0
 10
426.9264484857625
 20
190.6183438233893
 30
0.0
 10
426.9264484857625
 20
194.3543158035357
 30
0.0
 10
426.9264484857625
 20
194.3543158035357
 30
0.0
 10
426.9264484857625
 20
194.3543158035357
 30
0.0
 10
426.9264484857625
 20
194.3543158035357
 30
0.0
 10
426.9264484857625
 20
194.3543158035357
 30
0.0
 10
426.9264484857625
 20
197.0068731338379
 30
0.0
 10
427.6033673369369
 20
199.6137858087811
 30
0.0
 10
428.896058425503
 20
201.927883713496
 30
0.0
 10
428.896058425503
 20
201.927883713496
 30
0.0
 10
428.896058425503
 20
201.927883713496
 30
0.0
 10
428.896058425503
 20
201.927883713496
 30
0.0
 10
430.1887495140691
 20
204.1730840252161
 30
0.0
 10
430.868252024981
 20
206.7446866837495
 30
0.0
 10
430.868252024981
 20
209.3972440140516
 30
0.0
 10
430.868252024981
 20
209.3972440140516
 30
0.0
 10
430.868252024981
 20
210.1241136201474
 30
0.0
 10
430.868252024981
 20
210.1241136201474
 30
0.0
 10
430.868252024981
 20
210.1241136201474
 30
0.0
 10
430.868252024981
 20
210.1241136201474
 30
0.0
 10
430.868252024981
 20
210.1241136201474
 30
0.0
 10
430.868252024981
 20
212.8240380456335
 30
0.0
 10
428.8995033051528
 20
215.1424420499107
 30
0.0
 10
426.1995788796665
 20
215.6238639809623
 30
0.0
 10
426.1995788796665
 20
215.6238639809623
 30
0.0
 10
422.5678145089252
 20
216.2465259776534
 30
0.0
 10
422.5678145089252
 20
216.2465259776534
 30
0.0
 10
422.5678145089252
 20
216.2465259776534
 30
0.0
 10
422.5678145089252
 20
216.2465259776534
 30
0.0
 10
422.5678145089252
 20
216.2465259776534
 30
0.0
 10
422.5678145089252
 20
216.2465259776534
 30
0.0
 10
416.862232589038
 20
217.2834347522262
 30
0.0
 10
416.862232589038
 20
217.2834347522262
 30
0.0
 10
415.4214116755329
 20
217.5228538878831
 30
0.0
 10
414.3715846022736
 20
218.747508603367
 30
0.0
 10
414.3715846022736
 20
220.1883295168721
 30
0.0
 10
414.3715846022736
 20
220.1883295168721
 30
0.0
 10
414.3715846022736
 20
228.0719365953091
 30
0.0
 10
414.3715846022736
 20
228.0719365953091
 30
0.0
 10
414.3715846022736
 20
228.0719365953091
 30
0.0
 10
414.3715846022736
 20
228.0719365953091
 30
0.0
 10
414.3715846022736
 20
228.0719365953091
 30
0.0
 10
414.3715846022736
 20
228.0719365953091
 30
0.0
 10
414.3715846022736
 20
236.1665425522931
 30
0.0
 10
414.3715846022736
 20
236.1665425522931
 30
0.0
 10
414.3715846022736
 20
237.5117680555178
 30
0.0
 10
415.3085918670037
 20
238.7045576342414
 30
0.0
 10
416.6538173702282
 20
239.0714373169391
 30
0.0
 10
416.6538173702282
 20
239.0714373169391
 30
0.0
 10
419.2486729663974
 20
239.7957232632975
 30
0.0
 10
419.2486729663974
 20
239.7957232632975
 30
0.0
 10
419.2486729663974
 20
239.7957232632975
 30
0.0
 10
419.2486729663974
 20
239.7957232632975
 30
0.0
 10
419.2486729663974
 20
239.7957232632975
 30
0.0
 10
419.2486729663974
 20
239.7957232632975
 30
0.0
 10
421.8409449028293
 20
240.5225928693932
 30
0.0
 10
421.8409449028293
 20
240.5225928693932
 30
0.0
 10
423.126746232096
 20
240.889472552091
 30
0.0
 10
424.0215537211164
 20
242.0822621308146
 30
0.0
 10
424.0215537211164
 20
243.4274876340392
 30
0.0
 10
424.0215537211164
 20
243.4274876340392
 30
0.0
 10
424.0215537211164
 20
248.0961607793536
 30
0.0
 10
424.0215537211164
 20
248.0961607793536
 30
0.0
 10
424.0215537211164
 20
248.0961607793536
 30
0.0
 10
424.0215537211164
 20
248.0961607793536
 30
0.0
 10
424.0215537211164
 20
248.0961607793536
 30
0.0
 10
424.0215537211164
 20
249.7583152103547
 30
0.0
 10
422.7193892135135
 20
251.1052631534043
 30
0.0
 10
421.1166589564708
 20
251.1052631534043
 30
0.0
 10
421.1166589564708
 20
251.1052631534043
 30
0.0
 10
419.5587121348743
 20
251.1052631534043
 30
0.0
 10
419.5587121348743
 20
251.1052631534043
 30
0.0
 10
419.5587121348743
 20
251.1052631534043
 30
0.0
 10
419.5587121348743
 20
251.1052631534043
 30
0.0
 10
419.5587121348743
 20
251.1052631534043
 30
0.0
 10
416.8372572115774
 20
251.1052631534043
 30
0.0
 10
414.3698621624488
 20
252.6838792528991
 30
0.0
 10
413.2304682182962
 20
255.1512743020277
 30
0.0
 10
413.2304682182962
 20
255.1512743020277
 30
0.0
 10
410.3255734536501
 20
261.2736866595335
 30
0.0
 10
410.3255734536501
 20
261.2736866595335
 30
0.0
 10
410.3255734536501
 20
261.2736866595335
 30
0.0
 10
410.3255734536501
 20
261.2736866595335
 30
0.0
 10
410.3255734536501
 20
261.2736866595335
 30
0.0
 10
410.3255734536501
 20
261.2736866595335
 30
0.0
 10
406.2795623050269
 20
269.7799557346618
 30
0.0
 10
406.2795623050269
 20
269.7799557346618
 30
0.0
 10
405.7731649965147
 20
270.7944727915112
 30
0.0
 10
404.7198930436058
 20
271.4421101656628
 30
0.0
 10
403.5804990994533
 20
271.4421101656628
 30
0.0
 10
403.5804990994533
 20
271.4421101656628
 30
0.0
 10
319.8544216522711
 20
271.4421101656628
 30
0.0
 10
319.8544216522711
 20
271.4421101656628
 30
0.0
 10
319.8544216522711
 20
271.4421101656628
 30
0.0
 10
319.8544216522711
 20
271.4421101656628
 30
0.0
 10
319.8544216522711
 20
271.4421101656628
 30
0.0
 10
319.8544216522711
 20
271.4421101656628
 30
0.0
 10
236.1257605453517
 20
271.4421101656628
 30
0.0
 10
236.1257605453517
 20
271.4421101656628
 30
0.0
 10
234.986366601199
 20
271.4421101656628
 30
0.0
 10
233.9356783080275
 20
270.7944727915112
 30
0.0
 10
233.4292809995151
 20
269.7799557346618
 30
0.0
 10
233.4292809995151
 20
269.7799557346618
 30
0.0
 10
229.4848938005594
 20
261.2736866595335
 30
0.0
 10
229.4848938005594
 20
261.2736866595335
 30
0.0
 10
229.4848938005594
 20
261.2736866595335
 30
0.0
 10
229.4848938005594
 20
261.2736866595335
 30
0.0
 10
229.4848938005594
 20
261.2736866595335
 30
0.0
  0
LINE
  5
AA
330
A
100
AcDbEntity
  8
A-001_Pan
100
AcDbLine
 10
490.5240933235744
 20
233.8843111557802
 30
0.0
 11
490.5240933235744
 21
271.442108
 31
0.0
  0
LINE
  5
A9
330
A
100
AcDbEntity
  8
A-001_Pan
100
AcDbLine
 10
529.5356340845521
 20
216.7649787547976
 30
0.0
 11
492.4962897570761
 21
216.7649787547976
 31
0.0
  0
SPLINE
  5
A8
330
A
100
AcDbEntity
  8
A-001_Pan
100
AcDbSpline
210
0.0
220
0.0
230
1.0
 70
     8
 71
     3
 72
    17
 73
    13
 74
     0
 42
0.0000000001
 43
0.0000000001
 40
0.0
 40
0.0
 40
0.0
 40
0.0
 40
1.0
 40
1.0
 40
1.0
 40
2.0
 40
2.0
 40
2.0
 40
3.0
 40
3.0
 40
3.0
 40
4.0
 40
4.0
 40
4.0
 40
4.0
 10
490.5240941394952
 20
233.8843097843384
 30
0.0
 10
490.5240941394952
 20
231.0491738325997
 30
0.0
 10
490.6989217817198
 20
228.174421764889
 30
0.0
 10
491.045132186519
 20
225.2712494400679
 30
0.0
 10
491.045132186519
 20
225.2712494400679
 30
0.0
 10
491.045132186519
 20
225.2712494400679
 30
0.0
 10
491.045132186519
 20
225.2712494400679
 30
0.0
 10
491.3887589315808
 20
222.4386971480666
 30
0.0
 10
491.8753481821071
 20
219.5975326569411
 30
0.0
 10
492.4962877389734
 20
216.7649803649397
 30
0.0
 10
492.4962877389734
 20
216.7649803649397
 30
0.0
 10
492.4962877389734
 20
216.7649803649397
 30
0.0
 10
492.4962877389734
 20
216.7649803649397
 30
0.0
  0
LINE
  5
91
330
A
100
AcDbEntity
  8
A-001_Pan
100
AcDbLine
 10
426.822239515766
 20
198.4003293782223
 30
0.0
 11
212.9908119645519
 21
198.4003293782223
 31
0.0
  0
LINE
  5
90
330
A
100
AcDbEntity
  8
A-001_Pan
100
AcDbLine
 10
225.9573345567391
 20
217.6976803170761
 30
0.0
 11
413.8531320855298
 21
217.6976803170761
 31
0.0
  0
LINE
  5
8F
330
A
100
AcDbEntity
  8
A-001_Pan
100
AcDbLine
 10
215.8957049606455
 20
214.6885788500866
 30
0.0
 11
423.8131380487764
 21
214.6885788500866
 31
0.0
  0
LINE
  5
8E
330
A
100
AcDbEntity
  8
A-001_Pan
100
AcDbLine
 10
413.8531320855298
 20
238.4487751726878
 30
0.0
 11
225.9573345567391
 21
238.4487751726878
 31
0.0
  0
LINE
  5
8D
330
A
100
AcDbEntity
  8
A-001_Pan
100
AcDbLine
 10
418.8327050940928
 20
241.4578766396771
 30
0.0
 11
220.9786264939837
 21
241.4578766396771
 31
0.0
  0
LINE
  5
8C
330
A
100
AcDbEntity
  8
A-001_Pan
100
AcDbLine
 10
414.5800015440655
 20
251.1052621899229
 30
0.0
 11
225.2330499362524
 21
251.1052621899229
 31
0.0
  0
SPLINE
  5
8B
330
A
100
AcDbEntity
  8
A-001_Pan
100
AcDbSpline
210
0.0
220
0.0
230
1.0
 70
    11
 71
     3
 72
   203
 73
   199
 74
     0
 42
0.0000000001
 43
0.0000000001
 40
0.0
 40
0.0
 40
0.0
 40
0.0
 40
1.0
 40
1.0
 40
1.0
 40
2.0
 40
2.0
 40
2.0
 40
3.0
 40
3.0
 40
3.0
 40
4.0
 40
4.0
 40
4.0
 40
5.0
 40
5.0
 40
5.0
 40
6.0
 40
6.0
 40
6.0
 40
7.0
 40
7.0
 40
7.0
 40
8.0
 40
8.0
 40
8.0
 40
9.0
 40
9.0
 40
9.0
 40
10.0
 40
10.0
 40
10.0
 40
11.0
 40
11.0
 40
11.0
 40
12.0
 40
12.0
 40
12.0
 40
13.0
 40
13.0
 40
13.0
 40
14.0
 40
14.0
 40
14.0
 40
15.0
 40
15.0
 40
15.0
 40
16.0
 40
16.0
 40
16.0
 40
17.0
 40
17.0
 40
17.0
 40
18.0
 40
18.0
 40
18.0
 40
19.0
 40
19.0
 40
19.0
 40
20.0
 40
20.0
 40
20.0
 40
21.0
 40
21.0
 40
21.0
 40
22.0
 40
22.0
 40
22.0
 40
23.0
 40
23.0
 40
23.0
 40
24.0
 40
24.0
 40
24.0
 40
25.0
 40
25.0
 40
25.0
 40
26.0
 40
26.0
 40
26.0
 40
27.0
 40
27.0
 40
27.0
 40
28.0
 40
28.0
 40
28.0
 40
29.0
 40
29.0
 40
29.0
 40
30.0
 40
30.0
 40
30.0
 40
31.0
 40
31.0
 40
31.0
 40
32.0
 40
32.0
 40
32.0
 40
33.0
 40
33.0
 40
33.0
 40
34.0
 40
34.0
 40
34.0
 40
35.0
 40
35.0
 40
35.0
 40
36.0
 40
36.0
 40
36.0
 40
37.0
 40
37.0
 40
37.0
 40
38.0
 40
38.0
 40
38.0
 40
39.0
 40
39.0
 40
39.0
 40
40.0
 40
40.0
 40
40.0
 40
41.0
 40
41.0
 40
41.0
 40
42.0
 40
42.0
 40
42.0
 40
43.0
 40
43.0
 40
43.0
 40
44.0
 40
44.0
 40
44.0
 40
45.0
 40
45.0
 40
45.0
 40
46.0
 40
46.0
 40
46.0
 40
47.0
 40
47.0
 40
47.0
 40
48.0
 40
48.0
 40
48.0
 40
49.0
 40
49.0
 40
49.0
 40
50.0
 40
50.0
 40
50.0
 40
51.0
 40
51.0
 40
51.0
 40
52.0
 40
52.0
 40
52.0
 40
53.0
 40
53.0
 40
53.0
 40
54.0
 40
54.0
 40
54.0
 40
55.0
 40
55.0
 40
55.0
 40
56.0
 40
56.0
 40
56.0
 40
57.0
 40
57.0
 40
57.0
 40
58.0
 40
58.0
 40
58.0
 40
59.0
 40
59.0
 40
59.0
 40
60.0
 40
60.0
 40
60.0
 40
61.0
 40
61.0
 40
61.0
 40
62.0
 40
62.0
 40
62.0
 40
63.0
 40
63.0
 40
63.0
 40
64.0
 40
64.0
 40
64.0
 40
65.0
 40
65.0
 40
65.0
 40
66.0
 40
66.0
 40
66.0
 40
66.0
 10
229.4848938005594
 20
261.2736866595335
 30
0.0
 10
229.4848938005594
 20
261.2736866595335
 30
0.0
 10
226.5799990359135
 20
255.1512743020277
 30
0.0
 10
226.5799990359135
 20
255.1512743020277
 30
0.0
 10
225.3794584779778
 20
252.6838792528991
 30
0.0
 10
222.8690024332276
 20
251.1052631534043
 30
0.0
 10
220.1475475099304
 20
251.1052631534043
 30
0.0
 10
220.1475475099304
 20
251.1052631534043
 30
0.0
 10
220.1475475099304
 20
251.1052631534043
 30
0.0
 10
220.1475475099304
 20
251.1052631534043
 30
0.0
 10
220.1475475099304
 20
251.1052631534043
 30
0.0
 10
218.6963919574763
 20
251.1052631534043
 30
0.0
 10
218.6963919574763
 20
251.1052631534043
 30
0.0
 10
217.0350987463877
 20
251.1052631534043
 30
0.0
 10
215.6872895834256
 20
249.7583152103547
 30
0.0
 10
215.6872895834256
 20
248.0961607793536
 30
0.0
 10
215.6872895834256
 20
248.0961607793536
 30
0.0
 10
215.6872895834256
 20
248.0961607793536
 30
0.0
 10
215.6872895834256
 20
248.0961607793536
 30
0.0
 10
215.6872895834256
 20
248.0961607793536
 30
0.0
 10
215.6872895834256
 20
243.4274876340392
 30
0.0
 10
215.6872895834256
 20
243.4274876340392
 30
0.0
 10
215.6872895834256
 20
242.0822621308146
 30
0.0
 10
216.5812358525339
 20
240.889472552091
 30
0.0
 10
217.8653147419757
 20
240.5225928693932
 30
0.0
 10
217.8653147419757
 20
240.5225928693932
 30
0.0
 10
220.5643779475495
 20
239.7957232632975
 30
0.0
 10
220.5643779475495
 20
239.7957232632975
 30
0.0
 10
220.5643779475495
 20
239.7957232632975
 30
0.0
 10
220.5643779475495
 20
239.7957232632975
 30
0.0
 10
220.5643779475495
 20
239.7957232632975
 30
0.0
 10
220.5643779475495
 20
239.7957232632975
 30
0.0
 10
223.1566498839812
 20
239.0714373169391
 30
0.0
 10
223.1566498839812
 20
239.0714373169391
 30
0.0
 10
224.4424512132479
 20
238.7045576342414
 30
0.0
 10
225.3372587022686
 20
237.5117680555178
 30
0.0
 10
225.3372587022686
 20
236.1665425522931
 30
0.0
 10
225.3372587022686
 20
236.1665425522931
 30
0.0
 10
225.3372587022686
 20
228.0719365953091
 30
0.0
 10
225.3372587022686
 20
228.0719365953091
 30
0.0
 10
225.3372587022686
 20
228.0719365953091
 30
0.0
 10
225.3372587022686
 20
228.0719365953091
 30
0.0
 10
225.3372587022686
 20
228.0719365953091
 30
0.0
 10
225.3372587022686
 20
228.0719365953091
 30
0.0
 10
225.3372587022686
 20
220.1883295168721
 30
0.0
 10
225.3372587022686
 20
220.1883295168721
 30
0.0
 10
225.3372587022686
 20
218.747508603367
 30
0.0
 10
224.2857091891846
 20
217.5228538878831
 30
0.0
 10
222.8466107155043
 20
217.2834347522262
 30
0.0
 10
222.8466107155043
 20
217.2834347522262
 30
0.0
 10
217.1384451358799
 20
216.2465259776534
 30
0.0
 10
217.1384451358799
 20
216.2465259776534
 30
0.0
 10
217.1384451358799
 20
216.2465259776534
 30
0.0
 10
217.1384451358799
 20
216.2465259776534
 30
0.0
 10
217.1384451358799
 20
216.2465259776534
 30
0.0
 10
217.1384451358799
 20
216.2465259776534
 30
0.0
 10
213.610888374543
 20
215.6238639809623
 30
0.0
 10
213.610888374543
 20
215.6238639809623
 30
0.0
 10
210.9126863888816
 20
215.1424420499107
 30
0.0
 10
208.9422152292288
 20
212.8240380456335
 30
0.0
 10
208.9422152292288
 20
210.1241136201474
 30
0.0
 10
208.9422152292288
 20
210.1241136201474
 30
0.0
 10
208.9422152292288
 20
210.1241136201474
 30
0.0
 10
208.9422152292288
 20
210.1241136201474
 30
0.0
 10
208.9422152292288
 20
210.1241136201474
 30
0.0
 10
208.9422152292288
 20
209.3972440140516
 30
0.0
 10
208.9422152292288
 20
209.3972440140516
 30
0.0
 10
208.9422152292288
 20
206.7446866837495
 30
0.0
 10
209.6217177401405
 20
204.1730840252161
 30
0.0
 10
210.9144088287063
 20
201.927883713496
 30
0.0
 10
210.9144088287063
 20
201.927883713496
 30
0.0
 10
210.9144088287063
 20
201.927883713496
 30
0.0
 10
210.9144088287063
 20
201.927883713496
 30
0.0
 10
212.1399247641026
 20
199.6137858087811
 30
0.0
 10
212.78239481878
 20
197.0068731338379
 30
0.0
 10
212.78239481878
 20
194.3543158035357
 30
0.0
 10
212.78239481878
 20
194.3543158035357
 30
0.0
 10
212.78239481878
 20
194.3543158035357
 30
0.0
 10
212.78239481878
 20
194.3543158035357
 30
0.0
 10
212.78239481878
 20
194.3543158035357
 30
0.0
 10
212.78239481878
 20
190.6183438233893
 30
0.0
 10
212.78239481878
 20
190.6183438233893
 30
0.0
 10
212.78239481878
 20
131.4275604615903
 30
0.0
 10
260.7196175847803
 20
83.44210938049327
 30
0.0
 10
319.8544216522711
 20
83.44210938049327
 30
0.0
 10
319.8544216522711
 20
83.44210938049327
 30
0.0
 10
319.8544216522711
 20
83.44210938049327
 30
0.0
 10
319.8544216522711
 20
83.44210938049327
 30
0.0
 10
378.9883644998495
 20
83.44210938049327
 30
0.0
 10
426.9264484857625
 20
131.4275604615903
 30
0.0
 10
426.9264484857625
 20
190.6183438233893
 30
0.0
 10
426.9264484857625
 20
190.6183438233893
 30
0.0
 10
426.9264484857625
 20
194.3543158035357
 30
0.0
 10
426.9264484857625
 20
194.3543158035357
 30
0.0
 10
426.9264484857625
 20
194.3543158035357
 30
0.0
 10
426.9264484857625
 20
194.3543158035357
 30
0.0
 10
426.9264484857625
 20
194.3543158035357
 30
0.0
 10
426.9264484857625
 20
197.0068731338379
 30
0.0
 10
427.6033673369369
 20
199.6137858087811
 30
0.0
 10
428.896058425503
 20
201.927883713496
 30
0.0
 10
428.896058425503
 20
201.927883713496
 30
0.0
 10
428.896058425503
 20
201.927883713496
 30
0.0
 10
428.896058425503
 20
201.927883713496
 30
0.0
 10
430.1887495140691
 20
204.1730840252161
 30
0.0
 10
430.868252024981
 20
206.7446866837495
 30
0.0
 10
430.868252024981
 20
209.3972440140516
 30
0.0
 10
430.868252024981
 20
209.3972440140516
 30
0.0
 10
430.868252024981
 20
210.1241136201474
 30
0.0
 10
430.868252024981
 20
210.1241136201474
 30
0.0
 10
430.868252024981
 20
210.1241136201474
 30
0.0
 10
430.868252024981
 20
210.1241136201474
 30
0.0
 10
430.868252024981
 20
210.1241136201474
 30
0.0
 10
430.868252024981
 20
212.8240380456335
 30
0.0
 10
428.8995033051528
 20
215.1424420499107
 30
0.0
 10
426.1995788796665
 20
215.6238639809623
 30
0.0
 10
426.1995788796665
 20
215.6238639809623
 30
0.0
 10
422.5678145089252
 20
216.2465259776534
 30
0.0
 10
422.5678145089252
 20
216.2465259776534
 30
0.0
 10
422.5678145089252
 20
216.2465259776534
 30
0.0
 10
422.5678145089252
 20
216.2465259776534
 30
0.0
 10
422.5678145089252
 20
216.2465259776534
 30
0.0
 10
422.5678145089252
 20
216.2465259776534
 30
0.0
 10
416.862232589038
 20
217.2834347522262
 30
0.0
 10
416.862232589038
 20
217.2834347522262
 30
0.0
 10
415.4214116755329
 20
217.5228538878831
 30
0.0
 10
414.3715846022736
 20
218.747508603367
 30
0.0
 10
414.3715846022736
 20
220.1883295168721
 30
0.0
 10
414.3715846022736
 20
220.1883295168721
 30
0.0
 10
414.3715846022736
 20
228.0719365953091
 30
0.0
 10
414.3715846022736
 20
228.0719365953091
 30
0.0
 10
414.3715846022736
 20
228.0719365953091
 30
0.0
 10
414.3715846022736
 20
228.0719365953091
 30
0.0
 10
414.3715846022736
 20
228.0719365953091
 30
0.0
 10
414.3715846022736
 20
228.0719365953091
 30
0.0
 10
414.3715846022736
 20
236.1665425522931
 30
0.0
 10
414.3715846022736
 20
236.1665425522931
 30
0.0
 10
414.3715846022736
 20
237.5117680555178
 30
0.0
 10
415.3085918670037
 20
238.7045576342414
 30
0.0
 10
416.6538173702282
 20
239.0714373169391
 30
0.0
 10
416.6538173702282
 20
239.0714373169391
 30
0.0
 10
419.2486729663974
 20
239.7957232632975
 30
0.0
 10
419.2486729663974
 20
239.7957232632975
 30
0.0
 10
419.2486729663974
 20
239.7957232632975
 30
0.0
 10
419.2486729663974
 20
239.7957232632975
 30
0.0
 10
419.2486729663974
 20
239.7957232632975
 30
0.0
 10
419.2486729663974
 20
239.7957232632975
 30
0.0
 10
421.8409449028293
 20
240.5225928693932
 30
0.0
 10
421.8409449028293
 20
240.5225928693932
 30
0.0
 10
423.126746232096
 20
240.889472552091
 30
0.0
 10
424.0215537211164
 20
242.0822621308146
 30
0.0
 10
424.0215537211164
 20
243.4274876340392
 30
0.0
 10
424.0215537211164
 20
243.4274876340392
 30
0.0
 10
424.0215537211164
 20
248.0961607793536
 30
0.0
 10
424.0215537211164
 20
248.0961607793536
 30
0.0
 10
424.0215537211164
 20
248.0961607793536
 30
0.0
 10
424.0215537211164
 20
248.0961607793536
 30
0.0
 10
424.0215537211164
 20
248.0961607793536
 30
0.0
 10
424.0215537211164
 20
249.7583152103547
 30
0.0
 10
422.7193892135135
 20
251.1052631534043
 30
0.0
 10
421.1166589564708
 20
251.1052631534043
 30
0.0
 10
421.1166589564708
 20
251.1052631534043
 30
0.0
 10
419.5587121348743
 20
251.1052631534043
 30
0.0
 10
419.5587121348743
 20
251.1052631534043
 30
0.0
 10
419.5587121348743
 20
251.1052631534043
 30
0.0
 10
419.5587121348743
 20
251.1052631534043
 30
0.0
 10
419.5587121348743
 20
251.1052631534043
 30
0.0
 10
416.8372572115774
 20
251.1052631534043
 30
0.0
 10
414.3698621624488
 20
252.6838792528991
 30
0.0
 10
413.2304682182962
 20
255.1512743020277
 30
0.0
 10
413.2304682182962
 20
255.1512743020277
 30
0.0
 10
410.3255734536501
 20
261.2736866595335
 30
0.0
 10
410.3255734536501
 20
261.2736866595335
 30
0.0
 10
410.3255734536501
 20
261.2736866595335
 30
0.0
 10
410.3255734536501
 20
261.2736866595335
 30
0.0
 10
410.3255734536501
 20
261.2736866595335
 30
0.0
 10
410.3255734536501
 20
261.2736866595335
 30
0.0
 10
406.2795623050269
 20
269.7799557346618
 30
0.0
 10
406.2795623050269
 20
269.7799557346618
 30
0.0
 10
405.7731649965147
 20
270.7944727915112
 30
0.0
 10
404.7198930436058
 20
271.4421101656628
 30
0.0
 10
403.5804990994533
 20
271.4421101656628
 30
0.0
 10
403.5804990994533
 20
271.4421101656628
 30
0.0
 10
319.8544216522711
 20
271.4421101656628
 30
0.0
 10
319.8544216522711
 20
271.4421101656628
 30
0.0
 10
319.8544216522711
 20
271.4421101656628
 30
0.0
 10
319.8544216522711
 20
271.4421101656628
 30
0.0
 10
319.8544216522711
 20
271.4421101656628
 30
0.0
 10
319.8544216522711
 20
271.4421101656628
 30
0.0
 10
236.1257605453517
 20
271.4421101656628
 30
0.0
 10
236.1257605453517
 20
271.4421101656628
 30
0.0
 10
234.986366601199
 20
271.4421101656628
 30
0.0
 10
233.9356783080275
 20
270.7944727915112
 30
0.0
 10
233.4292809995151
 20
269.7799557346618
 30
0.0
 10
233.4292809995151
 20
269.7799557346618
 30
0.0
 10
229.4848938005594
 20
261.2736866595335
 30
0.0
 10
229.4848938005594
 20
261.2736866595335
 30
0.0
 10
229.4848938005594
 20
261.2736866595335
 30
0.0
 10
229.4848938005594
 20
261.2736866595335
 30
0.0
 10
229.4848938005594
 20
261.2736866595335
 30
0.0
  0
LINE
  5
8A
330
A
100
AcDbEntity
  8
A-001_Pan
100
AcDbLine
 10
532.5447355515416
 20
271.442108
 30
0.0
 11
490.5240933235744
 21
271.442108
 31
0.0
  0
LINE
  5
89
330
A
100
AcDbEntity
  8
A-001_Pan
100
AcDbLine
 10
492.4962897570761
 20
83.44210700000003
 30
0.0
 11
492.4962897570761
 21
216.7649787547976
 31
0.0
  0
SPLINE
  5
5B
330
A
100
AcDbEntity
  8
A-001_Pan
  6
HIDDEN
100
AcDbSpline
210
0.0
220
0.0
230
1.0
 70
     8
 71
     3
 72
    17
 73
    13
 74
     0
 42
0.0000000001
 43
0.0000000001
 40
0.0
 40
0.0
 40
0.0
 40
0.0
 40
1.0
 40
1.0
 40
1.0
 40
2.0
 40
2.0
 40
2.0
 40
3.0
 40
3.0
 40
3.0
 40
4.0
 40
4.0
 40
4.0
 40
4.0
 10
408.8718342414587
 20
450.2063886098711
 30
0.0
 10
385.2907718190544
 20
473.9218013386154
 30
0.0
 10
353.2688930348671
 20
487.2457346039094
 30
0.0
 10
319.8544216522711
 20
487.2457346039094
 30
0.0
 10
319.8544216522711
 20
487.2457346039094
 30
0.0
 10
319.8544216522711
 20
487.2457346039094
 30
0.0
 10
319.8544216522711
 20
487.2457346039094
 30
0.0
 10
286.5045417631078
 20
487.2457346039094
 30
0.0
 10
254.5222790948925
 20
473.9218013386154
 30
0.0
 10
230.938633012751
 20
450.2063886098711
 30
0.0
 10
230.938633012751
 20
450.2063886098711
 30
0.0
 10
230.938633012751
 20
450.2063886098711
 30
0.0
 10
230.938633012751
 20
450.2063886098711
 30
0.0
  0
LINE
  5
59
330
A
100
AcDbEntity
  8
A-001_Pan
100
AcDbLine
 10
430.8682510159298
 20
450.2063876572399
 30
0.0
 11
208.9422156263391
 21
450.2063876572399
 31
0.0
  0
SPLINE
  5
58
330
A
100
AcDbEntity
  8
A-001_Pan
100
AcDbSpline
210
0.0
220
0.0
230
1.0
 70
     8
 71
     3
 72
    17
 73
    13
 74
     0
 42
0.0000000001
 43
0.0000000001
 40
0.0
 40
0.0
 40
0.0
 40
0.0
 40
1.0
 40
1.0
 40
1.0
 40
2.0
 40
2.0
 40
2.0
 40
3.0
 40
3.0
 40
3.0
 40
4.0
 40
4.0
 40
4.0
 40
4.0
 10
430.868252024981
 20
450.2063886098711
 30
0.0
 10
408.330988136449
 20
490.3495711683278
 30
0.0
 10
365.8254793581809
 20
515.2577734757955
 30
0.0
 10
319.8544216522711
 20
515.2577734757955
 30
0.0
 10
319.8544216522711
 20
515.2577734757955
 30
0.0
 10
319.8544216522711
 20
515.2577734757955
 30
0.0
 10
319.8544216522711
 20
515.2577734757955
 30
0.0
 10
273.8833639463613
 20
515.2577734757955
 30
0.0
 10
231.4166100641529
 20
490.3495711683278
 30
0.0
 10
208.9422152292288
 20
450.2063886098711
 30
0.0
 10
208.9422152292288
 20
450.2063886098711
 30
0.0
 10
208.9422152292288
 20
450.2063886098711
 30
0.0
 10
208.9422152292288
 20
450.2063886098711
 30
0.0
  0
HATCH
  5
2B
330
A
100
AcDbEntity
  8
A-001_Pan
100
AcDbHatch
 10
0.0
 20
0.0
 30
0.0
210
0.0
220
0.0
230
0.9999999999999998
  2
SOLID
 70
     1
 71
     0
 91
        1
 92
        3
 72
     0
 73
     1
 93
      432
 10
549.0414035297695
 20
216.3481499273208
 10
554.1243234529655
 20
215.4154487621529
 10
554.8511930590617
 20
215.3112411527482
 10
555.4738550557523
 20
215.0012019842713
 10
556.0965170524438
 20
214.5843715466523
 10
556.6149714397298
 20
214.065917159366
 10
557.0292182176116
 20
213.4432551626748
 10
557.2376334364211
 20
212.8205931659838
 10
557.4460486552303
 20
212.1979311692927
 10
557.5476726048981
 20
211.4736452229343
 10
557.4460486552303
 20
210.6425680074338
 10
557.3418410458258
 20
209.8114907919332
 10
557.1334258270161
 20
209.0872048455746
 10
556.9275942679443
 20
208.2561276300742
 10
556.5107638303253
 20
207.5292580239783
 10
556.0965170524438
 20
206.9065960272873
 10
555.682270274562
 20
206.1823100809287
 10
555.1638158872752
 20
205.6638556936424
 10
554.020115843561
 20
204.5201556499276
 10
553.6058690656792
 20
204.1059088720461
 10
553.1916222877977
 20
203.6916620941645
 10
552.8798606794961
 20
203.1732077068781
 10
552.5689602911069
 20
202.7563772692593
 10
552.2563374628925
 20
202.2379228819729
 10
551.9462982944157
 20
201.7194684946866
 10
551.6362591259386
 20
201.2010141074001
 10
551.4278439071291
 20
200.6825597201137
 10
551.2194286883201
 20
200.1641053328275
 10
551.0135971292474
 20
199.5414433361365
 10
550.909389519843
 20
199.02298894885
 10
550.8051819104379
 20
198.4003269521591
 10
550.7009743010335
 20
197.8818725648727
 10
550.5967666916289
 20
197.2592105681816
 10
550.4925590822241
 20
196.6365485714905
 10
550.4925590822241
 20
196.1180941842041
 10
550.4925590822241
 20
169.9714576426538
 10
550.4925590822241
 20
167.5850172652941
 10
550.4925590822241
 20
166.6523161001262
 10
550.4925590822241
 20
165.8212388846258
 10
550.4925590822241
 20
164.9927453288625
 10
550.4925590822241
 20
164.0574605039572
 10
550.3909351325567
 20
163.228966948194
 10
550.3909351325567
 20
162.3978897326934
 10
550.2867275231518
 20
161.4651885675255
 10
550.2867275231518
 20
160.634111352025
 10
550.1825199137471
 20
159.8056177962618
 10
550.0783123043423
 20
158.8703329713564
 10
549.9741046949374
 20
158.0418394155933
 10
549.8724807452703
 20
157.2107622000927
 10
549.7682731358655
 20
156.2780610349247
 10
549.6640655264606
 20
155.4469838194243
 10
549.559857917056
 20
154.6159066039237
 10
549.4556503076511
 20
153.6832054387557
 10
549.2498187485792
 20
152.8521282232553
 10
549.1456111391743
 20
152.023634667492
 10
548.9371959203648
 20
151.1925574519915
 10
548.83298831096
 20
150.3640638962282
 10
548.627156751888
 20
149.428779071323
 10
548.4187415330786
 20
148.6002855155598
 10
548.3145339236738
 20
147.7692083000592
 10
548.1087023646018
 20
146.9381310845586
 10
547.9002871457924
 20
146.1096375287957
 10
547.6918719269828
 20
145.2785603132948
 10
547.3818327585057
 20
144.4500667575318
 10
547.1734175396963
 20
143.6189895420311
 10
546.9650023208868
 20
142.7879123265306
 10
546.65496315241
 20
141.8552111613627
 10
546.4465479336007
 20
141.1283415552669
 10
546.1365087651239
 20
140.2998479995036
 10
545.9280935463142
 20
139.468770784003
 10
545.6180543778374
 20
138.64027722824
 10
545.3054315496232
 20
137.8092000127393
 10
544.9953923811464
 20
136.9781227972389
 10
544.6827695529321
 20
136.1496292414757
 10
544.3727303844553
 20
135.3185520259751
 10
544.0609687761533
 20
134.5916824198792
 10
543.7500683877641
 20
133.763188864116
 10
543.4374455595499
 20
132.9321116486156
 10
543.0231987816686
 20
132.1036180928523
 10
542.7131596131918
 20
131.3767484867564
 10
542.4005367849773
 20
130.545671271256
 10
541.9862900070958
 20
129.8213853248975
 10
541.5720432292138
 20
128.990308109397
 10
541.259420401
 20
128.2634385033012
 10
540.8451736231183
 20
127.4349449475378
 10
540.430926845237
 20
126.7080753414423
 10
540.0140964076178
 20
125.8769981259417
 10
539.599849629736
 20
125.1501285198457
 10
539.1856028518547
 20
124.4258425734872
 10
538.7696336341481
 20
123.5947653579867
 10
538.3545256363541
 20
122.8678957518909
 10
537.8360712490674
 20
122.1436098055325
 10
537.4218244711861
 20
121.4167401994368
 10
537.0058552534795
 20
120.6898705933408
 10
536.4865396462806
 20
119.963000987245
 10
536.0722928683991
 20
119.2387150408865
 10
535.5538384811126
 20
118.5118454347908
 10
535.0353840938265
 20
117.7849758286949
 10
534.5169297065401
 20
117.0581062225992
 10
534.1000992689211
 20
116.3312366165035
 10
533.5816448816347
 20
115.606950670145
 10
531.7145201114739
 20
113.1163026833806
 10
531.2994121136802
 20
112.4936406866895
 10
530.7809577263937
 20
111.8709786899984
 10
530.3667109485123
 20
111.3525243027121
 10
529.8482565612257
 20
110.7298623060209
 10
529.3272185142022
 20
110.1072003093301
 10
528.9129717363202
 20
109.4845383126388
 10
528.3945173490341
 20
108.8618763159477
 10
527.8760629617478
 20
108.2392143192567
 10
527.3576085744617
 20
107.7207599319703
 10
526.8391541871753
 20
107.0980979352793
 10
526.3206997998889
 20
106.4754359385882
 10
525.7996617528651
 20
105.9569815513019
 10
525.2812073655786
 20
105.3343195546109
 10
524.7627529782924
 20
104.8158651673244
 10
524.244298591006
 20
104.1932031706334
 10
523.6216365943151
 20
103.6747487833471
 10
523.1031822070287
 20
103.1562943960608
 10
522.5847278197421
 20
102.5336323993696
 10
521.9620658230513
 20
102.0151780120833
 10
521.4436114357648
 20
101.496723624797
 10
520.820949439074
 20
100.9782692375107
 10
520.3024950517874
 20
100.4572311904869
 10
519.6798330550965
 20
99.93877680320066
 10
519.1613786678105
 20
99.42032241591427
 10
518.5387166711191
 20
98.90186802862793
 10
517.9160546744278
 20
98.38341364134169
 10
517.3976002871414
 20
97.86495925405525
 10
516.7749382904507
 20
97.34650486676896
 10
516.1522762937594
 20
96.92967442915012
 10
515.5296142970684
 20
96.41122004186378
 10
514.9069523003771
 20
95.89276565457732
 10
514.2842903036862
 20
95.47851887669571
 10
513.6616283069951
 20
94.96006448940931
 10
513.0389663103041
 20
94.54581771152772
 10
512.416304313613
 20
94.02477966450414
 10
511.7936423169219
 20
93.61053288662253
 10
511.1709803202311
 20
93.19628610874094
 10
510.4466943738725
 20
92.78203933085933
 10
509.8240323771811
 20
92.26100128383558
 10
509.2013703804905
 20
91.84675450595397
 10
508.5787083837992
 20
91.43250772807244
 10
507.8518387777036
 20
91.01826095019077
 10
507.2291767810123
 20
90.60143051257183
 10
506.5023071749164
 20
90.18718373469027
 10
505.8796451782253
 20
89.87456090647606
 10
505.2578444014467
 20
89.46031412859445
 10
504.5326972351757
 20
89.04606735071281
 10
503.8058276290798
 20
88.6318205728312
 10
503.1831656323887
 20
88.31919774461699
 10
502.4562960262932
 20
87.90495096673543
 10
501.8336340296021
 20
87.59232813852127
 10
501.1067644235064
 20
87.17808136063968
 10
500.3824784771477
 20
86.86804219216282
 10
499.655608871052
 20
86.55541936394866
 10
499.0329468743611
 20
86.24538019547173
 10
498.3060772682651
 20
85.82854975785272
 10
497.5792076621695
 20
85.51851058937586
 10
496.8549217158108
 20
85.20588776116165
 10
496.128052109715
 20
84.89584859268473
 10
495.4011825036194
 20
84.5832257644705
 10
494.6751741174359
 20
84.27318659599364
 10
493.950026951165
 20
84.06477137718429
 10
493.2231573450691
 20
83.75473220870743
 10
492.4962877389734
 20
83.44210938049327
 10
492.4962877389734
 20
98.48762125074632
 10
493.1189497356646
 20
98.79766041922323
 10
493.7416117323555
 20
99.0060756380326
 10
494.260066119642
 20
99.31611480650946
 10
494.8827281163329
 20
99.62873763472373
 10
495.5053901130236
 20
99.93877680320066
 10
496.0238445003101
 20
100.2513996314148
 10
496.6465064970015
 20
100.5614387998917
 10
497.2691684936926
 20
100.8740616281059
 10
497.7876228809787
 20
101.1841007965828
 10
498.4102848776698
 20
101.496723624797
 10
498.9287392649562
 20
101.8067627932738
 10
499.5514012616474
 20
102.1193856214881
 10
500.0698556489335
 20
102.429424789965
 10
500.58831003622
 20
102.7420476181791
 10
501.2109720329113
 20
103.1562943960608
 10
501.7302876401098
 20
103.4663335645376
 10
502.3520884168882
 20
103.7789563927517
 10
502.8705428041749
 20
104.1932031706334
 10
503.3915808511983
 20
104.5058259988475
 10
503.9100352384848
 20
104.9200727767291
 10
504.5326972351757
 20
105.230111945206
 10
505.0511516224621
 20
105.6469423828251
 10
505.5696060097484
 20
106.0611891607066
 10
506.0880603970349
 20
106.3712283291835
 10
506.6065147843213
 20
106.7880587668024
 10
507.1249691716075
 20
107.2023055446841
 10
507.6434235588939
 20
107.6165523225657
 10
508.1618779461805
 20
107.9291751507799
 10
508.6829159932038
 20
108.3434219286615
 10
509.2013703804905
 20
108.7576687065431
 10
509.7198247677766
 20
109.1744991441619
 10
510.2382791550629
 20
109.5887459220436
 10
510.7567335423494
 20
110.0029926999251
 10
511.2751879296357
 20
110.4198231375441
 10
511.7936423169219
 20
110.8340699154257
 10
512.3129579241206
 20
111.2483166933074
 10
512.7289271418272
 20
111.7667710805937
 10
513.2473815291133
 20
112.1836015182126
 10
513.7658359163997
 20
112.5978482960942
 10
514.1800826942816
 20
113.0120950739759
 10
514.698537081568
 20
113.5305494612622
 10
515.1153675191867
 20
113.9473798988812
 10
515.6338219064728
 20
114.3616266767628
 10
516.0480686843546
 20
114.880081064049
 10
516.5665230716411
 20
115.2943278419306
 10
516.9807698495227
 20
115.812782229217
 10
517.5018078965465
 20
116.229612666836
 10
517.9160546744278
 20
116.7480670541222
 10
518.3303014523095
 20
117.2665214414086
 10
518.8487558395959
 20
117.6807682192902
 10
519.2655862772146
 20
118.1992226065766
 10
519.6798330550965
 20
118.7176769938628
 10
520.0940798329781
 20
119.1345074314818
 10
520.5083266108597
 20
119.6529618187681
 10
521.0293646578835
 20
120.1714162060546
 10
521.4436114357648
 20
120.6898705933408
 10
521.8578582136464
 20
121.2083249806272
 10
522.2721049915283
 20
121.7267793679136
 10
522.6889354291471
 20
122.2452337551999
 10
522.998974597624
 20
122.7662718022235
 10
523.4158050352427
 20
123.2847261895099
 10
523.8300518131246
 20
123.8031805767962
 10
524.244298591006
 20
124.3216349640827
 10
524.6594065888001
 20
124.8400893513688
 10
525.7996617528651
 20
126.3954525132279
 10
525.7996617528651
 20
126.4996601226326
 10
526.3206997998889
 20
127.1223221193237
 10
526.6307389683657
 20
127.64077650661
 10
527.0449857462472
 20
128.2634385033012
 10
527.4618161838661
 20
128.7818928905875
 10
527.8760629617478
 20
129.4045548872785
 10
528.186963350137
 20
130.0272168839696
 10
528.6029325678433
 20
130.545671271256
 10
529.0171793457253
 20
131.1683332679471
 10
529.3272185142022
 20
131.7909952646381
 10
529.7440489518209
 20
132.4136572613292
 10
530.0540881202979
 20
133.0363192580203
 10
530.3667109485123
 20
133.5547736453066
 10
530.7809577263937
 20
134.1774356419977
 10
531.0909968948705
 20
134.8000976386887
 10
531.4036197230849
 20
135.4227596353798
 10
531.7145201114739
 20
136.0454216320709
 10
532.0262817197758
 20
136.6680836287619
 10
532.3363208882527
 20
137.2907456254531
 10
532.6489437164671
 20
137.9134076221442
 10
532.958982884944
 20
138.64027722824
 10
533.2716057131579
 20
139.2603555651938
 10
533.4782984921425
 20
139.8830175618847
 10
533.7900601004441
 20
140.5056795585759
 10
534.1000992689211
 20
141.1283415552669
 10
534.3085144877307
 20
141.8552111613627
 10
534.6185536562078
 20
142.4778731580538
 10
534.826968875017
 20
143.1005351547449
 10
535.139591703231
 20
143.8274047608407
 10
535.3454232623033
 20
144.4500667575318
 10
535.5538384811126
 20
145.0727287542228
 10
535.7622536999222
 20
145.7970147005814
 10
536.0722928683991
 20
146.4196766972724
 10
536.2807080872086
 20
147.1465463033682
 10
536.4865396462806
 20
147.7692083000592
 10
536.6949548650906
 20
148.4960779061549
 10
536.7991624744951
 20
149.1187399028461
 10
537.0058552534795
 20
149.8430258492045
 10
537.2134092523764
 20
150.4656878458957
 10
537.4218244711861
 20
151.1925574519915
 10
537.5260320805906
 20
151.8152194486825
 10
537.7318636396629
 20
152.5420890547784
 10
537.8360712490674
 20
153.1647510514695
 10
538.0444864678771
 20
153.8916206575652
 10
538.1461104175444
 20
154.6159066039237
 10
538.2503180269492
 20
155.2385686006148
 10
538.4587332457587
 20
155.9654382067106
 10
538.5629408551634
 20
156.6923078128063
 10
538.6671484645681
 20
157.3149698094974
 10
538.7696336341481
 20
158.0418394155933
 10
538.8729800236404
 20
158.7661253619516
 10
538.9771876330449
 20
159.3887873586428
 10
539.0813952424499
 20
160.1156569647386
 10
539.0813952424499
 20
160.8425265708343
 10
539.1856028518547
 20
161.5693961769303
 10
539.2898104612592
 20
162.1894745138841
 10
539.2898104612592
 20
162.9163441199798
 10
539.3914344109269
 20
163.6432137260756
 10
539.3914344109269
 20
164.3700833321713
 10
539.3914344109269
 20
164.9927453288625
 10
539.4956420203315
 20
165.7170312752211
 10
539.4956420203315
 20
166.4439008813169
 10
539.4956420203315
 20
167.1707704874125
 10
539.4956420203315
 20
167.7934324841037
 10
539.4956420203315
 20
168.5203020901995
 10
539.4956420203315
 20
195.9096789653948
 10
539.4956420203315
 20
196.3239257432762
 10
539.4956420203315
 20
196.8449637902999
 10
539.4956420203315
 20
197.3634181775864
 10
539.3914344109269
 20
197.7776649554678
 10
539.3914344109269
 20
198.2961193427541
 10
539.2898104612592
 20
198.710366120636
 10
539.1856028518547
 20
199.2288205079222
 10
539.1856028518547
 20
199.6456509455411
 10
539.0813952424499
 20
200.1641053328275
 10
538.9771876330449
 20
200.5783521107092
 10
538.7696336341481
 20
200.9925988885906
 10
538.6671484645681
 20
201.5136369356143
 10
538.5629408551634
 20
201.927883713496
 10
538.3545256363541
 20
202.3421304913775
 10
538.2503180269492
 20
202.8605848786639
 10
538.0444864678771
 20
203.2774153162829
 10
537.9402788584721
 20
203.4832468753551
 10
537.8360712490674
 20
203.6916620941645
 10
537.7318636396629
 20
203.9000773129739
 10
537.627656030258
 20
204.1059088720461
 10
537.5260320805906
 20
204.3143240908557
 10
537.4218244711861
 20
204.6243632593325
 10
537.3176168617812
 20
204.8327784781418
 10
537.2134092523764
 20
205.0411936969513
 10
537.1092016429719
 20
205.2470252560234
 10
537.0058552534795
 20
205.455440474833
 10
536.9033700838996
 20
205.6638556936424
 10
536.7991624744951
 20
205.8696872527146
 10
536.6949548650906
 20
206.078102471524
 10
536.5907472556856
 20
206.2839340305963
 10
536.4865396462806
 20
206.4923492494056
 10
536.3823320368759
 20
206.700764468215
 10
536.2807080872086
 20
206.9065960272873
 10
536.0722928683991
 20
207.1150112460967
 10
535.9680852589944
 20
207.3234264649063
 10
535.8638776495894
 20
207.5292580239783
 10
535.7622536999222
 20
207.7376732427878
 10
535.6580460905176
 20
207.9460884615973
 10
535.5538384811126
 20
208.1519200206696
 10
535.3454232623033
 20
208.3603352394789
 10
535.242076872811
 20
208.5687504582884
 10
535.139591703231
 20
208.7745820173605
 10
535.0353840938265
 20
208.9829972361699
 10
534.826968875017
 20
209.1914124549794
 10
534.7227612656123
 20
209.3972440140515
 10
534.6185536562078
 20
209.605659232861
 10
534.4127220971355
 20
209.7098668422658
 10
534.3085144877307
 20
209.9156984013379
 10
533.0631904943485
 20
211.7836843914112
 10
532.6489437164671
 20
212.4063463881022
 10
532.2346969385854
 20
213.0290083847931
 10
531.8178665009662
 20
213.6516703814843
 10
531.5078273324893
 20
214.3785399875802
 10
531.1952045042753
 20
215.0012019842713
 10
530.8851653357984
 20
215.7254879306298
 10
530.6767501169892
 20
216.3481499273208
 10
530.4709185579168
 20
217.0750195334165
 10
530.2625033391073
 20
217.8018891395123
 10
530.0540881202979
 20
218.5287587456082
 10
529.8482565612257
 20
219.2530446919668
 10
529.7440489518209
 20
219.9799142980624
 10
529.6398413424164
 20
220.7067839041584
 10
529.5356337330114
 20
221.433653510254
 10
529.5356337330114
 20
222.1579394566126
 10
529.5356337330114
 20
222.8848090627084
 10
529.5356337330114
 20
244.154357240135
 10
529.5356337330114
 20
268.4330077916121
 10
529.5356337330114
 20
269.0556697883032
 10
529.7440489518209
 20
269.5741241755895
 10
530.0540881202979
 20
270.092578562876
 10
530.3667109485123
 20
270.6110329501623
 10
530.8851653357984
 20
270.9236557783765
 10
531.4036197230849
 20
271.2336949468533
 10
531.9220741103708
 20
271.4421101656628
 10
532.5447361070623
 20
271.4421101656628
 10
535.0353840938265
 20
271.4421101656628
 10
537.5260320805906
 20
271.4421101656628
 10
538.1461104175444
 20
271.4421101656628
 10
538.6671484645681
 20
271.2336949468533
 10
539.1856028518547
 20
270.9236557783765
 10
539.599849629736
 20
270.6110329501623
 10
540.0140964076178
 20
270.092578562876
 10
540.3267192358319
 20
269.5741241755895
 10
540.430926845237
 20
269.0556697883032
 10
540.5334120148166
 20
268.4330077916121
 10
540.5334120148166
 20
263.7643346462979
 10
540.5334120148166
 20
261.5837258280103
 10
540.636758404309
 20
260.3409854943656
 10
540.8451736231183
 20
259.1972854506508
 10
541.259420401
 20
257.9545451170059
 10
541.8820823976908
 20
256.9150526826959
 10
542.608952003787
 20
255.8781439081233
 10
543.4374455595499
 20
254.9454427429553
 10
544.4769379938598
 20
254.2185731368596
 10
545.5138467684324
 20
253.4917035307636
 10
548.83298831096
 20
251.8321327594999
 10
549.2498187485792
 20
251.6237175406906
 10
549.559857917056
 20
251.4178859816183
 10
549.8724807452703
 20
251.1052631534042
 10
550.0783123043423
 20
250.7952239849273
 10
550.2867275231518
 20
250.3783935473085
 10
550.3909351325567
 20
249.9641467694267
 10
550.4925590822241
 20
249.549899991545
 10
550.4925590822241
 20
249.1356532136636
 10
550.4925590822241
 20
246.0223432302082
 10
550.4925590822241
 20
243.3232800246344
 10
550.4925590822241
 20
242.8048256373481
 10
550.3909351325567
 20
242.3905788594665
 10
550.1825199137471
 20
241.9763320815849
 10
549.8724807452703
 20
241.559501643966
 10
549.559857917056
 20
241.1452548660844
 10
549.1456111391743
 20
240.8352156976075
 10
548.7287807015555
 20
240.626800478798
 10
548.3145339236738
 20
240.4183852599886
 10
545.5138467684324
 20
239.6940993136301
 10
542.7131596131918
 20
238.9672297075342
 10
542.2971903954848
 20
238.7588144887248
 10
541.8820823976908
 20
238.5529829296525
 10
541.4678356198093
 20
238.2403601014385
 10
541.1552127915951
 20
237.9303209329616
 10
540.8451736231183
 20
237.5134904953426
 10
540.636758404309
 20
236.9950361080563
 10
540.5334120148166
 20
236.5807893301746
 10
540.5334120148166
 20
236.0623349428884
 10
540.5334120148166
 20
228.0719365953091
 10
540.5334120148166
 20
220.2925371262767
 10
540.5334120148166
 20
219.7740827389902
 10
540.7409660137138
 20
219.3572523013714
 10
540.9493812325232
 20
218.8387979140851
 10
541.259420401
 20
218.4245511362034
 10
541.5720432292138
 20
218.0103043583219
 10
541.9862900070958
 20
217.6976815301077
 10
542.5047443943821
 20
217.4892663112982
 10
543.0231987816686
 20
217.3876423616308
 97
        0
 75
     2
 76
     1
 98
        1
 10
-490.4467246806602
 20
-333.7422896224376
  0
HATCH
  5
2A
330
A
100
AcDbEntity
  8
A-001_Pan
100
AcDbHatch
 10
0.0
 20
0.0
 30
0.0
210
0.0
220
0.0
230
0.9999999999999998
  2
SOLID
 70
     1
 71
     0
 91
        1
 92
        1
 93
        1
 72
     4
 94
        3
 73
     0
 74
     0
 95
      179
 96
      175
 40
0.0
 40
0.0
 40
0.0
 40
0.0
 40
1.0
 40
1.0
 40
1.0
 40
2.0
 40
2.0
 40
2.0
 40
3.0
 40
3.0
 40
3.0
 40
4.0
 40
4.0
 40
4.0
 40
5.0
 40
5.0
 40
5.0
 40
6.0
 40
6.0
 40
6.0
 40
7.0
 40
7.0
 40
7.0
 40
8.0
 40
8.0
 40
8.0
 40
9.0
 40
9.0
 40
9.0
 40
10.0
 40
10.0
 40
10.0
 40
11.0
 40
11.0
 40
11.0
 40
12.0
 40
12.0
 40
12.0
 40
13.0
 40
13.0
 40
13.0
 40
14.0
 40
14.0
 40
14.0
 40
15.0
 40
15.0
 40
15.0
 40
16.0
 40
16.0
 40
16.0
 40
17.0
 40
17.0
 40
17.0
 40
18.0
 40
18.0
 40
18.0
 40
19.0
 40
19.0
 40
19.0
 40
20.0
 40
20.0
 40
20.0
 40
21.0
 40
21.0
 40
21.0
 40
22.0
 40
22.0
 40
22.0
 40
23.0
 40
23.0
 40
23.0
 40
24.0
 40
24.0
 40
24.0
 40
25.0
 40
25.0
 40
25.0
 40
26.0
 40
26.0
 40
26.0
 40
27.0
 40
27.0
 40
27.0
 40
28.0
 40
28.0
 40
28.0
 40
29.0
 40
29.0
 40
29.0
 40
30.0
 40
30.0
 40
30.0
 40
31.0
 40
31.0
 40
31.0
 40
32.0
 40
32.0
 40
32.0
 40
33.0
 40
33.0
 40
33.0
 40
34.0
 40
34.0
 40
34.0
 40
35.0
 40
35.0
 40
35.0
 40
36.0
 40
36.0
 40
36.0
 40
37.0
 40
37.0
 40
37.0
 40
38.0
 40
38.0
 40
38.0
 40
39.0
 40
39.0
 40
39.0
 40
40.0
 40
40.0
 40
40.0
 40
41.0
 40
41.0
 40
41.0
 40
42.0
 40
42.0
 40
42.0
 40
43.0
 40
43.0
 40
43.0
 40
44.0
 40
44.0
 40
44.0
 40
45.0
 40
45.0
 40
45.0
 40
46.0
 40
46.0
 40
46.0
 40
47.0
 40
47.0
 40
47.0
 40
48.0
 40
48.0
 40
48.0
 40
49.0
 40
49.0
 40
49.0
 40
50.0
 40
50.0
 40
50.0
 40
51.0
 40
51.0
 40
51.0
 40
52.0
 40
52.0
 40
52.0
 40
53.0
 40
53.0
 40
53.0
 40
54.0
 40
54.0
 40
54.0
 40
55.0
 40
55.0
 40
55.0
 40
56.0
 40
56.0
 40
56.0
 40
57.0
 40
57.0
 40
57.0
 40
58.0
 40
58.0
 40
58.0
 40
58.0
 10
549.0414035297695
 20
216.3481499273208
 10
549.0414035297695
 20
216.3481499273208
 10
554.1243234529655
 20
215.4154487621529
 10
554.1243234529655
 20
215.4154487621529
 10
556.1051292515677
 20
215.1157442326252
 10
557.5476726048981
 20
213.4527285817117
 10
557.5476726048981
 20
211.4736452229343
 10
557.5476726048981
 20
211.4736452229343
 10
557.5476726048981
 20
211.4736452229343
 10
557.5476726048981
 20
211.4736452229343
 10
557.5476726048981
 20
209.2809793258727
 10
556.6907587920244
 20
207.190798598391
 10
555.1638158872752
 20
205.6638556936424
 10
555.1638158872752
 20
205.6638556936424
 10
554.020115843561
 20
204.5201556499276
 10
554.020115843561
 20
204.5201556499276
 10
554.020115843561
 20
204.5201556499276
 10
554.020115843561
 20
204.5201556499276
 10
554.020115843561
 20
204.5201556499276
 10
551.762858453067
 20
202.2628982594335
 10
550.4925590822241
 20
199.2400163667839
 10
550.4925590822241
 20
196.1180941842041
 10
550.4925590822241
 20
196.1180941842041
 10
550.4925590822241
 20
169.9714576426538
 10
550.4925590822241
 20
169.9714576426538
 10
550.4925590822241
 20
169.9714576426538
 10
550.4925590822241
 20
169.9714576426538
 10
550.4925590822241
 20
169.9714576426538
 10
550.4925590822241
 20
169.9714576426538
 10
550.4925590822241
 20
167.5850172652941
 10
550.4925590822241
 20
167.5850172652941
 10
550.4925590822241
 20
148.9068798043868
 10
544.573394624053
 20
130.711886714356
 10
533.5816448816347
 20
115.606950670145
 10
533.5816448816347
 20
115.606950670145
 10
533.5816448816347
 20
115.606950670145
 10
533.5816448816347
 20
115.606950670145
 10
533.5816448816347
 20
115.606950670145
 10
531.7145201114739
 20
113.1163026833806
 10
531.7145201114739
 20
113.1163026833806
 10
521.8277155167112
 20
99.64079471349789
 10
508.206661381627
 20
89.3337148014665
 10
492.4962877389734
 20
83.44210938049327
 10
492.4962877389734
 20
83.44210938049327
 10
492.4962877389734
 20
83.44210938049327
 10
492.4962877389734
 20
83.44210938049327
 10
492.4962877389734
 20
83.44210938049327
 10
492.4962877389734
 20
98.48762125074632
 10
492.4962877389734
 20
98.48762125074632
 10
505.2888483182946
 20
104.4067857089176
 10
516.3589690727438
 20
113.4762926067788
 10
524.6594065888001
 20
124.8400893513688
 10
524.6594065888001
 20
124.8400893513688
 10
525.7996617528651
 20
126.3954525132279
 10
525.7996617528651
 20
126.3954525132279
 10
525.7996617528651
 20
126.3954525132279
 10
525.7996617528651
 20
126.3954525132279
 10
525.7996617528651
 20
126.3954525132279
 10
525.7996617528651
 20
126.3954525132279
 10
525.7996617528651
 20
126.4996601226326
 10
525.7996617528651
 20
126.4996601226326
 10
534.7020919877135
 20
138.7048687216727
 10
539.4956420203315
 20
153.4153660459883
 10
539.4956420203315
 20
168.5203020901995
 10
539.4956420203315
 20
168.5203020901995
 10
539.4956420203315
 20
168.5203020901995
 10
539.4956420203315
 20
168.5203020901995
 10
539.4956420203315
 20
168.5203020901995
 10
539.4956420203315
 20
195.9096789653948
 10
539.4956420203315
 20
195.9096789653948
 10
539.4956420203315
 20
198.4425267278685
 10
539.0021630105057
 20
200.9486766730565
 10
538.0444864678771
 20
203.2774153162829
 10
538.0444864678771
 20
203.2774153162829
 10
538.0444864678771
 20
203.2774153162829
 10
538.0444864678771
 20
203.2774153162829
 10
537.0093001331293
 20
205.6207946980207
 10
535.7570863804477
 20
207.8470481716672
 10
534.3085144877307
 20
209.9156984013379
 10
534.3085144877307
 20
209.9156984013379
 10
533.0631904943485
 20
211.7836843914112
 10
533.0631904943485
 20
211.7836843914112
 10
533.0631904943485
 20
211.7836843914112
 10
533.0631904943485
 20
211.7836843914112
 10
533.0631904943485
 20
211.7836843914112
 10
530.7671782077948
 20
215.0253161418194
 10
529.5356337330114
 20
218.9008057477803
 10
529.5356337330114
 20
222.8848090627084
 10
529.5356337330114
 20
222.8848090627084
 10
529.5356337330114
 20
244.154357240135
 10
529.5356337330114
 20
244.154357240135
 10
529.5356337330114
 20
244.154357240135
 10
529.5356337330114
 20
244.154357240135
 10
529.5356337330114
 20
244.154357240135
 10
529.5356337330114
 20
244.154357240135
 10
529.5356337330114
 20
268.4330077916121
 10
529.5356337330114
 20
268.4330077916121
 10
529.5356337330114
 20
270.0943010027008
 10
530.8834428959736
 20
271.4421101656628
 10
532.5447361070623
 20
271.4421101656628
 10
532.5447361070623
 20
271.4421101656628
 10
535.0353840938265
 20
271.4421101656628
 10
535.0353840938265
 20
271.4421101656628
 10
535.0353840938265
 20
271.4421101656628
 10
535.0353840938265
 20
271.4421101656628
 10
535.0353840938265
 20
271.4421101656628
 10
535.0353840938265
 20
271.4421101656628
 10
537.5260320805906
 20
271.4421101656628
 10
537.5260320805906
 20
271.4421101656628
 10
539.1873252916794
 20
271.4421101656628
 10
540.5334120148166
 20
270.0943010027008
 10
540.5334120148166
 20
268.4330077916121
 10
540.5334120148166
 20
268.4330077916121
 10
540.5334120148166
 20
263.7643346462979
 10
540.5334120148166
 20
263.7643346462979
 10
540.5334120148166
 20
263.7643346462979
 10
540.5334120148166
 20
263.7643346462979
 10
540.5334120148166
 20
263.7643346462979
 10
540.5334120148166
 20
263.7643346462979
 10
540.5334120148166
 20
261.5837258280103
 10
540.5334120148166
 20
261.5837258280103
 10
540.5334120148166
 20
258.2103274309994
 10
542.4573772991981
 20
255.0849603687701
 10
545.5138467684324
 20
253.4917035307636
 10
545.5138467684324
 20
253.4917035307636
 10
545.5138467684324
 20
253.4917035307636
 10
545.5138467684324
 20
253.4917035307636
 10
545.5138467684324
 20
253.4917035307636
 10
548.83298831096
 20
251.8321327594999
 10
548.83298831096
 20
251.8321327594999
 10
549.8526726872841
 20
251.322290571338
 10
550.4925590822241
 20
250.2802144772906
 10
550.4925590822241
 20
249.1356532136636
 10
550.4925590822241
 20
249.1356532136636
 10
550.4925590822241
 20
246.0223432302082
 10
550.4925590822241
 20
246.0223432302082
 10
550.4925590822241
 20
246.0223432302082
 10
550.4925590822241
 20
246.0223432302082
 10
550.4925590822241
 20
246.0223432302082
 10
550.4925590822241
 20
246.0223432302082
 10
550.4925590822241
 20
243.3232800246344
 10
550.4925590822241
 20
243.3232800246344
 10
550.4925590822241
 20
241.9780545214098
 10
549.6003352529404
 20
240.786987382511
 10
548.3145339236738
 20
240.4183852599886
 10
548.3145339236738
 20
240.4183852599886
 10
545.5138467684324
 20
239.6940993136301
 10
545.5138467684324
 20
239.6940993136301
 10
545.5138467684324
 20
239.6940993136301
 10
545.5138467684324
 20
239.6940993136301
 10
545.5138467684324
 20
239.6940993136301
 10
545.5138467684324
 20
239.6940993136301
 10
542.7131596131918
 20
238.9672297075342
 10
542.7131596131918
 20
238.9672297075342
 10
541.4273582839249
 20
238.6003500248365
 10
540.5334120148166
 20
237.4084216660254
 10
540.5334120148166
 20
236.0623349428884
 10
540.5334120148166
 20
236.0623349428884
 10
540.5334120148166
 20
228.0719365953091
 10
540.5334120148166
 20
228.0719365953091
 10
540.5334120148166
 20
228.0719365953091
 10
540.5334120148166
 20
228.0719365953091
 10
540.5334120148166
 20
228.0719365953091
 10
540.5334120148166
 20
228.0719365953091
 10
540.5334120148166
 20
220.2925371262767
 10
540.5334120148166
 20
220.2925371262767
 10
540.5334120148166
 20
218.8508549928592
 10
541.584100307988
 20
217.6270614972878
 10
543.0231987816686
 20
217.3876423616308
 10
543.0231987816686
 20
217.3876423616308
 10
549.0414035297695
 20
216.3481499273208
 10
549.0414035297695
 20
216.3481499273208
 10
549.0414035297695
 20
216.3481499273208
 10
549.0414035297695
 20
216.3481499273208
 10
549.0414035297695
 20
216.3481499273208
 97
        0
 75
     2
 76
     1
 98
        1
 10
-490.4467246806602
 20
-333.7422896224376
  0
SPLINE
  5
29
330
A
100
AcDbEntity
  8
A-001_Pan
100
AcDbSpline
210
0.0
220
0.0
230
1.0
 70
    11
 71
     3
 72
   179
 73
   175
 74
     0
 42
0.0000000001
 43
0.0000000001
 40
0.0
 40
0.0
 40
0.0
 40
0.0
 40
1.0
 40
1.0
 40
1.0
 40
2.0
 40
2.0
 40
2.0
 40
3.0
 40
3.0
 40
3.0
 40
4.0
 40
4.0
 40
4.0
 40
5.0
 40
5.0
 40
5.0
 40
6.0
 40
6.0
 40
6.0
 40
7.0
 40
7.0
 40
7.0
 40
8.0
 40
8.0
 40
8.0
 40
9.0
 40
9.0
 40
9.0
 40
10.0
 40
10.0
 40
10.0
 40
11.0
 40
11.0
 40
11.0
 40
12.0
 40
12.0
 40
12.0
 40
13.0
 40
13.0
 40
13.0
 40
14.0
 40
14.0
 40
14.0
 40
15.0
 40
15.0
 40
15.0
 40
16.0
 40
16.0
 40
16.0
 40
17.0
 40
17.0
 40
17.0
 40
18.0
 40
18.0
 40
18.0
 40
19.0
 40
19.0
 40
19.0
 40
20.0
 40
20.0
 40
20.0
 40
21.0
 40
21.0
 40
21.0
 40
22.0
 40
22.0
 40
22.0
 40
23.0
 40
23.0
 40
23.0
 40
24.0
 40
24.0
 40
24.0
 40
25.0
 40
25.0
 40
25.0
 40
26.0
 40
26.0
 40
26.0
 40
27.0
 40
27.0
 40
27.0
 40
28.0
 40
28.0
 40
28.0
 40
29.0
 40
29.0
 40
29.0
 40
30.0
 40
30.0
 40
30.0
 40
31.0
 40
31.0
 40
31.0
 40
32.0
 40
32.0
 40
32.0
 40
33.0
 40
33.0
 40
33.0
 40
34.0
 40
34.0
 40
34.0
 40
35.0
 40
35.0
 40
35.0
 40
36.0
 40
36.0
 40
36.0
 40
37.0
 40
37.0
 40
37.0
 40
38.0
 40
38.0
 40
38.0
 40
39.0
 40
39.0
 40
39.0
 40
40.0
 40
40.0
 40
40.0
 40
41.0
 40
41.0
 40
41.0
 40
42.0
 40
42.0
 40
42.0
 40
43.0
 40
43.0
 40
43.0
 40
44.0
 40
44.0
 40
44.0
 40
45.0
 40
45.0
 40
45.0
 40
46.0
 40
46.0
 40
46.0
 40
47.0
 40
47.0
 40
47.0
 40
48.0
 40
48.0
 40
48.0
 40
49.0
 40
49.0
 40
49.0
 40
50.0
 40
50.0
 40
50.0
 40
51.0
 40
51.0
 40
51.0
 40
52.0
 40
52.0
 40
52.0
 40
53.0
 40
53.0
 40
53.0
 40
54.0
 40
54.0
 40
54.0
 40
55.0
 40
55.0
 40
55.0
 40
56.0
 40
56.0
 40
56.0
 40
57.0
 40
57.0
 40
57.0
 40
58.0
 40
58.0
 40
58.0
 40
58.0
 10
549.0414035297695
 20
216.3481499273208
 30
0.0
 10
549.0414035297695
 20
216.3481499273208
 30
0.0
 10
554.1243234529655
 20
215.4154487621529
 30
0.0
 10
554.1243234529655
 20
215.4154487621529
 30
0.0
 10
556.1051292515677
 20
215.1157442326253
 30
0.0
 10
557.5476726048981
 20
213.4527285817118
 30
0.0
 10
557.5476726048981
 20
211.4736452229343
 30
0.0
 10
557.5476726048981
 20
211.4736452229343
 30
0.0
 10
557.5476726048981
 20
211.4736452229343
 30
0.0
 10
557.5476726048981
 20
211.4736452229343
 30
0.0
 10
557.5476726048981
 20
209.2809793258727
 30
0.0
 10
556.6907587920244
 20
207.1907985983911
 30
0.0
 10
555.1638158872752
 20
205.6638556936425
 30
0.0
 10
555.1638158872752
 20
205.6638556936425
 30
0.0
 10
554.020115843561
 20
204.5201556499277
 30
0.0
 10
554.020115843561
 20
204.5201556499277
 30
0.0
 10
554.020115843561
 20
204.5201556499277
 30
0.0
 10
554.020115843561
 20
204.5201556499277
 30
0.0
 10
554.020115843561
 20
204.5201556499277
 30
0.0
 10
551.762858453067
 20
202.2628982594335
 30
0.0
 10
550.4925590822241
 20
199.2400163667839
 30
0.0
 10
550.4925590822241
 20
196.1180941842041
 30
0.0
 10
550.4925590822241
 20
196.1180941842041
 30
0.0
 10
550.4925590822241
 20
169.9714576426538
 30
0.0
 10
550.4925590822241
 20
169.9714576426538
 30
0.0
 10
550.4925590822241
 20
169.9714576426538
 30
0.0
 10
550.4925590822241
 20
169.9714576426538
 30
0.0
 10
550.4925590822241
 20
169.9714576426538
 30
0.0
 10
550.4925590822241
 20
169.9714576426538
 30
0.0
 10
550.4925590822241
 20
167.5850172652942
 30
0.0
 10
550.4925590822241
 20
167.5850172652942
 30
0.0
 10
550.4925590822241
 20
148.9068798043869
 30
0.0
 10
544.573394624053
 20
130.711886714356
 30
0.0
 10
533.5816448816347
 20
115.606950670145
 30
0.0
 10
533.5816448816347
 20
115.606950670145
 30
0.0
 10
533.5816448816347
 20
115.606950670145
 30
0.0
 10
533.5816448816347
 20
115.606950670145
 30
0.0
 10
533.5816448816347
 20
115.606950670145
 30
0.0
 10
531.7145201114739
 20
113.1163026833806
 30
0.0
 10
531.7145201114739
 20
113.1163026833806
 30
0.0
 10
521.8277155167112
 20
99.64079471349789
 30
0.0
 10
508.206661381627
 20
89.3337148014665
 30
0.0
 10
492.4962877389734
 20
83.44210938049327
 30
0.0
 10
492.4962877389734
 20
83.44210938049327
 30
0.0
 10
492.4962877389734
 20
83.44210938049327
 30
0.0
 10
492.4962877389734
 20
83.44210938049327
 30
0.0
 10
492.4962877389734
 20
83.44210938049327
 30
0.0
 10
492.4962877389734
 20
98.48762125074637
 30
0.0
 10
492.4962877389734
 20
98.48762125074637
 30
0.0
 10
505.2888483182946
 20
104.4067857089176
 30
0.0
 10
516.3589690727438
 20
113.4762926067788
 30
0.0
 10
524.6594065888001
 20
124.8400893513688
 30
0.0
 10
524.6594065888001
 20
124.8400893513688
 30
0.0
 10
525.7996617528651
 20
126.395452513228
 30
0.0
 10
525.7996617528651
 20
126.395452513228
 30
0.0
 10
525.7996617528651
 20
126.395452513228
 30
0.0
 10
525.7996617528651
 20
126.395452513228
 30
0.0
 10
525.7996617528651
 20
126.395452513228
 30
0.0
 10
525.7996617528651
 20
126.395452513228
 30
0.0
 10
525.7996617528651
 20
126.4996601226326
 30
0.0
 10
525.7996617528651
 20
126.4996601226326
 30
0.0
 10
534.7020919877135
 20
138.7048687216728
 30
0.0
 10
539.4956420203315
 20
153.4153660459883
 30
0.0
 10
539.4956420203315
 20
168.5203020901996
 30
0.0
 10
539.4956420203315
 20
168.5203020901996
 30
0.0
 10
539.4956420203315
 20
168.5203020901996
 30
0.0
 10
539.4956420203315
 20
168.5203020901996
 30
0.0
 10
539.4956420203315
 20
168.5203020901996
 30
0.0
 10
539.4956420203315
 20
195.9096789653948
 30
0.0
 10
539.4956420203315
 20
195.9096789653948
 30
0.0
 10
539.4956420203315
 20
198.4425267278685
 30
0.0
 10
539.0021630105057
 20
200.9486766730565
 30
0.0
 10
538.0444864678771
 20
203.2774153162829
 30
0.0
 10
538.0444864678771
 20
203.2774153162829
 30
0.0
 10
538.0444864678771
 20
203.2774153162829
 30
0.0
 10
538.0444864678771
 20
203.2774153162829
 30
0.0
 10
537.0093001331293
 20
205.6207946980208
 30
0.0
 10
535.7570863804477
 20
207.8470481716672
 30
0.0
 10
534.3085144877307
 20
209.915698401338
 30
0.0
 10
534.3085144877307
 20
209.915698401338
 30
0.0
 10
533.0631904943485
 20
211.7836843914113
 30
0.0
 10
533.0631904943485
 20
211.7836843914113
 30
0.0
 10
533.0631904943485
 20
211.7836843914113
 30
0.0
 10
533.0631904943485
 20
211.7836843914113
 30
0.0
 10
533.0631904943485
 20
211.7836843914113
 30
0.0
 10
530.7671782077948
 20
215.0253161418193
 30
0.0
 10
529.5356337330114
 20
218.9008057477804
 30
0.0
 10
529.5356337330114
 20
222.8848090627084
 30
0.0
 10
529.5356337330114
 20
222.8848090627084
 30
0.0
 10
529.5356337330114
 20
244.154357240135
 30
0.0
 10
529.5356337330114
 20
244.154357240135
 30
0.0
 10
529.5356337330114
 20
244.154357240135
 30
0.0
 10
529.5356337330114
 20
244.154357240135
 30
0.0
 10
529.5356337330114
 20
244.154357240135
 30
0.0
 10
529.5356337330114
 20
244.154357240135
 30
0.0
 10
529.5356337330114
 20
268.4330077916121
 30
0.0
 10
529.5356337330114
 20
268.4330077916121
 30
0.0
 10
529.5356337330114
 20
270.0943010027008
 30
0.0
 10
530.8834428959736
 20
271.4421101656628
 30
0.0
 10
532.5447361070623
 20
271.4421101656628
 30
0.0
 10
532.5447361070623
 20
271.4421101656628
 30
0.0
 10
535.0353840938265
 20
271.4421101656628
 30
0.0
 10
535.0353840938265
 20
271.4421101656628
 30
0.0
 10
535.0353840938265
 20
271.4421101656628
 30
0.0
 10
535.0353840938265
 20
271.4421101656628
 30
0.0
 10
535.0353840938265
 20
271.4421101656628
 30
0.0
 10
535.0353840938265
 20
271.4421101656628
 30
0.0
 10
537.5260320805906
 20
271.4421101656628
 30
0.0
 10
537.5260320805906
 20
271.4421101656628
 30
0.0
 10
539.1873252916794
 20
271.4421101656628
 30
0.0
 10
540.5334120148166
 20
270.0943010027008
 30
0.0
 10
540.5334120148166
 20
268.4330077916121
 30
0.0
 10
540.5334120148166
 20
268.4330077916121
 30
0.0
 10
540.5334120148166
 20
263.7643346462979
 30
0.0
 10
540.5334120148166
 20
263.7643346462979
 30
0.0
 10
540.5334120148166
 20
263.7643346462979
 30
0.0
 10
540.5334120148166
 20
263.7643346462979
 30
0.0
 10
540.5334120148166
 20
263.7643346462979
 30
0.0
 10
540.5334120148166
 20
263.7643346462979
 30
0.0
 10
540.5334120148166
 20
261.5837258280104
 30
0.0
 10
540.5334120148166
 20
261.5837258280104
 30
0.0
 10
540.5334120148166
 20
258.2103274309994
 30
0.0
 10
542.4573772991981
 20
255.08496036877
 30
0.0
 10
545.5138467684324
 20
253.4917035307636
 30
0.0
 10
545.5138467684324
 20
253.4917035307636
 30
0.0
 10
545.5138467684324
 20
253.4917035307636
 30
0.0
 10
545.5138467684324
 20
253.4917035307636
 30
0.0
 10
545.5138467684324
 20
253.4917035307636
 30
0.0
 10
548.83298831096
 20
251.8321327594999
 30
0.0
 10
548.83298831096
 20
251.8321327594999
 30
0.0
 10
549.8526726872841
 20
251.3222905713381
 30
0.0
 10
550.4925590822241
 20
250.2802144772906
 30
0.0
 10
550.4925590822241
 20
249.1356532136635
 30
0.0
 10
550.4925590822241
 20
249.1356532136635
 30
0.0
 10
550.4925590822241
 20
246.0223432302082
 30
0.0
 10
550.4925590822241
 20
246.0223432302082
 30
0.0
 10
550.4925590822241
 20
246.0223432302082
 30
0.0
 10
550.4925590822241
 20
246.0223432302082
 30
0.0
 10
550.4925590822241
 20
246.0223432302082
 30
0.0
 10
550.4925590822241
 20
246.0223432302082
 30
0.0
 10
550.4925590822241
 20
243.3232800246344
 30
0.0
 10
550.4925590822241
 20
243.3232800246344
 30
0.0
 10
550.4925590822241
 20
241.9780545214099
 30
0.0
 10
549.6003352529404
 20
240.786987382511
 30
0.0
 10
548.3145339236738
 20
240.4183852599887
 30
0.0
 10
548.3145339236738
 20
240.4183852599887
 30
0.0
 10
545.5138467684324
 20
239.6940993136301
 30
0.0
 10
545.5138467684324
 20
239.6940993136301
 30
0.0
 10
545.5138467684324
 20
239.6940993136301
 30
0.0
 10
545.5138467684324
 20
239.6940993136301
 30
0.0
 10
545.5138467684324
 20
239.6940993136301
 30
0.0
 10
545.5138467684324
 20
239.6940993136301
 30
0.0
 10
542.7131596131918
 20
238.9672297075342
 30
0.0
 10
542.7131596131918
 20
238.9672297075342
 30
0.0
 10
541.4273582839249
 20
238.6003500248365
 30
0.0
 10
540.5334120148166
 20
237.4084216660254
 30
0.0
 10
540.5334120148166
 20
236.0623349428883
 30
0.0
 10
540.5334120148166
 20
236.0623349428883
 30
0.0
 10
540.5334120148166
 20
228.0719365953091
 30
0.0
 10
540.5334120148166
 20
228.0719365953091
 30
0.0
 10
540.5334120148166
 20
228.0719365953091
 30
0.0
 10
540.5334120148166
 20
228.0719365953091
 30
0.0
 10
540.5334120148166
 20
228.0719365953091
 30
0.0
 10
540.5334120148166
 20
228.0719365953091
 30
0.0
 10
540.5334120148166
 20
220.2925371262768
 30
0.0
 10
540.5334120148166
 20
220.2925371262768
 30
0.0
 10
540.5334120148166
 20
218.8508549928593
 30
0.0
 10
541.584100307988
 20
217.6270614972878
 30
0.0
 10
543.0231987816686
 20
217.3876423616308
 30
0.0
 10
543.0231987816686
 20
217.3876423616308
 30
0.0
 10
549.0414035297695
 20
216.3481499273208
 30
0.0
 10
549.0414035297695
 20
216.3481499273208
 30
0.0
 10
549.0414035297695
 20
216.3481499273208
 30
0.0
 10
549.0414035297695
 20
216.3481499273208
 30
0.0
 10
549.0414035297695
 20
216.3481499273208
 30
0.0
  0
TEXT
  5
2FD
330
A
100
AcDbEntity
  8
A-043_Txt025
370
     0
100
AcDbText
 10
208.9422156263391
 20
43.44211199968668
 30
0.0
 40
20.0
  1
P000 3110
  7
helvetica regular
100
AcDbText
  0
DIMENSION
  5
314
330
A
100
AcDbEntity
  8
A-031_DimExt
370
     0
100
AcDbDimension
  2
*D2
 10
128.942215626339
 20
271.442108
 30
0.0
 11
113.7741483994483
 21
177.4421075000001
 31
0.0
 70
    32
 71
     5
 42
188.0000009999999
  3
DIMEXT
100
AcDbAlignedDimension
 13
319.8544215047111
 23
83.44210700000003
 33
0.0
 14
319.8544215047112
 24
271.442108
 34
0.0
 50
90.0
100
AcDbRotatedDimension
  0
DIMENSION
  5
31F
330
A
100
AcDbEntity
  8
A-031_DimExt
370
     0
100
AcDbDimension
  2
*D3
 10
168.9422156263391
 20
220.1870073596452
 30
0.0
 11
153.7741483994483
 21
151.8145571798226
 31
0.0
 70
    32
 71
     5
 42
136.7449003596451
  3
DIMEXT
100
AcDbAlignedDimension
 13
319.8544215047111
 23
83.44210700000003
 33
0.0
 14
225.3372584071483
 24
220.1870073596451
 34
0.0
 50
90.0
100
AcDbRotatedDimension
  0
DIMENSION
  5
32C
330
A
100
AcDbEntity
  8
A-031_DimExt
370
     0
100
AcDbDimension
  2
*D4
 10
550.4925590822241
 20
43.44211199968668
 30
0.0
 11
502.9410201715919
 21
43.44211199968668
 31
0.0
 70
   160
 71
     5
 42
10.99691706189264
  3
DIMEXT
100
AcDbAlignedDimension
 13
539.4956420203315
 23
174.9509261456405
 33
0.0
 14
550.4925590822241
 24
174.9509261456406
 34
0.0
100
AcDbRotatedDimension
  0
DIMENSION
  5
34B
330
A
100
AcDbEntity
  8
A-031_DimExt
370
     0
100
AcDbDimension
  2
*D5
 10
430.868252024981
 20
311.442108
 30
0.0
 11
319.9052338256601
 21
326.4421079999999
 31
0.0
 70
    32
 71
     5
 42
221.9260363986419
  3
DIMEXT
100
AcDbAlignedDimension
 13
208.9422156263391
 23
209.3972453746435
 33
0.0
 14
430.868252024981
 24
209.3972440140516
 34
0.0
100
AcDbRotatedDimension
  0
DIMENSION
  5
356
330
A
100
AcDbEntity
  8
A-031_DimExt
370
     0
100
AcDbDimension
  2
*D6
 10
230.938633012751
 20
410.2063876572399
 30
0.0
 11
319.9052336271048
 21
425.3744548841306
 31
0.0
 70
    32
 71
     5
 42
177.9332012287077
  3
DIMEXT
100
AcDbAlignedDimension
 13
408.8718342414587
 23
450.2063886098711
 33
0.0
 14
230.938633012751
 24
450.2063886098711
 34
0.0
100
AcDbRotatedDimension
  0
ENDSEC
  0
SECTION
  2
OBJECTS
  0
DICTIONARY
  5
19
330
0
100
AcDbDictionary
281
     1
  3
ACAD_2007HEADERVARS_RT
350
4C1
  3
ACAD_COLOR
350
2AA
  3
ACAD_GROUP
350
1A
  3
ACAD_LAYOUT
350
1E
  3
ACAD_MATERIAL
350
280
  3
ACAD_MLEADERSTYLE
350
2C3
  3
ACAD_MLINESTYLE
350
1B
  3
ACAD_PLOTSETTINGS
350
22
  3
ACAD_PLOTSTYLENAME
350
1F
  3
ACAD_SCALELIST
350
2AD
  3
ACAD_TABLESTYLE
350
2AB
  3
ACAD_VISUALSTYLE
350
299
  3
ACAD_WIPEOUT_VARS
350
23
  3
ACDB_RECOMPOSE_DATA
350
376
  3
AcDbVariableDictionary
350
377
  3
AEC_DISP_REP_CONFIGURATIONS
350
4B4
  3
AEC_DISP_REP_SETS
350
4AA
  3
AEC_DISP_REPS
350
386
  3
AEC_DISPLAY_PROPS_DEFAULTS
350
388
  3
AEC_LAYERKEY_STYLES
350
363
  3
AEC_PROPERTY_SET_DEFS
350
2F9
  3
AEC_VARS
350
361
  3
DWGPROPS
350
4C0
  0
DICTIONARY
  5
2F0
330
2
100
AcDbDictionary
280
     1
281
     1
  3
ACAD_LAYERFILTERS
360
365
  3
ACAD_LAYERSTATES
360
2F1
  3
ACLYDICTIONARY
360
364
  0
DICTIONARY
  5
366
330
14
100
AcDbDictionary
280
     1
281
     1
  3
ADSK_XREC_LAYER_RECONCILED
360
367
  0
DICTIONARY
  5
2E4
330
2E3
100
AcDbDictionary
280
     1
281
     1
  3
ADSK_XREC_LAYER_RECONCILED
360
368
  0
DICTIONARY
  5
2E6
330
2E5
100
AcDbDictionary
280
     1
281
     1
  3
ADSK_XREC_LAYER_RECONCILED
360
369
  0
DICTIONARY
  5
2E8
330
2E7
100
AcDbDictionary
280
     1
281
     1
  3
ADSK_XREC_LAYER_RECONCILED
360
36A
  0
DICTIONARY
  5
4CC
330
2CB
100
AcDbDictionary
280
     1
281
     1
  3
AcDbBlockTableRecordData
360
4CD
  0
DICTIONARY
  5
4CF
330
2D2
100
AcDbDictionary
280
     1
281
     1
  3
AcDbBlockTableRecordData
360
4D0
  0
DICTIONARY
  5
4C1
102
{ACAD_REACTORS
330
19
102
}
330
19
100
AcDbDictionary
281
     1
  3
DIMFXL
350
4C2
  3
DIMJOGANG
350
4C3
  0
DICTIONARY
  5
2AA
102
{ACAD_REACTORS
330
19
102
}
330
19
100
AcDbDictionary
281
     1
  0
DICTIONARY
  5
1A
102
{ACAD_REACTORS
330
19
102
}
330
19
100
AcDbDictionary
281
     1
  0
DICTIONARY
  5
1E
102
{ACAD_REACTORS
330
19
102
}
330
19
100
AcDbDictionary
281
     1
  3
Layout1
350
21
  3
Model
350
20
  0
DICTIONARY
  5
280
102
{ACAD_REACTORS
330
19
102
}
330
19
100
AcDbDictionary
281
     1
  3
ByBlock
350
289
  3
ByLayer
350
281
  3
Global
350
291
  0
DICTIONARY
  5
2C3
102
{ACAD_REACTORS
330
19
102
}
330
19
100
AcDbDictionary
281
     1
  3
Standard
350
2C4
  0
DICTIONARY
  5
1B
102
{ACAD_REACTORS
330
19
102
}
330
19
100
AcDbDictionary
281
     1
  3
Standard
350
1C
  0
DICTIONARY
  5
22
102
{ACAD_REACTORS
330
19
102
}
330
19
100
AcDbDictionary
281
     1
  0
ACDBDICTIONARYWDFLT
  5
1F
102
{ACAD_REACTORS
330
19
102
}
330
19
100
AcDbDictionary
281
     1
  3
Normal
350
1D
100
AcDbDictionaryWithDefault
340
1D
  0
DICTIONARY
  5
2AD
102
{ACAD_REACTORS
330
19
102
}
330
19
100
AcDbDictionary
281
     1
  3
A0
350
2AE
  3
A1
350
2AF
  3
A2
350
2B0
  3
A3
350
2B1
  3
A4
350
2B2
  3
A5
350
2B3
  3
A6
350
2B4
  3
A7
350
2B5
  3
A8
350
2B6
  3
A9
350
2B7
  3
B0
350
2B8
  3
B1
350
2B9
  3
B2
350
2BA
  3
B3
350
2BB
  3
B4
350
2BC
  3
B5
350
2BD
  3
B6
350
2BE
  3
B7
350
2BF
  3
B8
350
2C0
  3
B9
350
2C1
  3
C0
350
2C2
  0
DICTIONARY
  5
2AB
102
{ACAD_REACTORS
330
19
102
}
330
19
100
AcDbDictionary
281
     1
  3
Standard
350
2AC
  0
DICTIONARY
  5
299
102
{ACAD_REACTORS
330
19
102
}
330
19
100
AcDbDictionary
281
     1
  3
2dWireframe
350
29F
  3
3D Hidden
350
2A1
  3
3dWireframe
350
2A0
  3
Basic
350
29E
  3
Brighten
350
2A5
  3
ColorChange
350
2A9
  3
Conceptual
350
2A2
  3
Dim
350
2A4
  3
Facepattern
350
2A8
  3
Flat
350
29A
  3
FlatWithEdges
350
29B
  3
Gouraud
350
29C
  3
GouraudWithEdges
350
29D
  3
Linepattern
350
2A7
  3
Realistic
350
2A3
  3
Thicken
350
2A6
  0
WIPEOUTVARIABLES
  5
23
330
19
100
AcDbWipeoutVariables
 70
     1
  0
XRECORD
  5
376
102
{ACAD_REACTORS
330
19
102
}
330
19
100
AcDbXrecord
280
     1
 90
        1
330
2AC
  0
DICTIONARY
  5
377
102
{ACAD_REACTORS
330
19
102
}
330
19
100
AcDbDictionary
281
     1
  3
CANNOSCALE
350
37B
  3
CMLEADERSTYLE
350
379
  3
CTABLESTYLE
350
378
  3
DIMASSOC
350
4BE
  3
INDEXCTL
350
4BD
  3
LIGHTINGUNITS
350
37C
  3
MSLTSCALE
350
37A
  3
SORTENTS
350
4BC
  0
DICTIONARY
  5
4B4
102
{ACAD_REACTORS
330
19
102
}
330
19
100
AcDbDictionary
281
     1
  3
Standard
350
4B5
  0
DICTIONARY
  5
4AA
102
{ACAD_REACTORS
330
19
102
}
330
19
100
AcDbDictionary
281
     1
  3
Elevation
350
4AE
  3
Model
350
4AB
  3
Model High Detail
350
4B2
  3
Model Low Detail
350
4B1
  3
Plan
350
4AC
  3
Plan Diagnostic
350
4B3
  3
Plan High Detail
350
4B0
  3
Plan Low Detail
350
4AF
  3
Reflected
350
4AD
  0
DICTIONARY
  5
386
102
{ACAD_REACTORS
330
19
102
}
330
19
100
AcDbDictionary
281
     1
  3
AecDbDispRep2dSection
350
387
  3
AecDbDispRepAnchor
350
38A
  3
AecDbDispRepAnchorBubToGrid
350
430
  3
AecDbDispRepAnchorBubToGridMdl
350
432
  3
AecDbDispRepAnchorBubToGridRcp
350
434
  3
AecDbDispRepAnchorEntToNode
350
38B
  3
AecDbDispRepAnchorExtendedTagToEnt
350
3B6
  3
AecDbDispRepAnchorTagToEnt
350
3B4
  3
AecDbDispRepBdgElevLineModel
350
3BA
  3
AecDbDispRepBdgElevLinePlan
350
3BC
  3
AecDbDispRepBdgElevLinePlan100
350
44C
  3
AecDbDispRepBdgElevLinePlan50
350
467
  3
AecDbDispRepBdgElevLineRcp
350
3BE
  3
AecDbDispRepBdgSectionLineModel
350
3C0
  3
AecDbDispRepBdgSectionLinePlan
350
3C2
  3
AecDbDispRepBdgSectionLinePlan100
350
44E
  3
AecDbDispRepBdgSectionLinePlan50
350
469
  3
AecDbDispRepBdgSectionLineRcp
350
3C4
  3
AecDbDispRepBdgSectionModel
350
3C6
  3
AecDbDispRepBdgSectionSubDiv
350
3C7
  3
AecDbDispRepCeilingGrid
350
3C9
  3
AecDbDispRepCeilingGridModel
350
3CB
  3
AecDbDispRepCeilingGridPlan100
350
450
  3
AecDbDispRepCeilingGridPlan50
350
46B
  3
AecDbDispRepCeilingGridRcp
350
3CD
  3
AecDbDispRepClipVolModel
350
38D
  3
AecDbDispRepClipVolPlan
350
38F
  3
AecDbDispRepClipVolResSubDiv
350
392
  3
AecDbDispRepClipVolResult
350
391
  3
AecDbDispRepColumnGrid
350
436
  3
AecDbDispRepColumnGridModel
350
438
  3
AecDbDispRepColumnGridPlan100
350
452
  3
AecDbDispRepColumnGridPlan50
350
46D
  3
AecDbDispRepColumnGridRcp
350
43A
  3
AecDbDispRepCurtainWallLayoutModel
350
3CF
  3
AecDbDispRepCurtainWallLayoutPlan
350
3D1
  3
AecDbDispRepCurtainWallLayoutPlan100
350
454
  3
AecDbDispRepCurtainWallLayoutPlan50
350
46F
  3
AecDbDispRepCurtainWallUnitModel
350
3D3
  3
AecDbDispRepCurtainWallUnitPlan
350
3D5
  3
AecDbDispRepCurtainWallUnitPlan100
350
456
  3
AecDbDispRepCurtainWallUnitPlan50
350
471
  3
AecDbDispRepDimGroupPlan
350
486
  3
AecDbDispRepDimGroupPlan100
350
482
  3
AecDbDispRepDimGroupPlan50
350
484
  3
AecDbDispRepDisplayTheme
350
394
  3
AecDbDispRepDoorElev
350
3D9
  3
AecDbDispRepDoorModel
350
3D7
  3
AecDbDispRepDoorNominal
350
3DD
  3
AecDbDispRepDoorPlan
350
3DB
  3
AecDbDispRepDoorPlan50
350
488
  3
AecDbDispRepDoorPlanHekto
350
48A
  3
AecDbDispRepDoorRcp
350
3DF
  3
AecDbDispRepDoorThresholdPlan
350
3E1
  3
AecDbDispRepDoorThresholdSymbolPlan
350
48C
  3
AecDbDispRepEditInPlaceProfile
350
396
  3
AecDbDispRepEntRef
350
398
  3
AecDbDispRepLayoutCurve
350
39A
  3
AecDbDispRepLayoutGrid2d
350
39C
  3
AecDbDispRepLayoutGrid3d
350
39E
  3
AecDbDispRepMaskBlockRef
350
3A0
  3
AecDbDispRepMaskBlockRefRcp
350
3E3
  3
AecDbDispRepMassElemModel
350
3AC
  3
AecDbDispRepMassElemPlan100
350
48E
  3
AecDbDispRepMassElemPlan50
350
490
  3
AecDbDispRepMassElemRcp
350
3E5
  3
AecDbDispRepMassElemSchem
350
3AE
  3
AecDbDispRepMassGroupModel
350
3B0
  3
AecDbDispRepMassGroupPlan
350
3B2
  3
AecDbDispRepMassGroupPlan100
350
492
  3
AecDbDispRepMassGroupPlan50
350
494
  3
AecDbDispRepMassGroupRcp
350
3E7
  3
AecDbDispRepMaterial
350
3A2
  3
AecDbDispRepMvBlockRef
350
3A4
  3
AecDbDispRepMvBlockRefModel
350
3A5
  3
AecDbDispRepMvBlockRefPlan100
350
458
  3
AecDbDispRepMvBlockRefPlan50
350
473
  3
AecDbDispRepMvBlockRefRcp
350
3E9
  3
AecDbDispRepOpening
350
3EA
  3
AecDbDispRepOpeningModel
350
3EC
  3
AecDbDispRepOpeningPlan100
350
496
  3
AecDbDispRepOpeningPlan50
350
498
  3
AecDbDispRepOpeningPlanReflected
350
49A
  3
AecDbDispRepOpeningSillPlan
350
49C
  3
AecDbDispRepPolygonModel
350
3A6
  3
AecDbDispRepPolygonTrueColour
350
3A8
  3
AecDbDispRepRailingModel
350
3EE
  3
AecDbDispRepRailingPlan
350
3F0
  3
AecDbDispRepRailingPlan100
350
49E
  3
AecDbDispRepRailingPlan50
350
4A0
  3
AecDbDispRepRoofModel
350
3F2
  3
AecDbDispRepRoofPlan
350
3F4
  3
AecDbDispRepRoofPlan100
350
459
  3
AecDbDispRepRoofPlan50
350
474
  3
AecDbDispRepRoofRcp
350
3F6
  3
AecDbDispRepRoofSlabModel
350
3FA
  3
AecDbDispRepRoofSlabPlan
350
3FE
  3
AecDbDispRepRoofSlabPlan100
350
45B
  3
AecDbDispRepRoofSlabPlan50
350
476
  3
AecDbDispRepScheduleTable
350
3B8
  3
AecDbDispRepSlabModel
350
3F8
  3
AecDbDispRepSlabPlan
350
3FC
  3
AecDbDispRepSlabPlan100
350
45D
  3
AecDbDispRepSlabPlan50
350
478
  3
AecDbDispRepSlice
350
3AA
  3
AecDbDispRepSpaceDecomposed
350
400
  3
AecDbDispRepSpaceModel
350
402
  3
AecDbDispRepSpacePlan
350
404
  3
AecDbDispRepSpacePlan100
350
45F
  3
AecDbDispRepSpacePlan50
350
47A
  3
AecDbDispRepSpaceRcp
350
406
  3
AecDbDispRepSpaceVolume
350
408
  3
AecDbDispRepStairModel
350
40A
  3
AecDbDispRepStairPlan
350
40C
  3
AecDbDispRepStairPlan100
350
4A2
  3
AecDbDispRepStairPlan50
350
4A4
  3
AecDbDispRepStairPlanOverlapping
350
40E
  3
AecDbDispRepStairRcp
350
410
  3
AecDbDispRepWallGraph
350
412
  3
AecDbDispRepWallModel
350
414
  3
AecDbDispRepWallPlan
350
416
  3
AecDbDispRepWallPlan100
350
461
  3
AecDbDispRepWallPlan50
350
47C
  3
AecDbDispRepWallRcp
350
418
  3
AecDbDispRepWallSchem
350
41A
  3
AecDbDispRepWindowAssemblyModel
350
41C
  3
AecDbDispRepWindowAssemblyPlan
350
41E
  3
AecDbDispRepWindowAssemblyPlan100
350
463
  3
AecDbDispRepWindowAssemblyPlan50
350
47E
  3
AecDbDispRepWindowAssemblySillPlan
350
420
  3
AecDbDispRepWindowElev
350
424
  3
AecDbDispRepWindowModel
350
422
  3
AecDbDispRepWindowNominal
350
428
  3
AecDbDispRepWindowPlan
350
426
  3
AecDbDispRepWindowPlan100
350
4A6
  3
AecDbDispRepWindowPlan50
350
4A8
  3
AecDbDispRepWindowRcp
350
42A
  3
AecDbDispRepWindowSillPlan
350
42C
  3
AecDbDispRepZone
350
42E
  3
AecDbDispRepZonePlan100
350
465
  3
AecDbDispRepZonePlan50
350
480
  3
AecsDbDispRepMemberElevationDesign
350
43C
  3
AecsDbDispRepMemberElevationDetail
350
43E
  3
AecsDbDispRepMemberLogical
350
440
  3
AecsDbDispRepMemberModelDesign
350
442
  3
AecsDbDispRepMemberModelDetail
350
444
  3
AecsDbDispRepMemberPlanDesign
350
446
  3
AecsDbDispRepMemberPlanDetail
350
448
  3
AecsDbDispRepMemberPlanSketch
350
44A
  0
DICTIONARY
  5
388
102
{ACAD_REACTORS
330
19
102
}
330
19
100
AcDbDictionary
281
     1
  3
*A1
350
389
  3
*A10
350
39D
  3
*A100
350
455
  3
*A101
350
457
  3
*A102
350
45A
  3
*A103
350
45C
  3
*A104
350
45E
  3
*A105
350
460
  3
*A106
350
462
  3
*A107
350
464
  3
*A108
350
466
  3
*A109
350
468
  3
*A11
350
39F
  3
*A110
350
46A
  3
*A111
350
46C
  3
*A112
350
46E
  3
*A113
350
470
  3
*A114
350
472
  3
*A115
350
475
  3
*A116
350
477
  3
*A117
350
479
  3
*A118
350
47B
  3
*A119
350
47D
  3
*A12
350
3A1
  3
*A120
350
47F
  3
*A121
350
481
  3
*A122
350
483
  3
*A123
350
485
  3
*A124
350
487
  3
*A125
350
489
  3
*A126
350
48B
  3
*A127
350
48D
  3
*A128
350
48F
  3
*A129
350
491
  3
*A13
350
3A3
  3
*A130
350
493
  3
*A131
350
495
  3
*A132
350
497
  3
*A133
350
499
  3
*A134
350
49B
  3
*A135
350
49D
  3
*A136
350
49F
  3
*A137
350
4A1
  3
*A138
350
4A3
  3
*A139
350
4A5
  3
*A14
350
3A7
  3
*A140
350
4A7
  3
*A141
350
4A9
  3
*A15
350
3A9
  3
*A16
350
3AB
  3
*A17
350
3AD
  3
*A18
350
3AF
  3
*A19
350
3B1
  3
*A2
350
38C
  3
*A20
350
3B3
  3
*A21
350
3B5
  3
*A22
350
3B7
  3
*A23
350
3B9
  3
*A24
350
3BB
  3
*A25
350
3BD
  3
*A26
350
3BF
  3
*A27
350
3C1
  3
*A28
350
3C3
  3
*A29
350
3C5
  3
*A3
350
38E
  3
*A30
350
3C8
  3
*A31
350
3CA
  3
*A32
350
3CC
  3
*A33
350
3CE
  3
*A34
350
3D0
  3
*A35
350
3D2
  3
*A36
350
3D4
  3
*A37
350
3D6
  3
*A38
350
3D8
  3
*A39
350
3DA
  3
*A4
350
390
  3
*A40
350
3DC
  3
*A41
350
3DE
  3
*A42
350
3E0
  3
*A43
350
3E2
  3
*A44
350
3E4
  3
*A45
350
3E6
  3
*A46
350
3E8
  3
*A47
350
3EB
  3
*A48
350
3ED
  3
*A49
350
3EF
  3
*A5
350
393
  3
*A50
350
3F1
  3
*A51
350
3F3
  3
*A52
350
3F5
  3
*A53
350
3F7
  3
*A54
350
3F9
  3
*A55
350
3FB
  3
*A56
350
3FD
  3
*A57
350
3FF
  3
*A58
350
401
  3
*A59
350
403
  3
*A6
350
395
  3
*A60
350
405
  3
*A61
350
407
  3
*A62
350
409
  3
*A63
350
40B
  3
*A64
350
40D
  3
*A65
350
40F
  3
*A66
350
411
  3
*A67
350
413
  3
*A68
350
415
  3
*A69
350
417
  3
*A7
350
397
  3
*A70
350
419
  3
*A71
350
41B
  3
*A72
350
41D
  3
*A73
350
41F
  3
*A74
350
421
  3
*A75
350
423
  3
*A76
350
425
  3
*A77
350
427
  3
*A78
350
429
  3
*A79
350
42B
  3
*A8
350
399
  3
*A80
350
42D
  3
*A81
350
42F
  3
*A82
350
431
  3
*A83
350
433
  3
*A84
350
435
  3
*A85
350
437
  3
*A86
350
439
  3
*A87
350
43B
  3
*A88
350
43D
  3
*A89
350
43F
  3
*A9
350
39B
  3
*A90
350
441
  3
*A91
350
443
  3
*A92
350
445
  3
*A93
350
447
  3
*A94
350
449
  3
*A95
350
44B
  3
*A96
350
44D
  3
*A97
350
44F
  3
*A98
350
451
  3
*A99
350
453
  0
DICTIONARY
  5
363
102
{ACAD_REACTORS
330
19
102
}
330
19
100
AcDbDictionary
281
     1
  0
DICTIONARY
  5
2F9
102
{ACAD_REACTORS
330
19
102
}
330
19
100
AcDbDictionary
281
     1
  0
DICTIONARY
  5
361
102
{ACAD_REACTORS
330
19
102
}
330
19
100
AcDbDictionary
281
     1
  3
AEC_VARS_DWG_SETUP
350
362
  0
XRECORD
  5
4C0
102
{ACAD_REACTORS
330
19
102
}
330
19
100
AcDbXrecord
280
     1
  1
DWGPROPS COOKIE
  2

  3

  4

  6

  7

  8
Admin
  9

300
=
301
=
302
=
303
=
304
=
305
=
306
=
307
=
308
=
309
=
 40
0.0036843402777778
 41
2454497.443324282
 42
2454497.889876297
  1

 90
        0
  0
DICTIONARY
  5
365
102
{ACAD_REACTORS
330
2F0
102
}
330
2F0
100
AcDbDictionary
281
     1
  0
DICTIONARY
  5
2F1
102
{ACAD_REACTORS
330
2F0
102
}
330
2F0
100
AcDbDictionary
281
     1
  0
DICTIONARY
  5
364
102
{ACAD_REACTORS
330
2F0
102
}
330
2F0
100
AcDbDictionary
281
     1
1001
ACAD
1000
<All
  0
XRECORD
  5
367
102
{ACAD_REACTORS
330
366
102
}
330
366
100
AcDbXrecord
280
     1
290
     1
  0
XRECORD
  5
368
102
{ACAD_REACTORS
330
2E4
102
}
330
2E4
100
AcDbXrecord
280
     1
290
     1
  0
XRECORD
  5
369
102
{ACAD_REACTORS
330
2E6
102
}
330
2E6
100
AcDbXrecord
280
     1
290
     1
  0
XRECORD
  5
36A
102
{ACAD_REACTORS
330
2E8
102
}
330
2E8
100
AcDbXrecord
280
     1
290
     1
  0
DICTIONARY
  5
4CD
102
{ACAD_REACTORS
330
4CC
102
}
330
4CC
100
AcDbDictionary
280
     1
281
     1
  3
Edit
360
4CE
  0
DICTIONARY
  5
4D0
102
{ACAD_REACTORS
330
4CF
102
}
330
4CF
100
AcDbDictionary
280
     1
281
     1
  3
Edit
360
4D1
  0
XRECORD
  5
4C2
102
{ACAD_REACTORS
330
4C1
102
}
330
4C1
100
AcDbXrecord
280
     1
 40
0.2
  0
XRECORD
  5
4C3
102
{ACAD_REACTORS
330
4C1
102
}
330
4C1
100
AcDbXrecord
280
     1
 40
1.570796326794896
  0
LAYOUT
  5
21
102
{ACAD_XDICTIONARY
360
4C6
102
}
102
{ACAD_REACTORS
330
1E
102
}
330
1E
100
AcDbPlotSettings
  1

  2

  4

  6

 40
0.0
 41
0.0
 42
0.0
 43
0.0
 44
0.0
 45
0.0
 46
0.0
 47
0.0
 48
0.0
 49
0.0
140
0.0
141
0.0
142
1.0
143
1.0
 70
     0
 72
     0
 73
     0
 74
     0
  7

 75
     0
147
1.0
148
0.0
149
0.0
100
AcDbLayout
  1
Layout1
 70
     0
 71
     1
 10
0.0
 20
0.0
 11
12.0
 21
9.0
 12
0.0
 22
0.0
 32
0.0
 14
1.000000000000000E+20
 24
1.000000000000000E+20
 34
1.000000000000000E+20
 15
-1.000000000000000E+20
 25
-1.000000000000000E+20
 35
-1.000000000000000E+20
146
0.0
 13
0.0
 23
0.0
 33
0.0
 16
1.0
 26
0.0
 36
0.0
 17
0.0
 27
1.0
 37
0.0
 76
     0
330
B
  0
LAYOUT
  5
20
102
{ACAD_XDICTIONARY
360
4C4
102
}
102
{ACAD_REACTORS
330
1E
102
}
330
1E
100
AcDbPlotSettings
  1

  2
HP LaserJet 1100
  4
A4
  6

 40
6.011333465576171
 41
4.233341693878173
 42
6.011322021484375
 43
4.23333740234375
 44
209.9733276367187
 45
296.9259948730469
 46
0.0
 47
0.0
 48
0.0
 49
0.0
140
0.0
141
0.0
142
1.0
143
1.0
 70
 11264
 72
     1
 73
     1
 74
     0
  7

 75
     0
147
1.0
148
34.1063541708686
149
-31.51827905840796
100
AcDbLayout
  1
Model
 70
     0
 71
     0
 10
0.0
 20
0.0
 11
0.0
 21
0.0
 12
0.0
 22
0.0
 32
0.0
 14
0.0
 24
0.0
 34
0.0
 15
0.0
 25
0.0
 35
0.0
146
0.0
 13
0.0
 23
0.0
 33
0.0
 16
0.0
 26
0.0
 36
0.0
 17
0.0
 27
0.0
 37
0.0
 76
     0
330
A
331
15
1001
ACAD_PSEXT
1000
HP LaserJet 1100
1000
HP LaserJet 1100
1000
LPT1:
1000

1070
     0
  0
MATERIAL
  5
289
102
{ACAD_XDICTIONARY
360
28A
102
}
102
{ACAD_REACTORS
330
280
102
}
330
280
100
AcDbMaterial
  1
ByBlock
 72
     0
 43
0.0208333333333333
 43
0.0
 43
0.0
 43
0.0
 43
0.0
 43
0.0208333333333333
 43
0.0
 43
0.0
 43
0.0
 43
0.0
 43
1.0
 43
0.0
 43
0.0
 43
0.0
 43
0.0
 43
1.0
 77
     0
 47
0.0208333333333333
 47
0.0
 47
0.0
 47
0.0
 47
0.0
 47
0.0208333333333333
 47
0.0
 47
0.0
 47
0.0
 47
0.0
 47
1.0
 47
0.0
 47
0.0
 47
0.0
 47
0.0
 47
1.0
171
     0
 49
0.0208333333333333
 49
0.0
 49
0.0
 49
0.0
 49
0.0
 49
0.0208333333333333
 49
0.0
 49
0.0
 49
0.0
 49
0.0
 49
1.0
 49
0.0
 49
0.0
 49
0.0
 49
0.0
 49
1.0
175
     0
142
0.0208333333333333
142
0.0
142
0.0
142
0.0
142
0.0
142
0.0208333333333333
142
0.0
142
0.0
142
0.0
142
0.0
142
1.0
142
0.0
142
0.0
142
0.0
142
0.0
142
1.0
179
     0
144
0.0208333333333333
144
0.0
144
0.0
144
0.0
144
0.0
144
0.0208333333333333
144
0.0
144
0.0
144
0.0
144
0.0
144
1.0
144
0.0
144
0.0
144
0.0
144
0.0
144
1.0
147
0.0208333333333333
147
0.0
147
0.0
147
0.0
147
0.0
147
0.0208333333333333
147
0.0
147
0.0
147
0.0
147
0.0
147
1.0
147
0.0
147
0.0
147
0.0
147
0.0
147
1.0
  0
MATERIAL
  5
281
102
{ACAD_XDICTIONARY
360
282
102
}
102
{ACAD_REACTORS
330
280
102
}
330
280
100
AcDbMaterial
  1
ByLayer
 72
     0
 43
0.0208333333333333
 43
0.0
 43
0.0
 43
0.0
 43
0.0
 43
0.0208333333333333
 43
0.0
 43
0.0
 43
0.0
 43
0.0
 43
1.0
 43
0.0
 43
0.0
 43
0.0
 43
0.0
 43
1.0
 77
     0
 47
0.0208333333333333
 47
0.0
 47
0.0
 47
0.0
 47
0.0
 47
0.0208333333333333
 47
0.0
 47
0.0
 47
0.0
 47
0.0
 47
1.0
 47
0.0
 47
0.0
 47
0.0
 47
0.0
 47
1.0
171
     0
 49
0.0208333333333333
 49
0.0
 49
0.0
 49
0.0
 49
0.0
 49
0.0208333333333333
 49
0.0
 49
0.0
 49
0.0
 49
0.0
 49
1.0
 49
0.0
 49
0.0
 49
0.0
 49
0.0
 49
1.0
175
     0
142
0.0208333333333333
142
0.0
142
0.0
142
0.0
142
0.0
142
0.0208333333333333
142
0.0
142
0.0
142
0.0
142
0.0
142
1.0
142
0.0
142
0.0
142
0.0
142
0.0
142
1.0
179
     0
144
0.0208333333333333
144
0.0
144
0.0
144
0.0
144
0.0
144
0.0208333333333333
144
0.0
144
0.0
144
0.0
144
0.0
144
1.0
144
0.0
144
0.0
144
0.0
144
0.0
144
1.0
147
0.0208333333333333
147
0.0
147
0.0
147
0.0
147
0.0
147
0.0208333333333333
147
0.0
147
0.0
147
0.0
147
0.0
147
1.0
147
0.0
147
0.0
147
0.0
147
0.0
147
1.0
  0
MATERIAL
  5
291
102
{ACAD_XDICTIONARY
360
292
102
}
102
{ACAD_REACTORS
330
280
102
}
330
280
100
AcDbMaterial
  1
Global
 72
     0
 43
0.0208333333333333
 43
0.0
 43
0.0
 43
0.0
 43
0.0
 43
0.0208333333333333
 43
0.0
 43
0.0
 43
0.0
 43
0.0
 43
1.0
 43
0.0
 43
0.0
 43
0.0
 43
0.0
 43
1.0
 77
     0
 47
0.0208333333333333
 47
0.0
 47
0.0
 47
0.0
 47
0.0
 47
0.0208333333333333
 47
0.0
 47
0.0
 47
0.0
 47
0.0
 47
1.0
 47
0.0
 47
0.0
 47
0.0
 47
0.0
 47
1.0
171
     0
 49
0.0208333333333333
 49
0.0
 49
0.0
 49
0.0
 49
0.0
 49
0.0208333333333333
 49
0.0
 49
0.0
 49
0.0
 49
0.0
 49
1.0
 49
0.0
 49
0.0
 49
0.0
 49
0.0
 49
1.0
175
     0
142
0.0208333333333333
142
0.0
142
0.0
142
0.0
142
0.0
142
0.0208333333333333
142
0.0
142
0.0
142
0.0
142
0.0
142
1.0
142
0.0
142
0.0
142
0.0
142
0.0
142
1.0
179
     0
144
0.0208333333333333
144
0.0
144
0.0
144
0.0
144
0.0
144
0.0208333333333333
144
0.0
144
0.0
144
0.0
144
0.0
144
1.0
144
0.0
144
0.0
144
0.0
144
0.0
144
1.0
147
0.0208333333333333
147
0.0
147
0.0
147
0.0
147
0.0
147
0.0208333333333333
147
0.0
147
0.0
147
0.0
147
0.0
147
1.0
147
0.0
147
0.0
147
0.0
147
0.0
147
1.0
  0
MLEADERSTYLE
  5
2C4
102
{ACAD_REACTORS
330
2C3
102
}
330
2C3
100
AcDbMLeaderStyle
170
     2
171
     1
172
     0
 90
        2
 40
0.0
 41
0.0
173
     1
 91
-1056964608
340
11
 92
       -2
290
     1
 42
2.0
291
     1
 43
0.36
  3
Standard
 44
4.0
300

342
17
174
     1
178
     6
175
     1
176
     0
 93
-1056964608
 45
4.0
292
     0
297
     0
 46
4.0
 94
-1056964608
 47
1.0
 49
1.0
140
1.0
293
     1
141
0.0
294
     1
177
     0
142
1.0
295
     0
296
     0
143
0.125
1001
ACAD_MLEADERVER
1070
     2
  0
MLINESTYLE
  5
1C
102
{ACAD_REACTORS
330
1B
102
}
330
1B
100
AcDbMlineStyle
  2
STANDARD
 70
     0
  3

 62
     0
 51
90.0
 52
90.0
 71
     2
 49
0.5
 62
   256
  6
BYLAYER
 49
-0.5
 62
   256
  6
BYLAYER
  0
ACDBPLACEHOLDER
  5
1D
102
{ACAD_REACTORS
330
1F
102
}
330
1F
  0
SCALE
  5
2AE
102
{ACAD_REACTORS
330
2AD
102
}
330
2AD
100
AcDbScale
 70
     0
300
1:1
140
1.0
141
1.0
290
     1
  0
SCALE
  5
2AF
102
{ACAD_REACTORS
330
2AD
102
}
330
2AD
100
AcDbScale
 70
     0
300
1:2
140
1.0
141
2.0
290
     0
  0
SCALE
  5
2B0
102
{ACAD_REACTORS
330
2AD
102
}
330
2AD
100
AcDbScale
 70
     0
300
1:2.5
140
1.0
141
2.5
290
     0
  0
SCALE
  5
2B1
102
{ACAD_REACTORS
330
2AD
102
}
330
2AD
100
AcDbScale
 70
     0
300
1:5
140
1.0
141
5.0
290
     0
  0
SCALE
  5
2B2
102
{ACAD_REACTORS
330
2AD
102
}
330
2AD
100
AcDbScale
 70
     0
300
1:7.5
140
1.0
141
7.5
290
     0
  0
SCALE
  5
2B3
102
{ACAD_REACTORS
330
2AD
102
}
330
2AD
100
AcDbScale
 70
     0
300
1:10
140
1.0
141
10.0
290
     0
  0
SCALE
  5
2B4
102
{ACAD_REACTORS
330
2AD
102
}
330
2AD
100
AcDbScale
 70
     0
300
1:20
140
1.0
141
20.0
290
     0
  0
SCALE
  5
2B5
102
{ACAD_REACTORS
330
2AD
102
}
330
2AD
100
AcDbScale
 70
     0
300
1:25
140
1.0
141
25.0
290
     0
  0
SCALE
  5
2B6
102
{ACAD_REACTORS
330
2AD
102
}
330
2AD
100
AcDbScale
 70
     0
300
1:50
140
1.0
141
50.0
290
     0
  0
SCALE
  5
2B7
102
{ACAD_REACTORS
330
2AD
102
}
330
2AD
100
AcDbScale
 70
     0
300
1:75
140
1.0
141
75.0
290
     0
  0
SCALE
  5
2B8
102
{ACAD_REACTORS
330
2AD
102
}
330
2AD
100
AcDbScale
 70
     0
300
1:100
140
1.0
141
100.0
290
     0
  0
SCALE
  5
2B9
102
{ACAD_REACTORS
330
2AD
102
}
330
2AD
100
AcDbScale
 70
     0
300
1:150
140
1.0
141
150.0
290
     0
  0
SCALE
  5
2BA
102
{ACAD_REACTORS
330
2AD
102
}
330
2AD
100
AcDbScale
 70
     0
300
1:200
140
1.0
141
200.0
290
     0
  0
SCALE
  5
2BB
102
{ACAD_REACTORS
330
2AD
102
}
330
2AD
100
AcDbScale
 70
     0
300
1:250
140
1.0
141
250.0
290
     0
  0
SCALE
  5
2BC
102
{ACAD_REACTORS
330
2AD
102
}
330
2AD
100
AcDbScale
 70
     0
300
1:500
140
1.0
141
500.0
290
     0
  0
SCALE
  5
2BD
102
{ACAD_REACTORS
330
2AD
102
}
330
2AD
100
AcDbScale
 70
     0
300
1:750
140
1.0
141
750.0
290
     0
  0
SCALE
  5
2BE
102
{ACAD_REACTORS
330
2AD
102
}
330
2AD
100
AcDbScale
 70
     0
300
1:1000
140
1.0
141
1000.0
290
     0
  0
SCALE
  5
2BF
102
{ACAD_REACTORS
330
2AD
102
}
330
2AD
100
AcDbScale
 70
     0
300
1:1250
140
1.0
141
1250.0
290
     0
  0
SCALE
  5
2C0
102
{ACAD_REACTORS
330
2AD
102
}
330
2AD
100
AcDbScale
 70
     0
300
1:2000
140
1.0
141
2000.0
290
     0
  0
SCALE
  5
2C1
102
{ACAD_REACTORS
330
2AD
102
}
330
2AD
100
AcDbScale
 70
     0
300
1:2500
140
1.0
141
2500.0
290
     0
  0
SCALE
  5
2C2
102
{ACAD_REACTORS
330
2AD
102
}
330
2AD
100
AcDbScale
 70
     0
300
1:5000
140
1.0
141
5000.0
290
     0
  0
TABLESTYLE
  5
2AC
102
{ACAD_XDICTIONARY
360
374
102
}
102
{ACAD_REACTORS
330
2AB
102
}
330
2AB
100
AcDbTableStyle
  3
Standard
 70
     0
 71
     0
 40
1.5
 41
1.5
280
     0
281
     0
  7
Standard
140
4.5
170
     2
 62
     0
 63
     7
283
     0
274
    -2
284
     1
 64
     0
275
    -2
285
     1
 65
     0
276
    -2
286
     1
 66
     0
277
    -2
287
     1
 67
     0
278
    -2
288
     1
 68
     0
279
    -2
289
     1
 69
     0
  7
Standard
140
6.0
170
     5
 62
     0
 63
     7
283
     0
274
    -2
284
     1
 64
     0
275
    -2
285
     1
 65
     0
276
    -2
286
     1
 66
     0
277
    -2
287
     1
 67
     0
278
    -2
288
     1
 68
     0
279
    -2
289
     1
 69
     0
  7
Standard
140
4.5
170
     5
 62
     0
 63
     7
283
     0
274
    -2
284
     1
 64
     0
275
    -2
285
     1
 65
     0
276
    -2
286
     1
 66
     0
277
    -2
287
     1
 67
     0
278
    -2
288
     1
 68
     0
279
    -2
289
     1
 69
     0
  0
VISUALSTYLE
  5
29F
102
{ACAD_REACTORS
330
299
102
}
330
299
100
AcDbVisualStyle
  2
2dWireframe
 70
     4
 71
     0
 72
     2
 73
     0
 90
        0
 40
-0.6
 41
-30.0
 62
     5
 63
     7
 74
     1
 91
        4
 64
     7
 65
   257
 75
     1
175
     1
 42
1.0
 92
        0
 66
   257
 43
1.0
 76
     1
 77
     6
 78
     2
 67
     7
 79
     5
170
     0
171
     0
290
     0
174
     0
 93
        1
 44
0.0
173
     0
291
     0
 45
0.0
1001
ACAD
1000
AcDbSavedByObjectVersion
1070
     0
  0
VISUALSTYLE
  5
2A1
102
{ACAD_REACTORS
330
299
102
}
330
299
100
AcDbVisualStyle
  2
3D Hidden
 70
     6
 71
     1
 72
     2
 73
     2
 90
        0
 40
-0.6
 41
-30.0
 62
     5
 63
     7
 74
     2
 91
        2
 64
     7
 65
   257
 75
     2
175
     1
 42
40.0
 92
        0
 66
   257
 43
1.0
 76
     1
 77
     6
 78
     2
 67
     7
 79
     3
170
     0
171
     0
290
     0
174
     0
 93
        1
 44
0.0
173
     0
291
     0
 45
0.0
1001
ACAD
1000
AcDbSavedByObjectVersion
1070
     0
  0
VISUALSTYLE
  5
2A0
102
{ACAD_REACTORS
330
299
102
}
330
299
100
AcDbVisualStyle
  2
3dWireframe
 70
     5
 71
     0
 72
     2
 73
     0
 90
        0
 40
-0.6
 41
-30.0
 62
     5
 63
     7
 74
     1
 91
        4
 64
     7
 65
   257
 75
     1
175
     1
 42
1.0
 92
        0
 66
   257
 43
1.0
 76
     1
 77
     6
 78
     2
 67
     7
 79
     5
170
     0
171
     0
290
     0
174
     0
 93
        1
 44
0.0
173
     0
291
     0
 45
0.0
1001
ACAD
1000
AcDbSavedByObjectVersion
1070
     0
  0
VISUALSTYLE
  5
29E
102
{ACAD_REACTORS
330
299
102
}
330
299
100
AcDbVisualStyle
  2
Basic
 70
     7
 71
     1
 72
     0
 73
     1
 90
        0
 40
-0.6
 41
-30.0
 62
     5
 63
     7
 74
     0
 91
        4
 64
     7
 65
   257
 75
     1
175
     1
 42
1.0
 92
        8
 66
     7
 43
1.0
 76
     1
 77
     6
 78
     2
 67
     7
 79
     5
170
     0
171
     0
290
     0
174
     0
 93
        1
 44
0.0
173
     0
291
     1
 45
0.0
1001
ACAD
1000
AcDbSavedByObjectVersion
1070
     0
  0
VISUALSTYLE
  5
2A5
102
{ACAD_REACTORS
330
299
102
}
330
299
100
AcDbVisualStyle
  2
Brighten
 70
    12
 71
     2
 72
     2
 73
     0
 90
        0
 40
-0.6
 41
-30.0
 62
     5
 63
     7
 74
     1
 91
        4
 64
     7
 65
   257
 75
     1
175
     1
 42
1.0
 92
        8
 66
     7
 43
1.0
 76
     1
 77
     6
 78
     2
 67
     7
 79
     5
170
     0
171
     0
290
     0
174
     0
 93
        1
 44
50.0
173
     0
291
     1
 45
0.0
1001
ACAD
1000
AcDbSavedByObjectVersion
1070
     0
  0
VISUALSTYLE
  5
2A9
102
{ACAD_REACTORS
330
299
102
}
330
299
100
AcDbVisualStyle
  2
ColorChange
 70
    16
 71
     2
 72
     2
 73
     3
 90
        0
 40
-0.6
 41
-30.0
 62
     5
 63
     8
 74
     1
 91
        4
 64
     7
 65
   257
 75
     1
175
     1
 42
1.0
 92
        8
 66
     8
 43
1.0
 76
     1
 77
     6
 78
     2
 67
     7
 79
     5
170
     0
171
     0
290
     0
174
     0
 93
        1
 44
0.0
173
     0
291
     1
 45
0.0
1001
ACAD
1000
AcDbSavedByObjectVersion
1070
     0
  0
VISUALSTYLE
  5
2A2
102
{ACAD_REACTORS
330
299
102
}
330
299
100
AcDbVisualStyle
  2
Conceptual
 70
     9
 71
     3
 72
     2
 73
     0
 90
        0
 40
-0.6
 41
-30.0
 62
     5
 63
     7
 74
     2
 91
        2
 64
     7
 65
   257
 75
     1
175
     1
 42
40.0
 92
        8
 66
     7
 43
1.0
 76
     1
 77
     6
 78
     2
 67
     7
 79
     3
170
     0
171
     0
290
     0
174
     0
 93
        1
 44
0.0
173
     0
291
     0
 45
0.0
1001
ACAD
1000
AcDbSavedByObjectVersion
1070
     0
  0
VISUALSTYLE
  5
2A4
102
{ACAD_REACTORS
330
299
102
}
330
299
100
AcDbVisualStyle
  2
Dim
 70
    11
 71
     2
 72
     2
 73
     0
 90
        0
 40
-0.6
 41
-30.0
 62
     5
 63
     7
 74
     1
 91
        4
 64
     7
 65
   257
 75
     1
175
     1
 42
1.0
 92
        8
 66
     7
 43
1.0
 76
     1
 77
     6
 78
     2
 67
     7
 79
     5
170
     0
171
     0
290
     0
174
     0
 93
        1
 44
-50.0
173
     0
291
     1
 45
0.0
1001
ACAD
1000
AcDbSavedByObjectVersion
1070
     0
  0
VISUALSTYLE
  5
2A8
102
{ACAD_REACTORS
330
299
102
}
330
299
100
AcDbVisualStyle
  2
Facepattern
 70
    15
 71
     2
 72
     2
 73
     0
 90
        0
 40
-0.6
 41
-30.0
 62
     5
 63
     7
 74
     1
 91
        4
 64
     7
 65
   257
 75
     1
175
     1
 42
1.0
 92
        8
 66
     7
 43
1.0
 76
     1
 77
     6
 78
     2
 67
     7
 79
     5
170
     0
171
     0
290
     0
174
     0
 93
        1
 44
0.0
173
     0
291
     1
 45
0.0
1001
ACAD
1000
AcDbSavedByObjectVersion
1070
     0
  0
VISUALSTYLE
  5
29A
102
{ACAD_REACTORS
330
299
102
}
330
299
100
AcDbVisualStyle
  2
Flat
 70
     0
 71
     2
 72
     1
 73
     1
 90
        2
 40
-0.6
 41
30.0
 62
     5
 63
     7
 74
     0
 91
        4
 64
     7
 65
   257
 75
     1
175
     1
 42
1.0
 92
        8
 66
     7
 43
1.0
 76
     1
 77
     6
 78
     2
 67
     7
 79
     5
170
     0
171
     0
290
     0
174
     0
 93
       13
 44
0.0
173
     0
291
     1
 45
0.0
1001
ACAD
1000
AcDbSavedByObjectVersion
1070
     0
  0
VISUALSTYLE
  5
29B
102
{ACAD_REACTORS
330
299
102
}
330
299
100
AcDbVisualStyle
  2
FlatWithEdges
 70
     1
 71
     2
 72
     1
 73
     1
 90
        2
 40
-0.6
 41
30.0
 62
     5
 63
     7
 74
     1
 91
        4
 64
     7
 65
   257
 75
     1
175
     1
 42
1.0
 92
        0
 66
   257
 43
1.0
 76
     1
 77
     6
 78
     2
 67
     7
 79
     5
170
     0
171
     0
290
     0
174
     0
 93
       13
 44
0.0
173
     0
291
     1
 45
0.0
1001
ACAD
1000
AcDbSavedByObjectVersion
1070
     0
  0
VISUALSTYLE
  5
29C
102
{ACAD_REACTORS
330
299
102
}
330
299
100
AcDbVisualStyle
  2
Gouraud
 70
     2
 71
     2
 72
     2
 73
     1
 90
        2
 40
-0.6
 41
30.0
 62
     5
 63
     7
 74
     0
 91
        4
 64
     7
 65
   257
 75
     1
175
     1
 42
1.0
 92
        0
 66
     7
 43
1.0
 76
     1
 77
     6
 78
     2
 67
     7
 79
     5
170
     0
171
     0
290
     0
174
     0
 93
       13
 44
0.0
173
     0
291
     1
 45
0.0
1001
ACAD
1000
AcDbSavedByObjectVersion
1070
     0
  0
VISUALSTYLE
  5
29D
102
{ACAD_REACTORS
330
299
102
}
330
299
100
AcDbVisualStyle
  2
GouraudWithEdges
 70
     3
 71
     2
 72
     2
 73
     1
 90
        2
 40
-0.6
 41
30.0
 62
     5
 63
     7
 74
     1
 91
        4
 64
     7
 65
   257
 75
     1
175
     1
 42
1.0
 92
        0
 66
   257
 43
1.0
 76
     1
 77
     6
 78
     2
 67
     7
 79
     5
170
     0
171
     0
290
     0
174
     0
 93
       13
 44
0.0
173
     0
291
     1
 45
0.0
1001
ACAD
1000
AcDbSavedByObjectVersion
1070
     0
  0
VISUALSTYLE
  5
2A7
102
{ACAD_REACTORS
330
299
102
}
330
299
100
AcDbVisualStyle
  2
Linepattern
 70
    14
 71
     2
 72
     2
 73
     0
 90
        0
 40
-0.6
 41
-30.0
 62
     5
 63
     7
 74
     1
 91
        4
 64
     7
 65
   257
 75
     7
175
     7
 42
1.0
 92
        8
 66
     7
 43
1.0
 76
     1
 77
     6
 78
     2
 67
     7
 79
     5
170
     0
171
     0
290
     0
174
     0
 93
        1
 44
0.0
173
     0
291
     1
 45
0.0
1001
ACAD
1000
AcDbSavedByObjectVersion
1070
     0
  0
VISUALSTYLE
  5
2A3
102
{ACAD_REACTORS
330
299
102
}
330
299
100
AcDbVisualStyle
  2
Realistic
 70
     8
 71
     2
 72
     2
 73
     0
 90
        0
 40
-0.6
 41
-30.0
 62
     5
 63
     7
 74
     1
 91
        0
 64
     7
 65
   257
 75
     1
175
     1
 42
1.0
 92
        8
 66
     8
 43
1.0
 76
     1
 77
     6
 78
     2
 67
     7
 79
     5
170
     0
171
     0
290
     0
174
     0
 93
       13
 44
0.0
173
     0
291
     0
 45
0.0
1001
ACAD
1000
AcDbSavedByObjectVersion
1070
     0
  0
VISUALSTYLE
  5
2A6
102
{ACAD_REACTORS
330
299
102
}
330
299
100
AcDbVisualStyle
  2
Thicken
 70
    13
 71
     2
 72
     2
 73
     0
 90
        0
 40
-0.6
 41
-30.0
 62
     5
 63
     7
 74
     1
 91
        4
 64
     7
 65
   257
 75
     1
175
     1
 42
1.0
 92
       12
 66
     7
 43
1.0
 76
     1
 77
     6
 78
     2
 67
     7
 79
     5
170
     0
171
     0
290
     0
174
     0
 93
        1
 44
0.0
173
     0
291
     1
 45
0.0
1001
ACAD
1000
AcDbSavedByObjectVersion
1070
     0
  0
DICTIONARYVAR
  5
37B
102
{ACAD_REACTORS
330
377
102
}
330
377
100
DictionaryVariables
280
     0
  1
1:1
  0
DICTIONARYVAR
  5
379
102
{ACAD_REACTORS
330
377
102
}
330
377
100
DictionaryVariables
280
     0
  1
STANDARD
  0
DICTIONARYVAR
  5
378
102
{ACAD_REACTORS
330
377
102
}
330
377
100
DictionaryVariables
280
     0
  1
STANDARD
  0
DICTIONARYVAR
  5
4BE
102
{ACAD_REACTORS
330
377
102
}
330
377
100
DictionaryVariables
280
     0
  1
1
  0
DICTIONARYVAR
  5
4BD
102
{ACAD_REACTORS
330
377
102
}
330
377
100
DictionaryVariables
280
     0
  1
0
  0
DICTIONARYVAR
  5
37C
102
{ACAD_REACTORS
330
377
102
}
330
377
100
DictionaryVariables
280
     0
  1
0
  0
DICTIONARYVAR
  5
37A
102
{ACAD_REACTORS
330
377
102
}
330
377
100
DictionaryVariables
280
     0
  1
0
  0
DICTIONARYVAR
  5
4BC
102
{ACAD_REACTORS
330
377
102
}
330
377
100
DictionaryVariables
280
     0
  1
127
  0
XRECORD
  5
4CE
102
{ACAD_REACTORS
330
4CD
102
}
330
4CD
100
AcDbXrecord
280
     1
1070
     0
1070
     1
1070
     1
  0
XRECORD
  5
4D1
102
{ACAD_REACTORS
330
4D0
102
}
330
4D0
100
AcDbXrecord
280
     1
1070
     0
1070
     1
1070
     1
  0
DICTIONARY
  5
4C6
330
21
100
AcDbDictionary
280
     1
281
     1
  3
ACAD_XREC_ROUNDTRIP
360
4C7
  0
DICTIONARY
  5
4C4
330
20
100
AcDbDictionary
280
     1
281
     1
  3
ACAD_XREC_ROUNDTRIP
360
4C5
  0
DICTIONARY
  5
28A
330
289
100
AcDbDictionary
280
     1
281
     1
  3
ACAD_XREC_ROUNDTRIP
360
4C9
  3
BUMPTILE
360
28C
  3
DIFFUSETILE
360
28B
  3
OPACITYTILE
360
28F
  3
REFLECTIONTILE
360
28E
  3
REFRACTIONTILE
360
290
  3
SPECULARTILE
360
28D
  0
DICTIONARY
  5
282
330
281
100
AcDbDictionary
280
     1
281
     1
  3
ACAD_XREC_ROUNDTRIP
360
4C8
  3
BUMPTILE
360
284
  3
DIFFUSETILE
360
283
  3
OPACITYTILE
360
287
  3
REFLECTIONTILE
360
286
  3
REFRACTIONTILE
360
288
  3
SPECULARTILE
360
285
  0
DICTIONARY
  5
292
330
291
100
AcDbDictionary
280
     1
281
     1
  3
ACAD_XREC_ROUNDTRIP
360
4CA
  3
BUMPTILE
360
294
  3
DIFFUSETILE
360
293
  3
OPACITYTILE
360
297
  3
REFLECTIONTILE
360
296
  3
REFRACTIONTILE
360
298
  3
SPECULARTILE
360
295
  0
DICTIONARY
  5
374
330
2AC
100
AcDbDictionary
280
     1
281
     1
  3
ACAD_ROUNDTRIP_2008_TABLESTYLE_CELLSTYLEMAP
360
4BF
  3
ACAD_XREC_ROUNDTRIP
360
4CB
  0
XRECORD
  5
4C7
102
{ACAD_REACTORS
330
4C6
102
}
330
4C6
100
AcDbXrecord
280
     1
102
SHADEPLOT
 70
     0
102
SHADEPLOTRESLEVEL
 70
     2
102
SHADEPLOTCUSTOMDPI
 70
   300
  0
XRECORD
  5
4C5
102
{ACAD_REACTORS
330
4C4
102
}
330
4C4
100
AcDbXrecord
280
     1
102
SHADEPLOT
 70
     0
102
SHADEPLOTRESLEVEL
 70
     2
102
SHADEPLOTCUSTOMDPI
 70
   300
  0
XRECORD
  5
4C9
102
{ACAD_REACTORS
330
28A
102
}
330
28A
100
AcDbXrecord
280
     1
102
MATERIAL
148
0.0
149
0.0
149
0.0
 93
        0
 94
      127
282
     0
 72
     0
 77
     0
171
     0
175
     0
179
     0
273
     0
  0
XRECORD
  5
28C
102
{ACAD_REACTORS
330
28A
102
}
330
28A
100
AcDbXrecord
280
     1
270
     1
271
     1
  0
XRECORD
  5
28B
102
{ACAD_REACTORS
330
28A
102
}
330
28A
100
AcDbXrecord
280
     1
270
     1
271
     1
  0
XRECORD
  5
28F
102
{ACAD_REACTORS
330
28A
102
}
330
28A
100
AcDbXrecord
280
     1
270
     1
271
     1
  0
XRECORD
  5
28E
102
{ACAD_REACTORS
330
28A
102
}
330
28A
100
AcDbXrecord
280
     1
270
     1
271
     1
  0
XRECORD
  5
290
102
{ACAD_REACTORS
330
28A
102
}
330
28A
100
AcDbXrecord
280
     1
270
     1
271
     1
  0
XRECORD
  5
28D
102
{ACAD_REACTORS
330
28A
102
}
330
28A
100
AcDbXrecord
280
     1
270
     1
271
     1
  0
XRECORD
  5
4C8
102
{ACAD_REACTORS
330
282
102
}
330
282
100
AcDbXrecord
280
     1
102
MATERIAL
148
0.0
149
0.0
149
0.0
 93
        0
 94
      127
282
     0
 72
     0
 77
     0
171
     0
175
     0
179
     0
273
     0
  0
XRECORD
  5
284
102
{ACAD_REACTORS
330
282
102
}
330
282
100
AcDbXrecord
280
     1
270
     1
271
     1
  0
XRECORD
  5
283
102
{ACAD_REACTORS
330
282
102
}
330
282
100
AcDbXrecord
280
     1
270
     1
271
     1
  0
XRECORD
  5
287
102
{ACAD_REACTORS
330
282
102
}
330
282
100
AcDbXrecord
280
     1
270
     1
271
     1
  0
XRECORD
  5
286
102
{ACAD_REACTORS
330
282
102
}
330
282
100
AcDbXrecord
280
     1
270
     1
271
     1
  0
XRECORD
  5
288
102
{ACAD_REACTORS
330
282
102
}
330
282
100
AcDbXrecord
280
     1
270
     1
271
     1
  0
XRECORD
  5
285
102
{ACAD_REACTORS
330
282
102
}
330
282
100
AcDbXrecord
280
     1
270
     1
271
     1
  0
XRECORD
  5
4CA
102
{ACAD_REACTORS
330
292
102
}
330
292
100
AcDbXrecord
280
     1
102
MATERIAL
148
0.0
149
0.0
149
0.0
 93
        0
 94
      127
282
     0
 72
     0
 77
     0
171
     0
175
     0
179
     0
273
     0
  0
XRECORD
  5
294
102
{ACAD_REACTORS
330
292
102
}
330
292
100
AcDbXrecord
280
     1
270
     1
271
     1
  0
XRECORD
  5
293
102
{ACAD_REACTORS
330
292
102
}
330
292
100
AcDbXrecord
280
     1
270
     1
271
     1
  0
XRECORD
  5
297
102
{ACAD_REACTORS
330
292
102
}
330
292
100
AcDbXrecord
280
     1
270
     1
271
     1
  0
XRECORD
  5
296
102
{ACAD_REACTORS
330
292
102
}
330
292
100
AcDbXrecord
280
     1
270
     1
271
     1
  0
XRECORD
  5
298
102
{ACAD_REACTORS
330
292
102
}
330
292
100
AcDbXrecord
280
     1
270
     1
271
     1
  0
XRECORD
  5
295
102
{ACAD_REACTORS
330
292
102
}
330
292
100
AcDbXrecord
280
     1
270
     1
271
     1
  0
CELLSTYLEMAP
  5
4BF
102
{ACAD_REACTORS
330
374
102
}
330
374
100
AcDbCellStyleMap
 90
        3
300
CELLSTYLE
  1
TABLEFORMAT_BEGIN
 90
        5
170
     1
 91
        0
 92
    32768
 62
   257
 93
        1
300
CONTENTFORMAT
  1
CONTENTFORMAT_BEGIN
 90
        0
 91
        0
 92
      512
 93
        0
300

 40
0.0
140
1.0
 94
        5
 62
     0
340
17
144
6.0
309
CONTENTFORMAT_END
171
     1
301
MARGIN
  1
CELLMARGIN_BEGIN
 40
1.5
 40
1.5
 40
1.5
 40
1.5
 40
4.5
 40
4.5
309
CELLMARGIN_END
 94
        6
 95
        1
302
GRIDFORMAT
  1
GRIDFORMAT_BEGIN
 90
        0
 91
        1
 62
     0
 92
       -2
340
0
 93
        0
 40
1.125
309
GRIDFORMAT_END
 95
        2
302
GRIDFORMAT
  1
GRIDFORMAT_BEGIN
 90
        0
 91
        1
 62
     0
 92
       -2
340
0
 93
        0
 40
1.125
309
GRIDFORMAT_END
 95
        4
302
GRIDFORMAT
  1
GRIDFORMAT_BEGIN
 90
        0
 91
        1
 62
     0
 92
       -2
340
0
 93
        0
 40
1.125
309
GRIDFORMAT_END
 95
        8
302
GRIDFORMAT
  1
GRIDFORMAT_BEGIN
 90
        0
 91
        1
 62
     0
 92
       -2
340
0
 93
        0
 40
1.125
309
GRIDFORMAT_END
 95
       16
302
GRIDFORMAT
  1
GRIDFORMAT_BEGIN
 90
        0
 91
        1
 62
     0
 92
       -2
340
0
 93
        0
 40
1.125
309
GRIDFORMAT_END
 95
       32
302
GRIDFORMAT
  1
GRIDFORMAT_BEGIN
 90
        0
 91
        1
 62
     0
 92
       -2
340
0
 93
        0
 40
1.125
309
GRIDFORMAT_END
309
TABLEFORMAT_END
  1
CELLSTYLE_BEGIN
 90
        1
 91
        1
300
_TITLE
309
CELLSTYLE_END
300
CELLSTYLE
  1
TABLEFORMAT_BEGIN
 90
        5
170
     1
 91
        0
 92
        0
 62
   257
 93
        1
300
CONTENTFORMAT
  1
CONTENTFORMAT_BEGIN
 90
        0
 91
        0
 92
      512
 93
        0
300

 40
0.0
140
1.0
 94
        5
 62
     0
340
17
144
4.5
309
CONTENTFORMAT_END
171
     1
301
MARGIN
  1
CELLMARGIN_BEGIN
 40
1.5
 40
1.5
 40
1.5
 40
1.5
 40
4.5
 40
4.5
309
CELLMARGIN_END
 94
        6
 95
        1
302
GRIDFORMAT
  1
GRIDFORMAT_BEGIN
 90
        0
 91
        1
 62
     0
 92
       -2
340
0
 93
        0
 40
1.125
309
GRIDFORMAT_END
 95
        2
302
GRIDFORMAT
  1
GRIDFORMAT_BEGIN
 90
        0
 91
        1
 62
     0
 92
       -2
340
0
 93
        0
 40
1.125
309
GRIDFORMAT_END
 95
        4
302
GRIDFORMAT
  1
GRIDFORMAT_BEGIN
 90
        0
 91
        1
 62
     0
 92
       -2
340
0
 93
        0
 40
1.125
309
GRIDFORMAT_END
 95
        8
302
GRIDFORMAT
  1
GRIDFORMAT_BEGIN
 90
        0
 91
        1
 62
     0
 92
       -2
340
0
 93
        0
 40
1.125
309
GRIDFORMAT_END
 95
       16
302
GRIDFORMAT
  1
GRIDFORMAT_BEGIN
 90
        0
 91
        1
 62
     0
 92
       -2
340
0
 93
        0
 40
1.125
309
GRIDFORMAT_END
 95
       32
302
GRIDFORMAT
  1
GRIDFORMAT_BEGIN
 90
        0
 91
        1
 62
     0
 92
       -2
340
0
 93
        0
 40
1.125
309
GRIDFORMAT_END
309
TABLEFORMAT_END
  1
CELLSTYLE_BEGIN
 90
        2
 91
        1
300
_HEADER
309
CELLSTYLE_END
300
CELLSTYLE
  1
TABLEFORMAT_BEGIN
 90
        5
170
     1
 91
        0
 92
        0
 62
   257
 93
        1
300
CONTENTFORMAT
  1
CONTENTFORMAT_BEGIN
 90
        0
 91
        0
 92
      512
 93
        0
300

 40
0.0
140
1.0
 94
        2
 62
     0
340
17
144
4.5
309
CONTENTFORMAT_END
171
     1
301
MARGIN
  1
CELLMARGIN_BEGIN
 40
1.5
 40
1.5
 40
1.5
 40
1.5
 40
4.5
 40
4.5
309
CELLMARGIN_END
 94
        6
 95
        1
302
GRIDFORMAT
  1
GRIDFORMAT_BEGIN
 90
        0
 91
        1
 62
     0
 92
       -2
340
0
 93
        0
 40
1.125
309
GRIDFORMAT_END
 95
        2
302
GRIDFORMAT
  1
GRIDFORMAT_BEGIN
 90
        0
 91
        1
 62
     0
 92
       -2
340
0
 93
        0
 40
1.125
309
GRIDFORMAT_END
 95
        4
302
GRIDFORMAT
  1
GRIDFORMAT_BEGIN
 90
        0
 91
        1
 62
     0
 92
       -2
340
0
 93
        0
 40
1.125
309
GRIDFORMAT_END
 95
        8
302
GRIDFORMAT
  1
GRIDFORMAT_BEGIN
 90
        0
 91
        1
 62
     0
 92
       -2
340
0
 93
        0
 40
1.125
309
GRIDFORMAT_END
 95
       16
302
GRIDFORMAT
  1
GRIDFORMAT_BEGIN
 90
        0
 91
        1
 62
     0
 92
       -2
340
0
 93
        0
 40
1.125
309
GRIDFORMAT_END
 95
       32
302
GRIDFORMAT
  1
GRIDFORMAT_BEGIN
 90
        0
 91
        1
 62
     0
 92
       -2
340
0
 93
        0
 40
1.125
309
GRIDFORMAT_END
309
TABLEFORMAT_END
  1
CELLSTYLE_BEGIN
 90
        3
 91
        2
300
_DATA
309
CELLSTYLE_END
  0
XRECORD
  5
4CB
102
{ACAD_REACTORS
330
374
102
}
330
374
100
AcDbXrecord
280
     1
102
ACAD_ROUNDTRIP_PRE2007_TABLESTYLE
 90
      512
 91
        0
  1

 92
      512
 93
        0
  2

 94
      512
 95
        0
  3

  0
ENDSEC
  0
EOF
