  0
SECTION
  2
HEADER
  9
$ACADVER
  1
AC1015
  9
$ACADMAINTVER
 70
    20
  9
$DWGCODEPAGE
  3
ANSI_1252
  9
$INSBASE
 10
0.0
 20
0.0
 30
0.0
  9
$EXTMIN
 10
-3.810399494158446
 20
-345.2475914899155
 30
-0.0000000349181948
  9
$EXTMAX
 10
598.3048858165711
 20
420.9604043989179
 30
0.0000000814935746
  9
$LIMMIN
 10
78.21193599999999
 20
62.686613
  9
$LIMMAX
 10
232.619393
 20
242.652889
  9
$ORTHOMODE
 70
     1
  9
$REGENMODE
 70
     1
  9
$FILLMODE
 70
     1
  9
$QTEXTMODE
 70
     0
  9
$MIRRTEXT
 70
     1
  9
$LTSCALE
 40
1.0
  9
$ATTMODE
 70
     1
  9
$TEXTSIZE
 40
0.0
  9
$TRACEWID
 40
0.05
  9
$TEXTSTYLE
  7
Standard
  9
$CLAYER
  8
A-031_DimExt
  9
$CELTYPE
  6
ByLayer
  9
$CECOLOR
 62
   256
  9
$CELTSCALE
 40
1.0
  9
$DISPSILH
 70
     0
  9
$DIMSCALE
 40
1.0
  9
$DIMASZ
 40
0.2
  9
$DIMEXO
 40
0.5
  9
$DIMDLI
 40
0.5
  9
$DIMRND
 40
0.0
  9
$DIMDLE
 40
0.0
  9
$DIMEXE
 40
0.2
  9
$DIMTP
 40
0.0
  9
$DIMTM
 40
0.0
  9
$DIMTXT
 40
0.4
  9
$DIMCEN
 40
0.1
  9
$DIMTSZ
 40
0.0
  9
$DIMTOL
 70
     0
  9
$DIMLIM
 70
     0
  9
$DIMTIH
 70
     0
  9
$DIMTOH
 70
     0
  9
$DIMSE1
 70
     1
  9
$DIMSE2
 70
     1
  9
$DIMTAD
 70
     1
  9
$DIMZIN
 70
     1
  9
$DIMBLK
  1

  9
$DIMASO
 70
     1
  9
$DIMSHO
 70
     1
  9
$DIMPOST
  1

  9
$DIMAPOST
  1
m
  9
$DIMALT
 70
     0
  9
$DIMALTD
 70
     2
  9
$DIMALTF
 40
0.01
  9
$DIMLFAC
 40
1.0
  9
$DIMTOFL
 70
     1
  9
$DIMTVP
 40
0.0
  9
$DIMTIX
 70
     1
  9
$DIMSOXD
 70
     0
  9
$DIMSAH
 70
     1
  9
$DIMBLK1
  1
DIML
  9
$DIMBLK2
  1
DIMR
  9
$DIMSTYLE
  2
DIMEXT
  9
$DIMCLRD
 70
     0
  9
$DIMCLRE
 70
     0
  9
$DIMCLRT
 70
     0
  9
$DIMTFAC
 40
1.0
  9
$DIMGAP
 40
0.1
  9
$DIMJUST
 70
     0
  9
$DIMSD1
 70
     0
  9
$DIMSD2
 70
     0
  9
$DIMTOLJ
 70
     1
  9
$DIMTZIN
 70
     0
  9
$DIMALTZ
 70
     8
  9
$DIMALTTZ
 70
     0
  9
$DIMUPT
 70
     0
  9
$DIMDEC
 70
     0
  9
$DIMTDEC
 70
     0
  9
$DIMALTU
 70
     2
  9
$DIMALTTD
 70
     2
  9
$DIMTXSTY
  7
helvetica regular
  9
$DIMAUNIT
 70
     1
  9
$DIMADEC
 70
     0
  9
$DIMALTRND
 40
0.0
  9
$DIMAZIN
 70
     0
  9
$DIMDSEP
 70
    46
  9
$DIMATFIT
 70
     3
  9
$DIMFRAC
 70
     1
  9
$DIMLDRBLK
  1

  9
$DIMLUNIT
 70
     2
  9
$DIMLWD
 70
    -2
  9
$DIMLWE
 70
    -2
  9
$DIMTMOVE
 70
     0
  9
$LUNITS
 70
     2
  9
$LUPREC
 70
     3
  9
$SKETCHINC
 40
0.1
  9
$FILLETRAD
 40
0.0
  9
$AUNITS
 70
     0
  9
$AUPREC
 70
     2
  9
$MENU
  1
acad
  9
$ELEVATION
 40
0.0
  9
$PELEVATION
 40
0.0
  9
$THICKNESS
 40
0.0
  9
$LIMCHECK
 70
     0
  9
$CHAMFERA
 40
0.0
  9
$CHAMFERB
 40
0.0
  9
$CHAMFERC
 40
0.0
  9
$CHAMFERD
 40
0.0
  9
$SKPOLY
 70
     0
  9
$TDCREATE
 40
2454497.612179178
  9
$TDUCREATE
 40
2454497.570512512
  9
$TDUPDATE
 40
2454497.621792709
  9
$TDUUPDATE
 40
2454497.580126042
  9
$TDINDWG
 40
0.0096153356
  9
$TDUSRTIMER
 40
0.0096151620
  9
$USRTIMER
 70
     1
  9
$ANGBASE
 50
0.0
  9
$ANGDIR
 70
     0
  9
$PDMODE
 70
     0
  9
$PDSIZE
 40
0.0
  9
$PLINEWID
 40
0.0
  9
$SPLFRAME
 70
     0
  9
$SPLINETYPE
 70
     6
  9
$SPLINESEGS
 70
     8
  9
$HANDSEED
  5
5D6
  9
$SURFTAB1
 70
     6
  9
$SURFTAB2
 70
     6
  9
$SURFTYPE
 70
     6
  9
$SURFU
 70
     6
  9
$SURFV
 70
     6
  9
$UCSBASE
  2

  9
$UCSNAME
  2

  9
$UCSORG
 10
0.0
 20
0.0
 30
0.0
  9
$UCSXDIR
 10
1.0
 20
0.0
 30
0.0
  9
$UCSYDIR
 10
0.0
 20
1.0
 30
0.0
  9
$UCSORTHOREF
  2

  9
$UCSORTHOVIEW
 70
     0
  9
$UCSORGTOP
 10
0.0
 20
0.0
 30
0.0
  9
$UCSORGBOTTOM
 10
0.0
 20
0.0
 30
0.0
  9
$UCSORGLEFT
 10
0.0
 20
0.0
 30
0.0
  9
$UCSORGRIGHT
 10
0.0
 20
0.0
 30
0.0
  9
$UCSORGFRONT
 10
0.0
 20
0.0
 30
0.0
  9
$UCSORGBACK
 10
0.0
 20
0.0
 30
0.0
  9
$PUCSBASE
  2

  9
$PUCSNAME
  2

  9
$PUCSORG
 10
0.0
 20
0.0
 30
0.0
  9
$PUCSXDIR
 10
1.0
 20
0.0
 30
0.0
  9
$PUCSYDIR
 10
0.0
 20
1.0
 30
0.0
  9
$PUCSORTHOREF
  2

  9
$PUCSORTHOVIEW
 70
     0
  9
$PUCSORGTOP
 10
0.0
 20
0.0
 30
0.0
  9
$PUCSORGBOTTOM
 10
0.0
 20
0.0
 30
0.0
  9
$PUCSORGLEFT
 10
0.0
 20
0.0
 30
0.0
  9
$PUCSORGRIGHT
 10
0.0
 20
0.0
 30
0.0
  9
$PUCSORGFRONT
 10
0.0
 20
0.0
 30
0.0
  9
$PUCSORGBACK
 10
0.0
 20
0.0
 30
0.0
  9
$USERI1
 70
     0
  9
$USERI2
 70
     0
  9
$USERI3
 70
     0
  9
$USERI4
 70
     0
  9
$USERI5
 70
     0
  9
$USERR1
 40
0.0
  9
$USERR2
 40
0.0
  9
$USERR3
 40
0.0
  9
$USERR4
 40
0.0
  9
$USERR5
 40
0.0
  9
$WORLDVIEW
 70
     1
  9
$SHADEDGE
 70
     3
  9
$SHADEDIF
 70
    70
  9
$TILEMODE
 70
     1
  9
$MAXACTVP
 70
    16
  9
$PINSBASE
 10
0.0
 20
0.0
 30
0.0
  9
$PLIMCHECK
 70
     0
  9
$PEXTMIN
 10
1.000000000000000E+20
 20
1.000000000000000E+20
 30
1.000000000000000E+20
  9
$PEXTMAX
 10
-1.000000000000000E+20
 20
-1.000000000000000E+20
 30
-1.000000000000000E+20
  9
$PLIMMIN
 10
0.0
 20
0.0
  9
$PLIMMAX
 10
12.0
 20
9.0
  9
$UNITMODE
 70
     0
  9
$VISRETAIN
 70
     0
  9
$PLINEGEN
 70
     1
  9
$PSLTSCALE
 70
     0
  9
$TREEDEPTH
 70
  3020
  9
$CMLSTYLE
  2
Standard
  9
$CMLJUST
 70
     0
  9
$CMLSCALE
 40
1.0
  9
$PROXYGRAPHICS
 70
     0
  9
$MEASUREMENT
 70
     1
  9
$CELWEIGHT
370
     0
  9
$ENDCAPS
280
     0
  9
$JOINSTYLE
280
     0
  9
$LWDISPLAY
290
     0
  9
$INSUNITS
 70
     4
  9
$HYPERLINKBASE
  1

  9
$STYLESHEET
  1

  9
$XEDIT
290
     1
  9
$CEPSNTYPE
380
     0
  9
$PSTYLEMODE
290
     1
  9
$FINGERPRINTGUID
  2

  9
$VERSIONGUID
  2
{D952893D-CA6D-4203-BCBC-BD24D89364EC}
  9
$EXTNAMES
290
     1
  9
$PSVPSCALE
 40
0.0
  9
$OLESTARTUP
290
     0
  0
ENDSEC
  0
SECTION
  2
CLASSES
  0
CLASS
  1
IMAGE
  2
AcDbRasterImage
  3
ISM
 90
    34943
280
     0
281
     1
  0
CLASS
  1
DICTIONARYVAR
  2
AcDbDictionaryVar
  3
ObjectDBX Classes
 90
        0
280
     0
281
     0
  0
CLASS
  1
RASTERVARIABLES
  2
AcDbRasterVariables
  3
ISM
 90
    32768
280
     0
281
     0
  0
CLASS
  1
IMAGEDEF
  2
AcDbRasterImageDef
  3
ISM
 90
    32768
280
     0
281
     0
  0
CLASS
  1
IMAGEDEF_REACTOR
  2
AcDbRasterImageDefReactor
  3
ISM
 90
    32769
280
     0
281
     0
  0
CLASS
  1
IDBUFFER
  2
AcDbIdBuffer
  3
ObjectDBX Classes
 90
    32768
280
     0
281
     0
  0
CLASS
  1
SPATIAL_FILTER
  2
AcDbSpatialFilter
  3
ObjectDBX Classes
 90
    32768
280
     0
281
     0
  0
CLASS
  1
SORTENTSTABLE
  2
AcDbSortentsTable
  3
ObjectDBX Classes
 90
        0
280
     0
281
     0
  0
CLASS
  1
LAYER_INDEX
  2
AcDbLayerIndex
  3
ObjectDBX Classes
 90
    32768
280
     0
281
     0
  0
CLASS
  1
SPATIAL_INDEX
  2
AcDbSpatialIndex
  3
ObjectDBX Classes
 90
    32768
280
     0
281
     0
  0
CLASS
  1
OBJECT_PTR
  2
CAseDLPNTableRecord
  3
"ASE-LPNTableRecord"
 90
    32769
280
     0
281
     0
  0
CLASS
  1
LAYOUT
  2
AcDbLayout
  3
ObjectDBX Classes
 90
        0
280
     0
281
     0
  0
CLASS
  1
PLOTSETTINGS
  2
AcDbPlotSettings
  3
ObjectDBX Classes
 90
    32768
280
     0
281
     0
  0
CLASS
  1
ACDBDICTIONARYWDFLT
  2
AcDbDictionaryWithDefault
  3
ObjectDBX Classes
 90
        0
280
     0
281
     0
  0
CLASS
  1
ACDBPLACEHOLDER
  2
AcDbPlaceHolder
  3
ObjectDBX Classes
 90
        0
280
     0
281
     0
  0
CLASS
  1
VBA_PROJECT
  2
AcDbVbaProject
  3
acad
 90
    32768
280
     0
281
     0
  0
CLASS
  1
WIPEOUT
  2
AcDbWipeout
  3
"WipeOut|Product Desc: Object Enabler for WipeOut entity                        |Company: Autodesk, Inc.                        |WEB Address: www.autodesk.com"
 90
    34943
280
     0
281
     1
  0
CLASS
  1
WIPEOUTVARIABLES
  2
AcDbWipeoutVariables
  3
"WipeOut|Product Desc:     WipeOut Dbx Application|Company:          Autodesk, Inc.|WEB Address:      www.autodesk.com"
 90
        0
280
     0
281
     0
  0
CLASS
  1
RTEXT
  2
RText
  3
RText|AutoCAD Express Tool|expresstools@autodesk.com
 90
    32768
280
     0
281
     1
  0
CLASS
  1
ARCALIGNEDTEXT
  2
AcDbArcAlignedText
  3
ATEXT|AutoCAD Express Tool|expresstools@autodesk.com
 90
    32768
280
     0
281
     1
  0
CLASS
  1
MATERIAL
  2
AcDbMaterial
  3
ObjectDBX Classes
 90
     1153
280
     0
281
     0
  0
CLASS
  1
VISUALSTYLE
  2
AcDbVisualStyle
  3
ObjectDBX Classes
 90
     4095
280
     0
281
     0
  0
CLASS
  1
TABLESTYLE
  2
AcDbTableStyle
  3
ObjectDBX Classes
 90
     4095
280
     0
281
     0
  0
CLASS
  1
SCALE
  2
AcDbScale
  3
ObjectDBX Classes
 90
     1153
280
     0
281
     0
  0
CLASS
  1
MLEADERSTYLE
  2
AcDbMLeaderStyle
  3
ACDB_MLEADERSTYLE_CLASS
 90
     4095
280
     0
281
     0
  0
CLASS
  1
AEC_VARS_DWG_SETUP
  2
AecDbVarsDwgSetup
  3
AecBase50|Product Desc: Autodesk Architectural Desktop 2007 |Company: Autodesk,Inc. |WEB Address: www.autodesk.com
 90
      129
280
     0
281
     0
  0
CLASS
  1
CELLSTYLEMAP
  2
AcDbCellStyleMap
  3
ObjectDBX Classes
 90
     1152
280
     0
281
     0
  0
ENDSEC
  0
SECTION
  2
TABLES
  0
TABLE
  2
VPORT
  5
7
330
0
100
AcDbSymbolTable
 70
     1
  0
VPORT
  5
15
330
7
100
AcDbSymbolTableRecord
100
AcDbViewportTableRecord
  2
*ACTIVE
 70
     0
 10
0.0
 20
0.0
 11
1.0
 21
1.0
 12
297.2472431612064
 22
37.85640645450121
 13
0.0
 23
0.0
 14
1.0
 24
1.0
 15
0.0
 25
0.0
 16
0.0
 26
0.0
 36
1.0
 17
0.0
 27
0.0
 37
0.0
 40
772.1475927561887
 41
1.514877102199223
 42
50.0
 43
0.0
 44
0.0
 50
0.0
 51
0.0
 71
     0
 72
   100
 73
     1
 74
     1
 75
     0
 76
     0
 77
     0
 78
     0
281
     0
 65
     0
110
0.0
120
0.0
130
0.0
111
1.0
121
0.0
131
0.0
112
0.0
122
1.0
132
0.0
 79
     0
146
0.0
  0
ENDTAB
  0
TABLE
  2
LTYPE
  5
4
330
0
100
AcDbSymbolTable
 70
     4
  0
LTYPE
  5
11
330
4
100
AcDbSymbolTableRecord
100
AcDbLinetypeTableRecord
  2
ByBlock
 70
     0
  3

 72
    65
 73
     0
 40
0.0
  0
LTYPE
  5
12
330
4
100
AcDbSymbolTableRecord
100
AcDbLinetypeTableRecord
  2
ByLayer
 70
     0
  3

 72
    65
 73
     0
 40
0.0
  0
LTYPE
  5
13
330
4
100
AcDbSymbolTableRecord
100
AcDbLinetypeTableRecord
  2
Continuous
 70
     0
  3
Solid line
 72
    65
 73
     0
 40
0.0
  0
LTYPE
  5
475
330
4
100
AcDbSymbolTableRecord
100
AcDbLinetypeTableRecord
  2
HIDDEN
 70
     0
  3
Hidden __ __ __ __ __ __ __ __ __ __ __ __ __ __
 72
    65
 73
     2
 40
9.524999999999998
 49
6.349999999999999
 74
     0
 49
-3.174999999999999
 74
     0
  0
ENDTAB
  0
TABLE
  2
LAYER
  5
2
102
{ACAD_XDICTIONARY
360
483
102
}
330
0
100
AcDbSymbolTable
 70
     6
  0
LAYER
  5
14
102
{ACAD_XDICTIONARY
360
5A1
102
}
330
2
100
AcDbSymbolTableRecord
100
AcDbLayerTableRecord
  2
0
 70
     0
 62
     7
  6
Continuous
370
    -3
390
1D
  0
LAYER
  5
476
102
{ACAD_XDICTIONARY
360
477
102
}
330
2
100
AcDbSymbolTableRecord
100
AcDbLayerTableRecord
  2
A-001_Pan
 70
     0
 62
     7
  6
Continuous
370
     9
390
1D
  0
LAYER
  5
478
102
{ACAD_XDICTIONARY
360
479
102
}
330
2
100
AcDbSymbolTableRecord
100
AcDbLayerTableRecord
  2
A-043_Txt025
 70
     0
 62
     7
  6
Continuous
370
     9
390
1D
1001
AcAecLayerStandard
1000

1000

  0
LAYER
  5
47A
102
{ACAD_XDICTIONARY
360
47B
102
}
330
2
100
AcDbSymbolTableRecord
100
AcDbLayerTableRecord
  2
A-031_DimExt
 70
     0
 62
     7
  6
Continuous
370
     9
390
1D
1001
AcAecLayerStandard
1000

1000

  0
LAYER
  5
47C
330
2
100
AcDbSymbolTableRecord
100
AcDbLayerTableRecord
  2
Defpoints
 70
     0
 62
     7
  6
Continuous
290
     0
370
     9
390
1D
  0
ENDTAB
  0
TABLE
  2
STYLE
  5
3
330
0
100
AcDbSymbolTable
 70
     7
  0
STYLE
  5
17
330
3
100
AcDbSymbolTableRecord
100
AcDbTextStyleTableRecord
  2
Standard
 70
     0
 40
0.0
 41
1.0
 50
0.0
 71
     0
 42
0.0
  3
txt
  4

  0
STYLE
  5
47D
330
3
100
AcDbSymbolTableRecord
100
AcDbTextStyleTableRecord
  2
helvetica regular
 70
     0
 40
0.0
 41
1.0
 50
0.0
 71
     0
 42
20.0
  3
LTe50259.ttf
  4

1001
ACAD
1000
HelveticaNeue LT 55 Roman
1071
        2
  0
ENDTAB
  0
TABLE
  2
VIEW
  5
5
330
0
100
AcDbSymbolTable
 70
     0
  0
ENDTAB
  0
TABLE
  2
UCS
  5
6
330
0
100
AcDbSymbolTable
 70
     0
  0
ENDTAB
  0
TABLE
  2
APPID
  5
8
330
0
100
AcDbSymbolTable
 70
     9
  0
APPID
  5
16
330
8
100
AcDbSymbolTableRecord
100
AcDbRegAppTableRecord
  2
ACAD
 70
     0
  0
APPID
  5
457
330
8
100
AcDbSymbolTableRecord
100
AcDbRegAppTableRecord
  2
ACAD_MLEADERVER
 70
     0
  0
APPID
  5
45C
330
8
100
AcDbSymbolTableRecord
100
AcDbRegAppTableRecord
  2
ACAD_EXEMPT_FROM_CAD_STANDARDS
 70
     0
  0
APPID
  5
47F
330
8
100
AcDbSymbolTableRecord
100
AcDbRegAppTableRecord
  2
AcAecLayerStandard
 70
     0
  0
APPID
  5
480
330
8
100
AcDbSymbolTableRecord
100
AcDbRegAppTableRecord
  2
ACAD_DSTYLE_DIMJOGGED_JOGANGLE_SYMBOL
 70
     0
  0
APPID
  5
481
330
8
100
AcDbSymbolTableRecord
100
AcDbRegAppTableRecord
  2
ACAD_DSTYLE_DIMJAG
 70
     0
  0
APPID
  5
482
330
8
100
AcDbSymbolTableRecord
100
AcDbRegAppTableRecord
  2
ACAD_DSTYLE_DIMTALN
 70
     0
  0
APPID
  5
5A6
330
8
100
AcDbSymbolTableRecord
100
AcDbRegAppTableRecord
  2
ACAD_PSEXT
 70
     0
  0
APPID
  5
5D5
330
8
100
AcDbSymbolTableRecord
100
AcDbRegAppTableRecord
  2
ACAD_DSTYLE_DIMEXT_LENGTH
 70
     0
  0
ENDTAB
  0
TABLE
  2
DIMSTYLE
  5
9
330
0
100
AcDbSymbolTable
 70
     4
100
AcDbDimStyleTable
 71
     2
340
47E
340
18
  0
DIMSTYLE
105
18
330
9
100
AcDbSymbolTableRecord
100
AcDbDimStyleTableRecord
  2
Standard
 70
     0
340
17
  0
DIMSTYLE
105
47E
102
{ACAD_REACTORS
330
488
330
4A6
330
4B1
330
4BC
330
4C7
330
4D2
330
4DD
330
50C
330
517
330
52F
102
}
330
9
100
AcDbSymbolTableRecord
100
AcDbDimStyleTableRecord
  2
DIMEXT
 70
     0
  4
m
 40
50.0
 41
0.2
 42
0.5
 43
0.5
 44
0.2
 73
     0
 74
     0
 75
     1
 76
     1
 77
     1
 78
     1
140
0.4
141
0.1
143
0.01
147
0.1
172
     1
173
     1
174
     1
271
     0
272
     0
275
     1
276
     1
285
     8
340
47D
343
45D
344
464
1001
ACAD_DSTYLE_DIMJAG
1070
   388
1040
1.5
1001
ACAD_DSTYLE_DIMTALN
1070
   392
1070
     0
1001
ACAD_DSTYLE_DIMEXT_LENGTH
1070
   378
1040
0.2
1001
ACAD_DSTYLE_DIMJOGGED_JOGANGLE_SYMBOL
1070
   384
1040
1.570796326794896
  0
ENDTAB
  0
TABLE
  2
BLOCK_RECORD
  5
1
330
0
100
AcDbSymbolTable
 70
    44
  0
BLOCK_RECORD
  5
A
102
{ACAD_XDICTIONARY
360
509
102
}
330
1
100
AcDbSymbolTableRecord
100
AcDbBlockTableRecord
  2
*MODEL_SPACE
340
20
  0
BLOCK_RECORD
  5
B
330
1
100
AcDbSymbolTableRecord
100
AcDbBlockTableRecord
  2
*PAPER_SPACE
340
21
  0
BLOCK_RECORD
  5
45D
102
{ACAD_XDICTIONARY
360
5CF
102
}
330
1
100
AcDbSymbolTableRecord
100
AcDbBlockTableRecord
  2
DIML
340
0
310
2800000020000000200000000100080000000000000400000000000000000000000000000000000000000000000080000080000000808000800000008000800080800000C0C0C000C0DCC000F0CAA6000020400000206000002080000020A0000020C0000020E00000400000004020000040400000406000004080000040A0
310
000040C0000040E00000600000006020000060400000606000006080000060A0000060C0000060E00000800000008020000080400000806000008080000080A0000080C0000080E00000A0000000A0200000A0400000A0600000A0800000A0A00000A0C00000A0E00000C0000000C0200000C0400000C0600000C0800000C0
310
A00000C0C00000C0E00000E0000000E0200000E0400000E0600000E0800000E0A00000E0C00000E0E00040000000400020004000400040006000400080004000A0004000C0004000E00040200000402020004020400040206000402080004020A0004020C0004020E000404000004040200040404000404060004040800040
310
40A0004040C0004040E00040600000406020004060400040606000406080004060A0004060C0004060E00040800000408020004080400040806000408080004080A0004080C0004080E00040A0000040A0200040A0400040A0600040A0800040A0A00040A0C00040A0E00040C0000040C0200040C0400040C0600040C08000
310
40C0A00040C0C00040C0E00040E0000040E0200040E0400040E0600040E0800040E0A00040E0C00040E0E00080000000800020008000400080006000800080008000A0008000C0008000E00080200000802020008020400080206000802080008020A0008020C0008020E00080400000804020008040400080406000804080
310
008040A0008040C0008040E00080600000806020008060400080606000806080008060A0008060C0008060E00080800000808020008080400080806000808080008080A0008080C0008080E00080A0000080A0200080A0400080A0600080A0800080A0A00080A0C00080A0E00080C0000080C0200080C0400080C0600080C0
310
800080C0A00080C0C00080C0E00080E0000080E0200080E0400080E0600080E0800080E0A00080E0C00080E0E000C0000000C0002000C0004000C0006000C0008000C000A000C000C000C000E000C0200000C0202000C0204000C0206000C0208000C020A000C020C000C020E000C0400000C0402000C0404000C0406000C0
310
408000C040A000C040C000C040E000C0600000C0602000C0604000C0606000C0608000C060A000C060C000C060E000C0800000C0802000C0804000C0806000C0808000C080A000C080C000C080E000C0A00000C0A02000C0A04000C0A06000C0A08000C0A0A000C0A0C000C0A0E000C0C00000C0C02000C0C04000C0C06000
310
C0C08000C0C0A000F0FBFF00A4A0A000808080000000FF0000FF000000FFFF00FF000000FF00FF00FFFF0000FFFFFF00000000000000000000000000000000000000000000000000000000000000000000000000000000000000000000000000FF000000000000000000000000000000000000000000000000000000000000
310
00FF00000000000000000000000000000000000000000000000000000000000000FF00000000000000000000000000000000000000000000000000000000000000FF00000000000000000000000000000000000000000000000000000000000000FF0000000000000000000000000000000000000000000000000000000000
310
0000FF00000000000000000000000000000000000000000000000000000000000000FF00000000000000000000000000000000000000000000000000000000000000FF0000000000000000000000000000000000000000000000000000000000FFFFFFFF000000000000000000000000000000000000000000000000000000
310
00FFFFFFFF0000000000000000000000000000000000000000FFFFFFFFFFFFFFFFFFFFFFFFFFFFFFFFFFFFFFFF0000000000000000000000000000000000000000FFFFFFFF0000000000000000000000000000000000000000000000000000000000FFFF000000000000000000000000000000000000000000000000000000
310
00000000FF00000000000000000000000000000000000000000000000000000000000000FF00000000000000000000000000000000000000000000000000000000000000FF00000000000000000000000000000000000000000000000000000000000000FF0000000000000000000000000000000000000000000000000000
310
0000000000FF00000000000000000000000000000000000000000000000000000000000000FF00000000000000000000000000000000000000000000000000000000000000FF00000000000000000000000000000000000000000000000000000000000000FF00000000000000000000000000000000000000000000000000
310
000000000000FF00000000000000000000000000000000000000000000000000000000000000FF00000000000000000000000000000000000000000000000000000000000000FF00000000000000000000000000000000000000000000000000000000000000FF000000000000000000000000000000000000000000000000
310
00000000000000FF00000000000000000000000000000000000000000000000000000000000000FF00000000000000000000000000000000000000000000000000000000000000FF00000000000000000000000000000000000000000000000000000000000000FF0000000000000000000000000000000000000000000000
310
0000000000000000FF0000000000000000000000000000000000000000000000000000000000000000000000000000000000000000000000
102
{BLKREFS
331
46E
331
49F
331
4AB
331
4CC
331
500
331
511
331
527
331
571
331
580
331
58F
331
596
102
}
1001
ACAD
1000
DesignCenter Data
1002
{
1070
     1
1070
     4
1002
}
  0
BLOCK_RECORD
  5
464
102
{ACAD_XDICTIONARY
360
5D2
102
}
330
1
100
AcDbSymbolTableRecord
100
AcDbBlockTableRecord
  2
DIMR
340
0
310
2800000020000000200000000100080000000000000400000000000000000000000000000000000000000000000080000080000000808000800000008000800080800000C0C0C000C0DCC000F0CAA6000020400000206000002080000020A0000020C0000020E00000400000004020000040400000406000004080000040A0
310
000040C0000040E00000600000006020000060400000606000006080000060A0000060C0000060E00000800000008020000080400000806000008080000080A0000080C0000080E00000A0000000A0200000A0400000A0600000A0800000A0A00000A0C00000A0E00000C0000000C0200000C0400000C0600000C0800000C0
310
A00000C0C00000C0E00000E0000000E0200000E0400000E0600000E0800000E0A00000E0C00000E0E00040000000400020004000400040006000400080004000A0004000C0004000E00040200000402020004020400040206000402080004020A0004020C0004020E000404000004040200040404000404060004040800040
310
40A0004040C0004040E00040600000406020004060400040606000406080004060A0004060C0004060E00040800000408020004080400040806000408080004080A0004080C0004080E00040A0000040A0200040A0400040A0600040A0800040A0A00040A0C00040A0E00040C0000040C0200040C0400040C0600040C08000
310
40C0A00040C0C00040C0E00040E0000040E0200040E0400040E0600040E0800040E0A00040E0C00040E0E00080000000800020008000400080006000800080008000A0008000C0008000E00080200000802020008020400080206000802080008020A0008020C0008020E00080400000804020008040400080406000804080
310
008040A0008040C0008040E00080600000806020008060400080606000806080008060A0008060C0008060E00080800000808020008080400080806000808080008080A0008080C0008080E00080A0000080A0200080A0400080A0600080A0800080A0A00080A0C00080A0E00080C0000080C0200080C0400080C0600080C0
310
800080C0A00080C0C00080C0E00080E0000080E0200080E0400080E0600080E0800080E0A00080E0C00080E0E000C0000000C0002000C0004000C0006000C0008000C000A000C000C000C000E000C0200000C0202000C0204000C0206000C0208000C020A000C020C000C020E000C0400000C0402000C0404000C0406000C0
310
408000C040A000C040C000C040E000C0600000C0602000C0604000C0606000C0608000C060A000C060C000C060E000C0800000C0802000C0804000C0806000C0808000C080A000C080C000C080E000C0A00000C0A02000C0A04000C0A06000C0A08000C0A0A000C0A0C000C0A0E000C0C00000C0C02000C0C04000C0C06000
310
C0C08000C0C0A000F0FBFF00A4A0A000808080000000FF0000FF000000FFFF00FF000000FF00FF00FFFF0000FFFFFF000000000000000000000000000000000000000000000000000000000000000000000000000000000000000000000000FF00000000000000000000000000000000000000000000000000000000000000
310
FF00000000000000000000000000000000000000000000000000000000000000FF00000000000000000000000000000000000000000000000000000000000000FF00000000000000000000000000000000000000000000000000000000000000FF000000000000000000000000000000000000000000000000000000000000
310
00FF00000000000000000000000000000000000000000000000000000000000000FF00000000000000000000000000000000000000000000000000000000000000FF00000000000000000000000000000000000000000000000000000000000000FF0000000000000000000000000000000000000000000000000000000000
310
0000FF00000000000000000000000000000000000000000000000000000000000000FF00000000000000000000000000000000000000000000000000000000000000FF00000000000000000000000000000000000000000000000000000000000000FF00000000000000000000000000000000000000000000000000000000
310
000000FF00000000000000000000000000000000000000000000000000000000000000FF00000000000000000000000000000000000000000000000000000000000000FF00000000000000000000000000000000000000000000000000000000000000FF000000000000000000000000000000000000000000000000000000
310
00000000FF000000000000000000000000000000000000000000000000000000000000FFFFFFFF0000000000000000000000000000000000000000FFFFFFFFFFFFFFFFFFFFFFFFFFFFFFFFFFFFFFFF0000000000000000000000000000000000000000FFFFFFFF000000000000000000000000000000000000000000000000
310
0000000000FFFF000000000000000000000000000000000000000000000000000000000000FF00000000000000000000000000000000000000000000000000000000000000FF00000000000000000000000000000000000000000000000000000000000000FF00000000000000000000000000000000000000000000000000
310
000000000000FF00000000000000000000000000000000000000000000000000000000000000FF00000000000000000000000000000000000000000000000000000000000000FF00000000000000000000000000000000000000000000000000000000000000FF000000000000000000000000000000000000000000000000
310
00000000000000FF000000000000000000000000000000000000000000000000000000000000000000000000000000000000000000000000
102
{BLKREFS
331
46F
331
4A0
331
4AC
331
4CD
331
501
331
512
331
528
331
572
331
581
331
590
331
597
102
}
1001
ACAD
1000
DesignCenter Data
1002
{
1070
     1
1070
     4
1002
}
  0
BLOCK_RECORD
  5
4A7
330
1
100
AcDbSymbolTableRecord
100
AcDbBlockTableRecord
  2
*D32
340
0
  0
BLOCK_RECORD
  5
4B2
330
1
100
AcDbSymbolTableRecord
100
AcDbBlockTableRecord
  2
*D33
340
0
  0
BLOCK_RECORD
  5
4BD
330
1
100
AcDbSymbolTableRecord
100
AcDbBlockTableRecord
  2
*D34
340
0
  0
BLOCK_RECORD
  5
4C8
330
1
100
AcDbSymbolTableRecord
100
AcDbBlockTableRecord
  2
*D35
340
0
  0
BLOCK_RECORD
  5
4D3
330
1
100
AcDbSymbolTableRecord
100
AcDbBlockTableRecord
  2
*D36
340
0
  0
BLOCK_RECORD
  5
4DE
330
1
100
AcDbSymbolTableRecord
100
AcDbBlockTableRecord
  2
*D37
340
0
  0
BLOCK_RECORD
  5
50D
330
1
100
AcDbSymbolTableRecord
100
AcDbBlockTableRecord
  2
*D38
340
0
  0
BLOCK_RECORD
  5
518
330
1
100
AcDbSymbolTableRecord
100
AcDbBlockTableRecord
  2
*D39
340
0
  0
BLOCK_RECORD
  5
530
330
1
100
AcDbSymbolTableRecord
100
AcDbBlockTableRecord
  2
*D41
340
0
  0
ENDTAB
  0
ENDSEC
  0
SECTION
  2
BLOCKS
  0
BLOCK
  5
D
330
A
100
AcDbEntity
  8
0
100
AcDbBlockBegin
  2
*MODEL_SPACE
 70
     0
 10
0.0
 20
0.0
 30
0.0
  3
*MODEL_SPACE
  1

  0
ENDBLK
  5
E
330
A
100
AcDbEntity
  8
0
100
AcDbBlockEnd
  0
BLOCK
  5
F
330
B
100
AcDbEntity
 67
     1
  8
0
100
AcDbBlockBegin
  2
*PAPER_SPACE
 70
     0
 10
0.0
 20
0.0
 30
0.0
  3
*PAPER_SPACE
  1

  0
ENDBLK
  5
10
330
B
100
AcDbEntity
 67
     1
  8
0
100
AcDbBlockEnd
  0
BLOCK
  5
45E
330
45D
100
AcDbEntity
  8
0
100
AcDbBlockBegin
  2
DIML
 70
     0
 10
0.0
 20
0.0
 30
0.0
  3
DIML
  1

  0
LINE
  5
45F
330
45D
100
AcDbEntity
  8
0
 62
     0
100
AcDbLine
 10
0.0
 20
0.0000000000000071
 30
0.0
 11
0.0
 21
2.0
 31
0.0
  0
LINE
  5
460
330
45D
100
AcDbEntity
  8
0
 62
     0
100
AcDbLine
 10
0.0
 20
-1.0
 30
0.0
 11
0.0
 21
0.0000000000000071
 31
0.0
  0
LINE
  5
461
330
45D
100
AcDbEntity
  8
0
 62
     0
100
AcDbLine
 10
-1.0
 20
0.0
 30
0.0
 11
1.0
 21
0.0
 31
0.0
  0
LWPOLYLINE
  5
462
330
45D
100
AcDbEntity
  8
0
370
     0
100
AcDbPolyline
 90
        2
 70
   129
 43
0.2
 10
-0.1000000000000014
 20
0.0
 42
1.0
 10
0.1000000000000014
 20
0.0
 42
1.0
  0
ENDBLK
  5
463
330
45D
100
AcDbEntity
  8
0
100
AcDbBlockEnd
  0
BLOCK
  5
465
330
464
100
AcDbEntity
  8
0
100
AcDbBlockBegin
  2
DIMR
 70
     0
 10
0.0
 20
0.0
 30
0.0
  3
DIMR
  1

  0
LINE
  5
466
330
464
100
AcDbEntity
  8
0
 62
     0
100
AcDbLine
 10
1.000000000000007
 20
-0.0000000000000213
 30
0.0
 11
-0.9999999999999928
 21
0.0000000000000213
 31
0.0
  0
LINE
  5
467
330
464
100
AcDbEntity
  8
0
 62
     0
100
AcDbLine
 10
0.0000000000000071
 20
1.000000000000021
 30
0.0
 11
0.0
 21
0.0
 31
0.0
  0
LINE
  5
468
330
464
100
AcDbEntity
  8
0
 62
     0
100
AcDbLine
 10
0.0
 20
0.0
 30
0.0
 11
0.0000000000000071
 21
-1.999999999999978
 31
0.0
  0
LWPOLYLINE
  5
469
330
464
100
AcDbEntity
  8
0
370
     0
100
AcDbPolyline
 90
        2
 70
   129
 43
0.2
 10
-0.0999999999999943
 20
0.0
 42
1.0
 10
0.1000000000000085
 20
0.0
 42
1.0
  0
ENDBLK
  5
46A
330
464
100
AcDbEntity
  8
0
100
AcDbBlockEnd
  0
BLOCK
  5
4A8
330
4A7
100
AcDbEntity
  8
0
370
     0
100
AcDbBlockBegin
  2
*D32
 70
     1
 10
0.0
 20
0.0
 30
0.0
  3
*D32
  1

  0
LINE
  5
4AA
330
4A7
100
AcDbEntity
  8
A-031_DimExt
 62
     0
370
    -2
100
AcDbLine
 10
498.2466261678783
 20
190.8277009541552
 30
0.0
 11
118.2466250065163
 21
190.8277009541552
 31
0.0
  0
INSERT
  5
4AB
330
4A7
100
AcDbEntity
  8
A-031_DimExt
 62
     0
370
    -2
100
AcDbBlockReference
  2
DIML
 10
508.2466261678783
 20
190.8277009541552
 30
0.0
 41
10.0
 42
10.0
 43
10.0
  0
INSERT
  5
4AC
330
4A7
100
AcDbEntity
  8
A-031_DimExt
 62
     0
370
    -2
100
AcDbBlockReference
  2
DIMR
 10
108.2466250065163
 20
190.8277009541552
 30
0.0
 41
10.0
 42
10.0
 43
10.0
 50
180.0
  0
MTEXT
  5
4AD
330
4A7
100
AcDbEntity
  8
A-031_DimExt
 62
     0
370
     0
100
AcDbMText
 10
308.2466255871973
 20
205.995768181046
 30
0.0
 40
20.0
 41
0.0
 71
     5
 72
     1
  1
\A1;400
  7
helvetica regular
 73
     1
 44
1.0
1001
ACAD
1000
MTEXTBEGIN
1070
    73
1070
     1
1070
    44
1040
1.0
1070
    74
1070
     0
1000
MTEXTEND
  0
POINT
  5
4AE
330
4A7
100
AcDbEntity
  8
Defpoints
 62
     0
370
     0
100
AcDbPoint
 10
508.2466261678783
 20
230.8276990185523
 30
0.0
  0
POINT
  5
4AF
330
4A7
100
AcDbEntity
  8
Defpoints
 62
     0
370
     0
100
AcDbPoint
 10
108.2466250065163
 20
230.8277009541553
 30
0.0
  0
POINT
  5
4B0
330
4A7
100
AcDbEntity
  8
Defpoints
 62
     0
370
     0
100
AcDbPoint
 10
108.2466250065163
 20
190.8277009541552
 30
0.0
  0
ENDBLK
  5
4A9
330
4A7
100
AcDbEntity
  8
0
370
     0
100
AcDbBlockEnd
  0
BLOCK
  5
4B3
330
4B2
100
AcDbEntity
  8
0
370
     0
100
AcDbBlockBegin
  2
*D33
 70
     1
 10
0.0
 20
0.0
 30
0.0
  3
*D33
  1

  0
LINE
  5
57F
330
4B2
100
AcDbEntity
  8
A-031_DimExt
 62
     0
370
    -2
100
AcDbLine
 10
178.2480599180147
 20
96.87875977900763
 30
0.0
 11
438.2480599180147
 21
96.87875977900763
 31
0.0
  0
INSERT
  5
580
330
4B2
100
AcDbEntity
  8
A-031_DimExt
 62
     0
370
    -2
100
AcDbBlockReference
  2
DIML
 10
168.2480599180147
 20
96.87875977900763
 30
0.0
 41
10.0
 42
10.0
 43
10.0
 50
180.0
  0
INSERT
  5
581
330
4B2
100
AcDbEntity
  8
A-031_DimExt
 62
     0
370
    -2
100
AcDbBlockReference
  2
DIMR
 10
448.2480599180147
 20
96.87875977900763
 30
0.0
 41
10.0
 42
10.0
 43
10.0
  0
MTEXT
  5
582
330
4B2
100
AcDbEntity
  8
A-031_DimExt
 62
     0
370
     0
100
AcDbMText
 10
308.2480599180148
 20
112.0468270058984
 30
0.0
 40
20.0
 41
0.0
 71
     5
 72
     1
  1
\A1;280
  7
helvetica regular
 73
     1
 44
1.0
1001
ACAD
1000
MTEXTBEGIN
1070
    73
1070
     1
1070
    44
1040
1.0
1070
    74
1070
     0
1000
MTEXTEND
  0
POINT
  5
583
330
4B2
100
AcDbEntity
  8
Defpoints
 62
     0
370
     0
100
AcDbPoint
 10
168.2480599180147
 20
56.87875977900761
 30
0.0
  0
POINT
  5
584
330
4B2
100
AcDbEntity
  8
Defpoints
 62
     0
370
     0
100
AcDbPoint
 10
448.2480599180147
 20
56.87875977900761
 30
0.0
  0
POINT
  5
585
330
4B2
100
AcDbEntity
  8
Defpoints
 62
     0
370
     0
100
AcDbPoint
 10
448.2480599180147
 20
96.87875977900763
 30
0.0
  0
ENDBLK
  5
4B4
330
4B2
100
AcDbEntity
  8
0
370
     0
100
AcDbBlockEnd
  0
BLOCK
  5
4BE
330
4BD
100
AcDbEntity
  8
0
370
     0
100
AcDbBlockBegin
  2
*D34
 70
     1
 10
0.0
 20
0.0
 30
0.0
  3
*D34
  1

  0
LINE
  5
595
330
4BD
100
AcDbEntity
  8
A-031_DimExt
 62
     0
370
    -2
100
AcDbLine
 10
548.2466261678784
 20
290.885423093982
 30
0.0
 11
548.2466261678783
 21
240.8276990185523
 31
0.0
  0
INSERT
  5
596
330
4BD
100
AcDbEntity
  8
A-031_DimExt
 62
     0
370
    -2
100
AcDbBlockReference
  2
DIML
 10
548.2466261678784
 20
300.885423093982
 30
0.0
 41
10.0
 42
10.0
 43
10.0
 50
90.0
  0
INSERT
  5
597
330
4BD
100
AcDbEntity
  8
A-031_DimExt
 62
     0
370
    -2
100
AcDbBlockReference
  2
DIMR
 10
548.2466261678783
 20
230.8276990185523
 30
0.0
 41
10.0
 42
10.0
 43
10.0
 50
270.0
  0
MTEXT
  5
598
330
4BD
100
AcDbEntity
  8
A-031_DimExt
 62
     0
370
     0
100
AcDbMText
 10
533.0785589409875
 20
265.8565610562672
 30
0.0
 40
20.0
 41
0.0
 71
     5
 72
     1
  1
\A1;70
  7
helvetica regular
 11
0.0000000000000001
 21
1.0
 31
0.0
 73
     1
 44
1.0
1001
ACAD
1000
MTEXTBEGIN
1070
    73
1070
     1
1070
    44
1040
1.0
1070
    74
1070
     0
1000
MTEXTEND
  0
POINT
  5
599
330
4BD
100
AcDbEntity
  8
Defpoints
 62
     0
370
     0
100
AcDbPoint
 10
423.9694439597942
 20
300.885423093982
 30
0.0
  0
POINT
  5
59A
330
4BD
100
AcDbEntity
  8
Defpoints
 62
     0
370
     0
100
AcDbPoint
 10
448.4531736723031
 20
230.8276990185523
 30
0.0
  0
POINT
  5
59B
330
4BD
100
AcDbEntity
  8
Defpoints
 62
     0
370
     0
100
AcDbPoint
 10
548.2466261678783
 20
230.8276990185523
 30
0.0
  0
ENDBLK
  5
4BF
330
4BD
100
AcDbEntity
  8
0
370
     0
100
AcDbBlockEnd
  0
BLOCK
  5
4C9
330
4C8
100
AcDbEntity
  8
0
370
     0
100
AcDbBlockBegin
  2
*D35
 70
     1
 10
0.0
 20
0.0
 30
0.0
  3
*D35
  1

  0
LINE
  5
4CB
330
4C8
100
AcDbEntity
  8
A-031_DimExt
 62
     0
370
    -2
100
AcDbLine
 10
588.2466261678784
 20
320.8801103313726
 30
0.0
 11
588.2466261678782
 21
240.8276990185521
 31
0.0
  0
INSERT
  5
4CC
330
4C8
100
AcDbEntity
  8
A-031_DimExt
 62
     0
370
    -2
100
AcDbBlockReference
  2
DIML
 10
588.2466261678784
 20
330.8801103313726
 30
0.0
 41
10.0
 42
10.0
 43
10.0
 50
90.0
  0
INSERT
  5
4CD
330
4C8
100
AcDbEntity
  8
A-031_DimExt
 62
     0
370
    -2
100
AcDbBlockReference
  2
DIMR
 10
588.2466261678782
 20
230.8276990185522
 30
0.0
 41
10.0
 42
10.0
 43
10.0
 50
270.0
  0
MTEXT
  5
4CE
330
4C8
100
AcDbEntity
  8
A-031_DimExt
 62
     0
370
     0
100
AcDbMText
 10
573.0785589409874
 20
280.8539046749625
 30
0.0
 40
20.0
 41
0.0
 71
     5
 72
     1
  1
\A1;100
  7
helvetica regular
 11
0.0000000000000001
 21
1.0
 31
0.0
 73
     1
 44
1.0
1001
ACAD
1000
MTEXTBEGIN
1070
    73
1070
     1
1070
    44
1040
1.0
1070
    74
1070
     0
1000
MTEXTEND
  0
POINT
  5
4CF
330
4C8
100
AcDbEntity
  8
Defpoints
 62
     0
370
     0
100
AcDbPoint
 10
308.3506167951589
 20
330.8801103313727
 30
0.0
  0
POINT
  5
4D0
330
4C8
100
AcDbEntity
  8
Defpoints
 62
     0
370
     0
100
AcDbPoint
 10
308.2473430429465
 20
230.8276990185523
 30
0.0
  0
POINT
  5
4D1
330
4C8
100
AcDbEntity
  8
Defpoints
 62
     0
370
     0
100
AcDbPoint
 10
588.2466261678782
 20
230.8276990185522
 30
0.0
  0
ENDBLK
  5
4CA
330
4C8
100
AcDbEntity
  8
0
370
     0
100
AcDbBlockEnd
  0
BLOCK
  5
4D4
330
4D3
100
AcDbEntity
  8
0
370
     0
100
AcDbBlockBegin
  2
*D36
 70
     1
 10
0.0
 20
0.0
 30
0.0
  3
*D36
  1

  0
LINE
  5
58E
330
4D3
100
AcDbEntity
  8
A-031_DimExt
 62
     0
370
    -2
100
AcDbLine
 10
28.24662500651636
 20
240.8276990185523
 30
0.0
 11
28.24662500651639
 21
390.9371012299432
 31
0.0
  0
INSERT
  5
58F
330
4D3
100
AcDbEntity
  8
A-031_DimExt
 62
     0
370
    -2
100
AcDbBlockReference
  2
DIML
 10
28.24662500651636
 20
230.8276990185523
 30
0.0
 41
10.0
 42
10.0
 43
10.0
 50
270.0
  0
INSERT
  5
590
330
4D3
100
AcDbEntity
  8
A-031_DimExt
 62
     0
370
    -2
100
AcDbBlockReference
  2
DIMR
 10
28.24662500651639
 20
400.9371012299432
 30
0.0
 41
10.0
 42
10.0
 43
10.0
 50
90.0
  0
MTEXT
  5
591
330
4D3
100
AcDbEntity
  8
A-031_DimExt
 62
     0
370
     0
100
AcDbMText
 10
13.07855777962557
 20
315.8824001242477
 30
0.0
 40
20.0
 41
0.0
 71
     5
 72
     1
  1
\A1;170
  7
helvetica regular
 11
0.0000000000000001
 21
1.0
 31
0.0
 73
     1
 44
1.0
1001
ACAD
1000
MTEXTBEGIN
1070
    73
1070
     1
1070
    44
1040
1.0
1070
    74
1070
     0
1000
MTEXTEND
  0
POINT
  5
592
330
4D3
100
AcDbEntity
  8
Defpoints
 62
     0
370
     0
100
AcDbPoint
 10
168.2480599180147
 20
230.8276990185523
 30
0.0
  0
POINT
  5
593
330
4D3
100
AcDbEntity
  8
Defpoints
 62
     0
370
     0
100
AcDbPoint
 10
308.2775425111551
 20
400.9371012299431
 30
0.0
  0
POINT
  5
594
330
4D3
100
AcDbEntity
  8
Defpoints
 62
     0
370
     0
100
AcDbPoint
 10
28.24662500651639
 20
400.9371012299432
 30
0.0
  0
ENDBLK
  5
4D5
330
4D3
100
AcDbEntity
  8
0
370
     0
100
AcDbBlockEnd
  0
BLOCK
  5
4DF
330
4DE
100
AcDbEntity
  8
0
370
     0
100
AcDbBlockBegin
  2
*D37
 70
     1
 10
0.0
 20
0.0
 30
0.0
  3
*D37
  1

  0
LINE
  5
4FD
330
4DE
100
AcDbEntity
  8
A-031_DimExt
 62
     0
370
    -2
100
AcDbLine
 10
68.24662616787839
 20
410.9371012299432
 30
0.0
 11
68.2466261678784
 21
420.9371012299432
 31
0.0
  0
LINE
  5
4FE
330
4DE
100
AcDbEntity
  8
A-031_DimExt
 62
     0
370
    -2
100
AcDbLine
 10
68.24662616787839
 20
370.9236486677078
 30
0.0
 11
68.24662616787837
 21
321.6239287797527
 31
0.0
  0
LINE
  5
4FF
330
4DE
100
AcDbEntity
  8
A-031_DimExt
 62
     0
370
    -2
100
AcDbLine
 10
68.24662616787839
 20
400.9371012299432
 30
0.0
 11
68.24662616787839
 21
380.9236486677079
 31
0.0
  0
INSERT
  5
500
330
4DE
100
AcDbEntity
  8
A-031_DimExt
 62
     0
370
    -2
100
AcDbBlockReference
  2
DIML
 10
68.24662616787839
 20
400.9371012299432
 30
0.0
 41
10.0
 42
10.0
 43
10.0
 50
270.0
  0
INSERT
  5
501
330
4DE
100
AcDbEntity
  8
A-031_DimExt
 62
     0
370
    -2
100
AcDbBlockReference
  2
DIMR
 10
68.24662616787839
 20
380.9236486677079
 30
0.0
 41
10.0
 42
10.0
 43
10.0
 50
90.0
  0
MTEXT
  5
502
330
4DE
100
AcDbEntity
  8
A-031_DimExt
 62
     0
370
     0
100
AcDbMText
 10
53.07855894098757
 20
341.2737887237303
 30
0.0
 40
20.0
 41
0.0
 71
     5
 72
     1
  1
\A1;20
  7
helvetica regular
 11
0.0000000000000001
 21
1.0
 31
0.0
 73
     1
 44
1.0
1001
ACAD
1000
MTEXTBEGIN
1070
    73
1070
     1
1070
    44
1040
1.0
1070
    74
1070
     0
1000
MTEXTEND
  0
POINT
  5
503
330
4DE
100
AcDbEntity
  8
Defpoints
 62
     0
370
     0
100
AcDbPoint
 10
308.2775425111551
 20
400.9371012299431
 30
0.0
  0
POINT
  5
504
330
4DE
100
AcDbEntity
  8
Defpoints
 62
     0
370
     0
100
AcDbPoint
 10
308.2775425111549
 20
380.9236486677077
 30
0.0
  0
POINT
  5
505
330
4DE
100
AcDbEntity
  8
Defpoints
 62
     0
370
     0
100
AcDbPoint
 10
68.24662616787839
 20
380.9236486677079
 30
0.0
  0
ENDBLK
  5
4E0
330
4DE
100
AcDbEntity
  8
0
370
     0
100
AcDbBlockEnd
  0
BLOCK
  5
50E
330
50D
100
AcDbEntity
  8
0
370
     0
100
AcDbBlockBegin
  2
*D38
 70
     1
 10
0.0
 20
0.0
 30
0.0
  3
*D38
  1

  0
LINE
  5
510
330
50D
100
AcDbEntity
  8
A-031_DimExt
 62
     0
370
    -2
100
AcDbLine
 10
238.5379109864702
 20
-317.4228502712992
 30
0.0
 11
90.0428584732465
 21
-168.9264886793474
 31
0.0
  0
INSERT
  5
511
330
50D
100
AcDbEntity
  8
A-031_DimExt
 62
     0
370
    -2
100
AcDbBlockReference
  2
DIML
 10
245.6089476304149
 20
-324.4939492509481
 30
0.0
 41
10.0
 42
10.0
 43
10.0
 50
314.9997474516683
  0
INSERT
  5
512
330
50D
100
AcDbEntity
  8
A-031_DimExt
 62
     0
370
    -2
100
AcDbBlockReference
  2
DIMR
 10
82.97182182930177
 20
-161.8553896996985
 30
0.0
 41
10.0
 42
10.0
 43
10.0
 50
134.9997474516682
  0
MTEXT
  5
513
330
50D
100
AcDbEntity
  8
A-031_DimExt
 62
     0
370
     0
100
AcDbMText
 10
175.0158751989896
 20
-232.4492735574072
 30
0.0
 40
20.0
 41
0.0
 71
     5
 72
     1
  1
\A1;230
  7
helvetica regular
 11
0.7071036643944728
 21
-0.7071098979648843
 31
0.0
 73
     1
 44
1.0
1001
ACAD
1000
MTEXTBEGIN
1070
    73
1070
     1
1070
    44
1040
1.0
1070
    74
1070
     0
1000
MTEXTEND
  0
POINT
  5
514
330
50D
100
AcDbEntity
  8
Defpoints
 62
     0
370
     0
100
AcDbPoint
 10
273.8933435490102
 20
-296.2098026751693
 30
0.0
  0
POINT
  5
515
330
50D
100
AcDbEntity
  8
Defpoints
 62
     0
370
     0
100
AcDbPoint
 10
111.2562177478971
 20
-133.5712431239197
 30
0.0
  0
POINT
  5
516
330
50D
100
AcDbEntity
  8
Defpoints
 62
     0
370
     0
100
AcDbPoint
 10
82.97182182930177
 20
-161.8553896996985
 30
0.0
  0
ENDBLK
  5
50F
330
50D
100
AcDbEntity
  8
0
370
     0
100
AcDbBlockEnd
  0
BLOCK
  5
519
330
518
100
AcDbEntity
  8
0
370
     0
100
AcDbBlockBegin
  2
*D39
 70
     1
 10
0.0
 20
0.0
 30
0.0
  3
*D39
  1

  0
LINE
  5
570
330
518
100
AcDbEntity
  8
A-031_DimExt
 62
     0
370
    -2
100
AcDbLine
 10
526.3956335316843
 20
-168.8688613562704
 30
0.0
 11
377.9005810184607
 21
-317.3652229482223
 31
0.0
  0
INSERT
  5
571
330
518
100
AcDbEntity
  8
A-031_DimExt
 62
     0
370
    -2
100
AcDbBlockReference
  2
DIML
 10
533.4666701756291
 20
-161.7977623766216
 30
0.0
 41
10.0
 42
10.0
 43
10.0
 50
45.00025254833176
  0
INSERT
  5
572
330
518
100
AcDbEntity
  8
A-031_DimExt
 62
     0
370
    -2
100
AcDbBlockReference
  2
DIMR
 10
370.8295443745159
 20
-324.4363219278712
 30
0.0
 41
10.0
 42
10.0
 43
10.0
 50
225.0002525483318
  0
MTEXT
  5
573
330
518
100
AcDbEntity
  8
A-031_DimExt
 62
     0
370
     0
100
AcDbMText
 10
441.4226168059412
 20
-232.3916462343302
 30
0.0
 40
20.0
 41
0.0
 71
     5
 72
     1
  1
\A1;230
  7
helvetica regular
 11
0.7071036643944724
 21
0.7071098979648846
 31
0.0
 73
     1
 44
1.0
1001
ACAD
1000
MTEXTBEGIN
1070
    73
1070
     1
1070
    44
1040
1.0
1070
    74
1070
     0
1000
MTEXTEND
  0
POINT
  5
574
330
518
100
AcDbEntity
  8
Defpoints
 62
     0
370
     0
100
AcDbPoint
 10
505.2399020881323
 20
-133.5712431239197
 30
0.0
  0
POINT
  5
575
330
518
100
AcDbEntity
  8
Defpoints
 62
     0
370
     0
100
AcDbPoint
 10
342.6027762870193
 20
-296.2098026751693
 30
0.0
  0
POINT
  5
576
330
518
100
AcDbEntity
  8
Defpoints
 62
     0
370
     0
100
AcDbPoint
 10
370.8295443745159
 20
-324.4363219278712
 30
0.0
  0
ENDBLK
  5
51A
330
518
100
AcDbEntity
  8
0
370
     0
100
AcDbBlockEnd
  0
BLOCK
  5
531
330
530
100
AcDbEntity
  8
0
370
     0
100
AcDbBlockBegin
  2
*D41
 70
     1
 10
0.0
 20
0.0
 30
0.0
  3
*D41
  1

  0
ARC
  5
545
330
530
100
AcDbEntity
  8
A-031_DimExt
 62
     0
370
    -2
100
AcDbCircle
 10
308.351444139336
 20
-99.32421639452401
 30
0.0
 40
70.95311443052421
100
AcDbArc
 50
323.0818589869425
 51
81.91814101305743
  0
SOLID
  5
546
330
530
100
AcDbEntity
  8
A-031_DimExt
 62
     0
370
     0
100
AcDbTrace
 10
366.3366998917692
 20
-143.0363971776475
 30
0.0
 11
363.8194397374807
 21
-140.8513314059274
 31
0.0
 12
358.5228724994646
 22
-149.4956447546529
 32
0.0
 13
358.5228724994646
 23
-149.4956447546529
 33
0.0
  0
SOLID
  5
547
330
530
100
AcDbEntity
  8
A-031_DimExt
 62
     0
370
     0
100
AcDbTrace
 10
318.2091353379328
 20
-30.73831594057331
 30
0.0
 11
318.444032238519
 21
-27.41326939094334
 31
0.0
 12
308.351444139336
 22
-28.37110196399978
 32
0.0
 13
308.351444139336
 23
-28.37110196399978
 33
0.0
  0
MTEXT
  5
548
330
530
100
AcDbEntity
  8
A-031_DimExt
 62
     0
370
     0
100
AcDbMText
 10
387.9170411883082
 20
-66.36706699852715
 30
0.0
 40
20.0
 41
0.0
 71
     5
 72
     1
  1
\A1;135\U+00B0
  7
helvetica regular
 11
0.3826834323650885
 21
-0.9238795325112873
 31
0.0
 73
     1
 44
1.0
1001
ACAD
1000
MTEXTBEGIN
1070
    73
1070
     1
1070
    44
1040
1.0
1070
    74
1070
     0
1000
MTEXTEND
  0
POINT
  5
549
330
530
100
AcDbEntity
  8
Defpoints
 62
     0
370
     0
100
AcDbPoint
 10
379.3045585698602
 20
-99.32421639452412
 30
0.0
  0
POINT
  5
54A
330
530
100
AcDbEntity
  8
Defpoints
 62
     0
370
     0
100
AcDbPoint
 10
378.9275153580399
 20
-169.9002876132281
 30
0.0
  0
POINT
  5
54B
330
530
100
AcDbEntity
  8
Defpoints
 62
     0
370
     0
100
AcDbPoint
 10
308.351444139336
 20
0.7281946751437545
 30
0.0
  0
POINT
  5
54C
330
530
100
AcDbEntity
  8
Defpoints
 62
     0
370
     0
100
AcDbPoint
 10
308.351444139336
 20
-49.19355132576649
 30
0.0
  0
POINT
  5
54D
330
530
100
AcDbEntity
  8
Defpoints
 62
     0
370
     0
100
AcDbPoint
 10
343.5346596932911
 20
-134.5074319484792
 30
0.0
  0
ENDBLK
  5
532
330
530
100
AcDbEntity
  8
0
370
     0
100
AcDbBlockEnd
  0
ENDSEC
  0
SECTION
  2
ENTITIES
  0
SPLINE
  5
FF
330
A
100
AcDbEntity
  8
A-001_Pan
100
AcDbSpline
210
0.0
220
0.0
230
1.0
 70
     9
 71
     3
 72
    41
 73
    37
 74
     0
 42
0.0000000001
 43
0.0000000001
 40
0.0
 40
0.0
 40
0.0
 40
0.0
 40
1.0
 40
1.0
 40
1.0
 40
2.0
 40
2.0
 40
2.0
 40
3.0
 40
3.0
 40
3.0
 40
4.0
 40
4.0
 40
4.0
 40
5.0
 40
5.0
 40
5.0
 40
6.0
 40
6.0
 40
6.0
 40
7.0
 40
7.0
 40
7.0
 40
8.0
 40
8.0
 40
8.0
 40
9.0
 40
9.0
 40
9.0
 40
10.0
 40
10.0
 40
10.0
 40
11.0
 40
11.0
 40
11.0
 40
12.0
 40
12.0
 40
12.0
 40
12.0
 10
313.3339261676647
 20
-99.11601283777811
 30
0.0
 10
313.3339261676647
 20
-98.18269482029762
 30
0.0
 10
313.0209056633406
 20
-97.35132384780349
 30
0.0
 10
312.607373987903
 20
-96.62333579416873
 30
0.0
 10
312.1895346908465
 20
-95.79483656942073
 30
0.0
 10
311.5692371776901
 20
-95.27361435350474
 30
0.0
 10
310.8426849979284
 20
-94.96346559692666
 30
0.0
 10
310.0113140254343
 20
-94.44511512875681
 30
0.0
 10
309.1813789268134
 20
-94.23691341716505
 30
0.0
 10
308.3514438281922
 20
-94.23691341716505
 30
0.0
 10
307.4181258107117
 20
-94.23691341716505
 30
0.0
 10
306.5867548382178
 20
-94.44511512875681
 30
0.0
 10
305.858766784583
 20
-94.96346559692666
 30
0.0
 10
305.0302675598351
 20
-95.27361435350474
 30
0.0
 10
304.4070982989327
 20
-95.79483656942073
 30
0.0
 10
303.9906948757492
 20
-96.62333579416873
 30
0.0
 10
303.5771632003116
 20
-97.35132384780349
 30
0.0
 10
303.3675256148469
 20
-98.18269482029762
 30
0.0
 10
303.3675256148469
 20
-99.11601283777811
 30
0.0
 10
303.3675256148469
 20
-99.94738381027225
 30
0.0
 10
303.5771632003116
 20
-100.7758830350202
 30
0.0
 10
303.9906948757492
 20
-101.6072540075142
 30
0.0
 10
304.4070982989327
 20
-102.4357532322623
 30
0.0
 10
305.0302675598351
 20
-103.0589224931646
 30
0.0
 10
305.858766784583
 20
-103.4753259163482
 30
0.0
 10
306.5867548382178
 20
-103.8902934656586
 30
0.0
 10
307.4181258107117
 20
-104.0956234295044
 30
0.0
 10
308.3514438281922
 20
-104.0956234295044
 30
0.0
 10
309.1813789268134
 20
-104.0956234295044
 30
0.0
 10
310.0113140254343
 20
-103.8902934656586
 30
0.0
 10
310.8426849979284
 20
-103.4753259163482
 30
0.0
 10
311.5692371776901
 20
-103.0589224931646
 30
0.0
 10
312.1895346908465
 20
-102.4357532322623
 30
0.0
 10
312.607373987903
 20
-101.6072540075142
 30
0.0
 10
313.0209056633406
 20
-100.7758830350202
 30
0.0
 10
313.3339261676647
 20
-99.94738381027225
 30
0.0
 10
313.3339261676647
 20
-99.11601283777811
 30
0.0
  0
SPLINE
  5
BC
330
A
100
AcDbEntity
  8
A-001_Pan
100
AcDbSpline
210
0.0
220
0.0
230
1.0
 70
     8
 71
     3
 72
    17
 73
    13
 74
     0
 42
0.0000000001
 43
0.0000000001
 40
0.0
 40
0.0
 40
0.0
 40
0.0
 40
1.0
 40
1.0
 40
1.0
 40
2.0
 40
2.0
 40
2.0
 40
3.0
 40
3.0
 40
3.0
 40
4.0
 40
4.0
 40
4.0
 40
4.0
 10
508.2466250644034
 20
230.8277009541553
 30
0.0
 10
492.2883228393612
 20
328.7995291229486
 30
0.0
 10
407.517201122424
 20
400.9371145678836
 30
0.0
 10
308.3514438281922
 20
400.9371145678836
 30
0.0
 10
308.3514438281922
 20
400.9371145678836
 30
0.0
 10
308.3514438281922
 20
400.9371145678836
 30
0.0
 10
308.3514438281922
 20
400.9371145678836
 30
0.0
 10
209.1239439574197
 20
400.9371145678836
 30
0.0
 10
124.2666698080995
 20
328.7995291229486
 30
0.0
 10
108.2466250065163
 20
230.8277009541553
 30
0.0
 10
108.2466250065163
 20
230.8277009541553
 30
0.0
 10
108.2466250065163
 20
230.8277009541553
 30
0.0
 10
108.2466250065163
 20
230.8277009541553
 30
0.0
  0
SPLINE
  5
BB
330
A
100
AcDbEntity
  8
A-001_Pan
  6
HIDDEN
100
AcDbSpline
210
0.0
220
0.0
230
1.0
 70
     8
 71
     3
 72
    17
 73
    13
 74
     0
 42
0.0000000001
 43
0.0000000001
 40
0.0
 40
0.0
 40
0.0
 40
0.0
 40
1.0
 40
1.0
 40
1.0
 40
2.0
 40
2.0
 40
2.0
 40
3.0
 40
3.0
 40
3.0
 40
4.0
 40
4.0
 40
4.0
 40
4.0
 10
488.0094186976818
 20
230.8277009541553
 30
0.0
 10
472.2205495896591
 20
317.6255586428985
 30
0.0
 10
396.4681516693289
 20
380.9059561019441
 30
0.0
 10
308.3514438281922
 20
380.9059561019441
 30
0.0
 10
308.3514438281922
 20
380.9059561019441
 30
0.0
 10
308.3514438281922
 20
380.9059561019441
 30
0.0
 10
308.3514438281922
 20
380.9059561019441
 30
0.0
 10
220.1126867078469
 20
380.9059561019441
 30
0.0
 10
144.3172125713251
 20
317.6255586428985
 30
0.0
 10
128.5900860398434
 20
230.8277009541553
 30
0.0
 10
128.5900860398434
 20
230.8277009541553
 30
0.0
 10
128.5900860398434
 20
230.8277009541553
 30
0.0
 10
128.5900860398434
 20
230.8277009541553
 30
0.0
  0
SPLINE
  5
BA
330
A
100
AcDbEntity
  8
A-001_Pan
  6
HIDDEN
100
AcDbSpline
210
0.0
220
0.0
230
1.0
 70
     8
 71
     3
 72
    17
 73
    13
 74
     0
 42
0.0000000001
 43
0.0000000001
 40
0.0
 40
0.0
 40
0.0
 40
0.0
 40
1.0
 40
1.0
 40
1.0
 40
2.0
 40
2.0
 40
2.0
 40
3.0
 40
3.0
 40
3.0
 40
4.0
 40
4.0
 40
4.0
 40
4.0
 10
318.1053350477992
 20
323.0955201622702
 30
0.0
 10
317.0729417330786
 20
327.6529838353209
 30
0.0
 10
313.0280850327058
 20
330.8801103649935
 30
0.0
 10
308.3514438281922
 20
330.8801103649935
 30
0.0
 10
308.3514438281922
 20
330.8801103649935
 30
0.0
 10
308.3514438281922
 20
330.8801103649935
 30
0.0
 10
308.3514438281922
 20
330.8801103649935
 30
0.0
 10
303.6733667498058
 20
330.8801103649935
 30
0.0
 10
299.6270741755599
 20
327.6529838353209
 30
0.0
 10
298.5961167347123
 20
323.0955201622702
 30
0.0
 10
298.5961167347123
 20
323.0955201622702
 30
0.0
 10
298.5961167347123
 20
323.0955201622702
 30
0.0
 10
298.5961167347123
 20
323.0955201622702
 30
0.0
  0
LINE
  5
B9
330
A
100
AcDbEntity
  8
A-001_Pan
  6
HIDDEN
100
AcDbLine
 10
298.5961165176354
 20
323.0955220436042
 30
0.0
 11
297.9883151124828
 21
320.5662784307382
 31
0.0
  0
SPLINE
  5
B8
330
A
100
AcDbEntity
  8
A-001_Pan
100
AcDbSpline
210
0.0
220
0.0
230
1.0
 70
     8
 71
     3
 72
    14
 73
    10
 74
     0
 42
0.0000000001
 43
0.0000000001
 40
0.0
 40
0.0
 40
0.0
 40
0.0
 40
1.0
 40
1.0
 40
1.0
 40
2.0
 40
2.0
 40
2.0
 40
3.0
 40
3.0
 40
3.0
 40
3.0
 10
111.2562166444224
 20
230.8277009541553
 30
0.0
 10
120.3912462247462
 20
277.5338062966217
 30
0.0
 10
147.5823897586336
 20
300.885423093982
 30
0.0
 10
192.627189029985
 20
300.885423093982
 30
0.0
 10
237.6705524274631
 20
300.885423093982
 30
0.0
 10
264.7597489163642
 20
277.5338062966217
 30
0.0
 10
273.8933426228152
 20
230.8277009541553
 30
0.0
 10
273.8933426228152
 20
230.8277009541553
 30
0.0
 10
273.8933426228152
 20
230.8277009541553
 30
0.0
 10
273.8933426228152
 20
230.8277009541553
 30
0.0
  0
LINE
  5
B7
330
A
100
AcDbEntity
  8
A-001_Pan
100
AcDbLine
 10
168.2480599180147
 20
230.8276990185523
 30
0.0
 11
108.2466261678783
 21
230.8276990185523
 31
0.0
  0
SPLINE
  5
5D
330
A
100
AcDbEntity
  8
A-001_Pan
100
AcDbSpline
210
0.0
220
0.0
230
1.0
 70
     8
 71
     3
 72
    11
 73
     7
 74
     0
 42
0.0000000001
 43
0.0000000001
 40
0.0
 40
0.0
 40
0.0
 40
0.0
 40
1.0
 40
1.0
 40
1.0
 40
2.0
 40
2.0
 40
2.0
 40
2.0
 10
130.9779442907202
 20
230.8277009541553
 30
0.0
 10
140.110102123298
 20
277.5338062966217
 30
0.0
 10
160.6603289943439
 20
300.885423093982
 30
0.0
 10
192.627189029985
 20
300.885423093982
 30
0.0
 10
192.627189029985
 20
300.885423093982
 30
0.0
 10
192.627189029985
 20
300.885423093982
 30
0.0
 10
192.627189029985
 20
300.885423093982
 30
0.0
  0
SPLINE
  5
5C
330
A
100
AcDbEntity
  8
A-001_Pan
100
AcDbSpline
210
0.0
220
0.0
230
1.0
 70
     8
 71
     3
 72
    14
 73
    10
 74
     0
 42
0.0000000001
 43
0.0000000001
 40
0.0
 40
0.0
 40
0.0
 40
0.0
 40
1.0
 40
1.0
 40
1.0
 40
2.0
 40
2.0
 40
2.0
 40
3.0
 40
3.0
 40
3.0
 40
3.0
 10
505.3404163453568
 20
230.8277009541553
 30
0.0
 10
496.1048755939196
 20
277.5338062966217
 30
0.0
 10
469.0156791050186
 20
300.885423093982
 30
0.0
 10
423.9694439597942
 20
300.885423093982
 30
0.0
 10
378.9275164361892
 20
300.885423093982
 30
0.0
 10
351.7335011545555
 20
277.5338062966217
 30
0.0
 10
342.6013433219777
 20
230.8277009541553
 30
0.0
 10
342.6013433219777
 20
230.8277009541553
 30
0.0
 10
342.6013433219777
 20
230.8277009541553
 30
0.0
 10
342.6013433219777
 20
230.8277009541553
 30
0.0
  0
LINE
  5
5B
330
A
100
AcDbEntity
  8
A-001_Pan
100
AcDbLine
 10
448.4531736723031
 20
230.8276990185523
 30
0.0
 11
508.2466261678783
 21
230.8276990185523
 31
0.0
  0
SPLINE
  5
5A
330
A
100
AcDbEntity
  8
A-001_Pan
100
AcDbSpline
210
0.0
220
0.0
230
1.0
 70
     8
 71
     3
 72
    11
 73
     7
 74
     0
 42
0.0000000001
 43
0.0000000001
 40
0.0
 40
0.0
 40
0.0
 40
0.0
 40
1.0
 40
1.0
 40
1.0
 40
2.0
 40
2.0
 40
2.0
 40
2.0
 10
485.6215604468049
 20
230.8277009541553
 30
0.0
 10
476.3831479476216
 20
277.5338062966217
 30
0.0
 10
455.832921076576
 20
300.885423093982
 30
0.0
 10
423.9694439597942
 20
300.885423093982
 30
0.0
 10
423.9694439597942
 20
300.885423093982
 30
0.0
 10
423.9694439597942
 20
300.885423093982
 30
0.0
 10
423.9694439597942
 20
300.885423093982
 30
0.0
  0
LINE
  5
59
330
A
100
AcDbEntity
  8
A-001_Pan
100
AcDbLine
 10
273.8933435490102
 20
230.8276990185523
 30
0.0
 11
342.6013425368827
 21
230.8276990185523
 31
0.0
  0
LINE
  5
40
330
A
100
AcDbEntity
  8
A-001_Pan
  6
HIDDEN
100
AcDbLine
 10
318.1053338430221
 20
323.0955220436042
 30
0.0
 11
318.6123585220051
 21
320.5729671294999
 31
0.0
  0
LINE
  5
3C
330
A
100
AcDbEntity
  8
A-001_Pan
100
AcDbLine
 10
308.351444139336
 20
0.7281946751437545
 30
0.0
 11
308.351444139336
 21
-49.19355132576652
 31
0.0
  0
LINE
  5
3B
330
A
100
AcDbEntity
  8
A-001_Pan
100
AcDbLine
 10
378.9275153580399
 20
-169.9002876132281
 30
0.0
 11
343.5346596932912
 21
-134.5074319484792
 31
0.0
  0
TEXT
  5
491
330
A
100
AcDbEntity
  8
A-043_Txt025
370
     0
100
AcDbText
 10
108.2466250065163
 20
-339.2208321732029
 30
0.0
 40
20.0
  1
P000 5740
  7
helvetica regular
100
AcDbText
  0
DIMENSION
  5
4A6
330
A
100
AcDbEntity
  8
A-031_DimExt
370
     0
100
AcDbDimension
  2
*D32
 10
108.2466250065163
 20
190.8277009541552
 30
0.0
 11
308.2466255871973
 21
205.995768181046
 31
0.0
 70
    32
 71
     5
 42
400.000001161362
  3
DIMEXT
100
AcDbAlignedDimension
 13
508.2466261678783
 23
230.8276990185523
 33
0.0
 14
108.2466250065163
 24
230.8277009541553
 34
0.0
100
AcDbRotatedDimension
  0
DIMENSION
  5
4B1
330
A
100
AcDbEntity
  8
A-031_DimExt
370
     0
100
AcDbDimension
  2
*D33
 10
448.2480599180147
 20
96.87875977900763
 30
0.0
 11
308.2480599180148
 21
112.0468270058984
 31
0.0
 70
    32
 71
     5
 42
280.0
  3
DIMEXT
100
AcDbAlignedDimension
 13
168.2480599180147
 23
56.87875977900761
 33
0.0
 14
448.2480599180147
 24
56.87875977900761
 34
0.0
100
AcDbRotatedDimension
  0
DIMENSION
  5
4BC
330
A
100
AcDbEntity
  8
A-031_DimExt
370
     0
100
AcDbDimension
  2
*D34
 10
548.2466261678783
 20
230.8276990185523
 30
0.0
 11
533.0785589409875
 21
265.8565610562672
 31
0.0
 70
    32
 71
     5
 42
70.05772407542974
  3
DIMEXT
100
AcDbAlignedDimension
 13
423.9694439597942
 23
300.885423093982
 33
0.0
 14
448.4531736723031
 24
230.8276990185523
 34
0.0
 50
90.0
100
AcDbRotatedDimension
  0
DIMENSION
  5
4C7
330
A
100
AcDbEntity
  8
A-031_DimExt
370
     0
100
AcDbDimension
  2
*D35
 10
588.2466261678782
 20
230.8276990185522
 30
0.0
 11
573.0785589409874
 21
280.8539046749625
 31
0.0
 70
    32
 71
     5
 42
100.0524113128204
  3
DIMEXT
100
AcDbAlignedDimension
 13
308.3506167951589
 23
330.8801103313727
 33
0.0
 14
308.2473430429465
 24
230.8276990185523
 34
0.0
 50
90.0
100
AcDbRotatedDimension
  0
DIMENSION
  5
4D2
330
A
100
AcDbEntity
  8
A-031_DimExt
370
     0
100
AcDbDimension
  2
*D36
 10
28.24662500651639
 20
400.9371012299432
 30
0.0
 11
13.07855777962557
 21
315.8824001242477
 31
0.0
 70
    32
 71
     5
 42
170.1094022113909
  3
DIMEXT
100
AcDbAlignedDimension
 13
168.2480599180147
 23
230.8276990185523
 33
0.0
 14
308.2775425111551
 24
400.9371012299431
 34
0.0
 50
90.0
100
AcDbRotatedDimension
  0
DIMENSION
  5
4DD
330
A
100
AcDbEntity
  8
A-031_DimExt
370
     0
100
AcDbDimension
  2
*D37
 10
68.24662616787839
 20
380.9236486677079
 30
0.0
 11
68.24662616787832
 21
341.2737887237303
 31
0.0
 70
   160
 71
     5
 42
20.01345256223538
  3
DIMEXT
100
AcDbAlignedDimension
 13
308.2775425111551
 23
400.9371012299431
 33
0.0
 14
308.2775425111549
 24
380.9236486677077
 34
0.0
 50
90.0
100
AcDbRotatedDimension
  0
DIMENSION
  5
50C
330
A
100
AcDbEntity
  8
A-031_DimExt
370
     0
100
AcDbDimension
  2
*D38
 10
82.97182182930177
 20
-161.8553896996985
 30
0.0
 11
175.0158751989896
 21
-232.4492735574072
 31
0.0
 70
    33
 71
     5
 42
230.0046428699917
  3
DIMEXT
100
AcDbAlignedDimension
 13
273.8933435490102
 23
-296.2098026751693
 33
0.0
 14
111.2562177478971
 24
-133.5712431239197
 34
0.0
  0
DIMENSION
  5
517
330
A
100
AcDbEntity
  8
A-031_DimExt
370
     0
100
AcDbDimension
  2
*D39
 10
370.8295443745159
 20
-324.4363219278712
 30
0.0
 11
441.4226168059412
 21
-232.3916462343302
 31
0.0
 70
    33
 71
     5
 42
230.0046428699918
  3
DIMEXT
100
AcDbAlignedDimension
 13
505.2399020881323
 23
-133.5712431239197
 33
0.0
 14
342.6027762870193
 24
-296.2098026751693
 34
0.0
  0
DIMENSION
  5
52F
330
A
100
AcDbEntity
  8
A-031_DimExt
370
     0
100
AcDbDimension
  2
*D41
 10
343.5346596932912
 20
-134.5074319484792
 30
0.0
 11
387.9170411883082
 21
-66.36706699852711
 31
0.0
 70
    34
 71
     5
 42
2.356194490192347
  3
DIMEXT
100
AcDb2LineAngularDimension
 13
308.351444139336
 23
0.7281946751437545
 33
0.0
 14
308.351444139336
 24
-49.19355132576652
 34
0.0
 15
378.9275153580399
 25
-169.9002876132281
 35
0.0
 16
379.3045585698602
 26
-99.32421639452412
 36
0.0
1001
ACAD
1000
DSTYLE
1002
{
1070
   344
1005
0
1070
   343
1005
0
1002
}
  0
LWPOLYLINE
  5
577
330
A
100
AcDbEntity
  8
A-001_Pan
100
AcDbPolyline
 90
        6
 70
   129
 43
0.0
 10
342.6027762870193
 20
-296.2098026751693
 10
505.2399020881327
 20
-133.5712431239177
 42
0.2310569994284382
 10
448.2480599180147
 20
56.87875977900762
 10
168.2480599180147
 20
56.87875977900761
 42
0.2310569994284436
 10
111.2562177478971
 20
-133.5712431239197
 10
273.8933435490102
 20
-296.2098026751693
 42
0.0876453021964176
  0
ARC
  5
58A
330
A
100
AcDbEntity
  8
A-001_Pan
  6
HIDDEN
100
AcDbCircle
 10
308.2480599180148
 20
167.0773862960039
 30
0.0
 40
153.8314089262096
100
AcDbArc
 50
93.82416542117431
 51
123.0268124723711
  0
ARC
  5
58B
330
A
100
AcDbEntity
  8
A-001_Pan
100
AcDbCircle
 10
308.2480599180148
 20
167.0773862960039
 30
0.0
 40
153.8314089262096
100
AcDbArc
 50
123.0268124723711
 51
155.5174080991553
  0
ARC
  5
58C
330
A
100
AcDbEntity
  8
A-001_Pan
  6
HIDDEN
100
AcDbCircle
 10
308.4531736723031
 20
167.0773862960039
 30
0.0
 40
153.8314089262096
100
AcDbArc
 50
56.97318752762844
 51
86.21337172717252
  0
ARC
  5
58D
330
A
100
AcDbEntity
  8
A-001_Pan
100
AcDbCircle
 10
308.4531736723031
 20
167.0773862960039
 30
0.0
 40
153.8314089262096
100
AcDbArc
 50
24.48259190084467
 51
56.97318752762844
  0
ENDSEC
  0
SECTION
  2
OBJECTS
  0
DICTIONARY
  5
19
330
0
100
AcDbDictionary
281
     1
  3
ACAD_2007HEADERVARS_RT
350
5C3
  3
ACAD_COLOR
350
43C
  3
ACAD_GROUP
350
1A
  3
ACAD_LAYOUT
350
1E
  3
ACAD_MATERIAL
350
412
  3
ACAD_MLEADERSTYLE
350
455
  3
ACAD_MLINESTYLE
350
1B
  3
ACAD_PLOTSETTINGS
350
22
  3
ACAD_PLOTSTYLENAME
350
1F
  3
ACAD_SCALELIST
350
43F
  3
ACAD_TABLESTYLE
350
43D
  3
ACAD_VISUALSTYLE
350
42B
  3
ACAD_WIPEOUT_VARS
350
23
  3
ACDB_RECOMPOSE_DATA
350
5C1
  3
AcDbVariableDictionary
350
5B8
  3
AEC_LAYERKEY_STYLES
350
59E
  3
AEC_PROPERTY_SET_DEFS
350
48D
  3
AEC_VARS
350
59C
  3
DWGPROPS
350
5C2
  0
DICTIONARY
  5
483
330
2
100
AcDbDictionary
280
     1
281
     1
  3
ACAD_LAYERFILTERS
360
5A0
  3
ACAD_LAYERSTATES
360
484
  3
ACLYDICTIONARY
360
59F
  0
DICTIONARY
  5
5A1
330
14
100
AcDbDictionary
280
     1
281
     1
  3
ADSK_XREC_LAYER_RECONCILED
360
5A2
  0
DICTIONARY
  5
477
330
476
100
AcDbDictionary
280
     1
281
     1
  3
ADSK_XREC_LAYER_RECONCILED
360
5A3
  0
DICTIONARY
  5
479
330
478
100
AcDbDictionary
280
     1
281
     1
  3
ADSK_XREC_LAYER_RECONCILED
360
5A4
  0
DICTIONARY
  5
47B
330
47A
100
AcDbDictionary
280
     1
281
     1
  3
ADSK_XREC_LAYER_RECONCILED
360
5A5
  0
DICTIONARY
  5
509
330
A
100
AcDbDictionary
280
     1
281
     1
  3
ACAD_SORTENTS
360
50A
  0
DICTIONARY
  5
5CF
330
45D
100
AcDbDictionary
280
     1
281
     1
  3
AcDbBlockTableRecordData
360
5D0
  0
DICTIONARY
  5
5D2
330
464
100
AcDbDictionary
280
     1
281
     1
  3
AcDbBlockTableRecordData
360
5D3
  0
DICTIONARY
  5
5C3
102
{ACAD_REACTORS
330
19
102
}
330
19
100
AcDbDictionary
281
     1
  3
DIMFXL
350
5C4
  3
DIMJOGANG
350
5C5
  0
DICTIONARY
  5
43C
102
{ACAD_REACTORS
330
19
102
}
330
19
100
AcDbDictionary
281
     1
  0
DICTIONARY
  5
1A
102
{ACAD_REACTORS
330
19
102
}
330
19
100
AcDbDictionary
281
     1
  0
DICTIONARY
  5
1E
102
{ACAD_REACTORS
330
19
102
}
330
19
100
AcDbDictionary
281
     1
  3
Layout1
350
21
  3
Model
350
20
  0
DICTIONARY
  5
412
102
{ACAD_REACTORS
330
19
102
}
330
19
100
AcDbDictionary
281
     1
  3
ByBlock
350
41B
  3
ByLayer
350
413
  3
Global
350
423
  0
DICTIONARY
  5
455
102
{ACAD_REACTORS
330
19
102
}
330
19
100
AcDbDictionary
281
     1
  3
Standard
350
456
  0
DICTIONARY
  5
1B
102
{ACAD_REACTORS
330
19
102
}
330
19
100
AcDbDictionary
281
     1
  3
Standard
350
1C
  0
DICTIONARY
  5
22
102
{ACAD_REACTORS
330
19
102
}
330
19
100
AcDbDictionary
281
     1
  0
ACDBDICTIONARYWDFLT
  5
1F
102
{ACAD_REACTORS
330
19
102
}
330
19
100
AcDbDictionary
281
     1
  3
Normal
350
1D
100
AcDbDictionaryWithDefault
340
1D
  0
DICTIONARY
  5
43F
102
{ACAD_REACTORS
330
19
102
}
330
19
100
AcDbDictionary
281
     1
  3
A0
350
440
  3
A1
350
441
  3
A2
350
442
  3
A3
350
443
  3
A4
350
444
  3
A5
350
445
  3
A6
350
446
  3
A7
350
447
  3
A8
350
448
  3
A9
350
449
  3
B0
350
44A
  3
B1
350
44B
  3
B2
350
44C
  3
B3
350
44D
  3
B4
350
44E
  3
B5
350
44F
  3
B6
350
450
  3
B7
350
451
  3
B8
350
452
  3
B9
350
453
  3
C0
350
454
  0
DICTIONARY
  5
43D
102
{ACAD_REACTORS
330
19
102
}
330
19
100
AcDbDictionary
281
     1
  3
Standard
350
43E
  0
DICTIONARY
  5
42B
102
{ACAD_REACTORS
330
19
102
}
330
19
100
AcDbDictionary
281
     1
  3
2dWireframe
350
431
  3
3D Hidden
350
433
  3
3dWireframe
350
432
  3
Basic
350
430
  3
Brighten
350
437
  3
ColorChange
350
43B
  3
Conceptual
350
434
  3
Dim
350
436
  3
Facepattern
350
43A
  3
Flat
350
42C
  3
FlatWithEdges
350
42D
  3
Gouraud
350
42E
  3
GouraudWithEdges
350
42F
  3
Linepattern
350
439
  3
Realistic
350
435
  3
Thicken
350
438
  0
WIPEOUTVARIABLES
  5
23
330
19
100
AcDbWipeoutVariables
 70
     1
  0
XRECORD
  5
5C1
102
{ACAD_REACTORS
330
19
102
}
330
19
100
AcDbXrecord
280
     1
 90
        1
330
43E
  0
DICTIONARY
  5
5B8
102
{ACAD_REACTORS
330
19
102
}
330
19
100
AcDbDictionary
281
     1
  3
CANNOSCALE
350
5BB
  3
CMLEADERSTYLE
350
5BA
  3
CTABLESTYLE
350
5B9
  3
DIMASSOC
350
5BE
  3
INDEXCTL
350
5BD
  3
SORTENTS
350
5BC
  0
DICTIONARY
  5
59E
102
{ACAD_REACTORS
330
19
102
}
330
19
100
AcDbDictionary
281
     1
  0
DICTIONARY
  5
48D
102
{ACAD_REACTORS
330
19
102
}
330
19
100
AcDbDictionary
281
     1
  0
DICTIONARY
  5
59C
102
{ACAD_REACTORS
330
19
102
}
330
19
100
AcDbDictionary
281
     1
  3
AEC_VARS_DWG_SETUP
350
59D
  0
XRECORD
  5
5C2
102
{ACAD_REACTORS
330
19
102
}
330
19
100
AcDbXrecord
280
     1
  1
DWGPROPS COOKIE
  2

  3

  4

  6

  7

  8
Admin
  9

300
=
301
=
302
=
303
=
304
=
305
=
306
=
307
=
308
=
309
=
 40
0.0096149768518519
 41
2454497.612179178
 42
2454497.621792709
  1

 90
        0
  0
DICTIONARY
  5
5A0
102
{ACAD_REACTORS
330
483
102
}
330
483
100
AcDbDictionary
281
     1
  0
DICTIONARY
  5
484
102
{ACAD_REACTORS
330
483
102
}
330
483
100
AcDbDictionary
281
     1
  0
DICTIONARY
  5
59F
102
{ACAD_REACTORS
330
483
102
}
330
483
100
AcDbDictionary
281
     1
1001
ACAD
1000
<All
  0
XRECORD
  5
5A2
102
{ACAD_REACTORS
330
5A1
102
}
330
5A1
100
AcDbXrecord
280
     1
290
     1
  0
XRECORD
  5
5A3
102
{ACAD_REACTORS
330
477
102
}
330
477
100
AcDbXrecord
280
     1
290
     1
  0
XRECORD
  5
5A4
102
{ACAD_REACTORS
330
479
102
}
330
479
100
AcDbXrecord
280
     1
290
     1
  0
XRECORD
  5
5A5
102
{ACAD_REACTORS
330
47B
102
}
330
47B
100
AcDbXrecord
280
     1
290
     1
  0
SORTENTSTABLE
  5
50A
102
{ACAD_REACTORS
330
509
102
}
330
509
100
AcDbSortentsTable
330
A
331
517
  5
517
331
58A
  5
58A
331
4BC
  5
4D2
331
3B
  5
3B
331
BC
  5
BC
331
577
  5
55F
331
B7
  5
B7
331
5C
  5
5C
331
BA
  5
BA
331
5A
  5
5A
331
B8
  5
B8
331
52F
  5
52F
331
4C7
  5
4DD
331
4D2
  5
508
331
4A6
  5
4BC
331
FF
  5
FF
331
58B
  5
58B
331
3C
  5
3C
331
4DD
  5
50B
331
491
  5
4B1
331
5D
  5
5D
331
BB
  5
BB
331
4B1
  5
4C7
331
5B
  5
5B
331
B9
  5
B9
331
40
  5
40
331
50C
  5
50C
331
59
  5
59
  0
DICTIONARY
  5
5D0
102
{ACAD_REACTORS
330
5CF
102
}
330
5CF
100
AcDbDictionary
280
     1
281
     1
  3
Edit
360
5D1
  0
DICTIONARY
  5
5D3
102
{ACAD_REACTORS
330
5D2
102
}
330
5D2
100
AcDbDictionary
280
     1
281
     1
  3
Edit
360
5D4
  0
XRECORD
  5
5C4
102
{ACAD_REACTORS
330
5C3
102
}
330
5C3
100
AcDbXrecord
280
     1
 40
0.2
  0
XRECORD
  5
5C5
102
{ACAD_REACTORS
330
5C3
102
}
330
5C3
100
AcDbXrecord
280
     1
 40
1.570796326794896
  0
LAYOUT
  5
21
102
{ACAD_XDICTIONARY
360
5C8
102
}
102
{ACAD_REACTORS
330
1E
102
}
330
1E
100
AcDbPlotSettings
  1

  2

  4

  6

 40
0.0
 41
0.0
 42
0.0
 43
0.0
 44
0.0
 45
0.0
 46
0.0
 47
0.0
 48
0.0
 49
0.0
140
0.0
141
0.0
142
1.0
143
1.0
 70
     0
 72
     0
 73
     0
 74
     0
  7

 75
     0
147
1.0
148
0.0
149
0.0
100
AcDbLayout
  1
Layout1
 70
     0
 71
     1
 10
0.0
 20
0.0
 11
12.0
 21
9.0
 12
0.0
 22
0.0
 32
0.0
 14
1.000000000000000E+20
 24
1.000000000000000E+20
 34
1.000000000000000E+20
 15
-1.000000000000000E+20
 25
-1.000000000000000E+20
 35
-1.000000000000000E+20
146
0.0
 13
0.0
 23
0.0
 33
0.0
 16
1.0
 26
0.0
 36
0.0
 17
0.0
 27
1.0
 37
0.0
 76
     0
330
B
  0
LAYOUT
  5
20
102
{ACAD_XDICTIONARY
360
5C6
102
}
102
{ACAD_REACTORS
330
1E
102
}
330
1E
100
AcDbPlotSettings
  1

  2
HP LaserJet 1100
  4
A4
  6

 40
6.011333465576171
 41
4.233341693878173
 42
6.011322021484375
 43
4.23333740234375
 44
209.9733276367187
 45
296.9259948730469
 46
0.0
 47
0.0
 48
0.0
 49
0.0
140
0.0
141
0.0
142
1.0
143
1.0
 70
 11264
 72
     1
 73
     1
 74
     0
  7

 75
     0
147
1.0
148
287.6071107310944
149
348.2173899235931
100
AcDbLayout
  1
Model
 70
     0
 71
     0
 10
0.0
 20
0.0
 11
0.0
 21
0.0
 12
0.0
 22
0.0
 32
0.0
 14
0.0
 24
0.0
 34
0.0
 15
0.0
 25
0.0
 35
0.0
146
0.0
 13
0.0
 23
0.0
 33
0.0
 16
0.0
 26
0.0
 36
0.0
 17
0.0
 27
0.0
 37
0.0
 76
     0
330
A
331
15
1001
ACAD_PSEXT
1000
HP LaserJet 1100
1000
HP LaserJet 1100
1000
LPT1:
1000

1070
     0
  0
MATERIAL
  5
41B
102
{ACAD_XDICTIONARY
360
41C
102
}
102
{ACAD_REACTORS
330
412
102
}
330
412
100
AcDbMaterial
  1
ByBlock
 72
     0
 43
0.0208333333333333
 43
0.0
 43
0.0
 43
0.0
 43
0.0
 43
0.0208333333333333
 43
0.0
 43
0.0
 43
0.0
 43
0.0
 43
1.0
 43
0.0
 43
0.0
 43
0.0
 43
0.0
 43
1.0
 77
     0
 47
0.0208333333333333
 47
0.0
 47
0.0
 47
0.0
 47
0.0
 47
0.0208333333333333
 47
0.0
 47
0.0
 47
0.0
 47
0.0
 47
1.0
 47
0.0
 47
0.0
 47
0.0
 47
0.0
 47
1.0
171
     0
 49
0.0208333333333333
 49
0.0
 49
0.0
 49
0.0
 49
0.0
 49
0.0208333333333333
 49
0.0
 49
0.0
 49
0.0
 49
0.0
 49
1.0
 49
0.0
 49
0.0
 49
0.0
 49
0.0
 49
1.0
175
     0
142
0.0208333333333333
142
0.0
142
0.0
142
0.0
142
0.0
142
0.0208333333333333
142
0.0
142
0.0
142
0.0
142
0.0
142
1.0
142
0.0
142
0.0
142
0.0
142
0.0
142
1.0
179
     0
144
0.0208333333333333
144
0.0
144
0.0
144
0.0
144
0.0
144
0.0208333333333333
144
0.0
144
0.0
144
0.0
144
0.0
144
1.0
144
0.0
144
0.0
144
0.0
144
0.0
144
1.0
147
0.0208333333333333
147
0.0
147
0.0
147
0.0
147
0.0
147
0.0208333333333333
147
0.0
147
0.0
147
0.0
147
0.0
147
1.0
147
0.0
147
0.0
147
0.0
147
0.0
147
1.0
  0
MATERIAL
  5
413
102
{ACAD_XDICTIONARY
360
414
102
}
102
{ACAD_REACTORS
330
412
102
}
330
412
100
AcDbMaterial
  1
ByLayer
 72
     0
 43
0.0208333333333333
 43
0.0
 43
0.0
 43
0.0
 43
0.0
 43
0.0208333333333333
 43
0.0
 43
0.0
 43
0.0
 43
0.0
 43
1.0
 43
0.0
 43
0.0
 43
0.0
 43
0.0
 43
1.0
 77
     0
 47
0.0208333333333333
 47
0.0
 47
0.0
 47
0.0
 47
0.0
 47
0.0208333333333333
 47
0.0
 47
0.0
 47
0.0
 47
0.0
 47
1.0
 47
0.0
 47
0.0
 47
0.0
 47
0.0
 47
1.0
171
     0
 49
0.0208333333333333
 49
0.0
 49
0.0
 49
0.0
 49
0.0
 49
0.0208333333333333
 49
0.0
 49
0.0
 49
0.0
 49
0.0
 49
1.0
 49
0.0
 49
0.0
 49
0.0
 49
0.0
 49
1.0
175
     0
142
0.0208333333333333
142
0.0
142
0.0
142
0.0
142
0.0
142
0.0208333333333333
142
0.0
142
0.0
142
0.0
142
0.0
142
1.0
142
0.0
142
0.0
142
0.0
142
0.0
142
1.0
179
     0
144
0.0208333333333333
144
0.0
144
0.0
144
0.0
144
0.0
144
0.0208333333333333
144
0.0
144
0.0
144
0.0
144
0.0
144
1.0
144
0.0
144
0.0
144
0.0
144
0.0
144
1.0
147
0.0208333333333333
147
0.0
147
0.0
147
0.0
147
0.0
147
0.0208333333333333
147
0.0
147
0.0
147
0.0
147
0.0
147
1.0
147
0.0
147
0.0
147
0.0
147
0.0
147
1.0
  0
MATERIAL
  5
423
102
{ACAD_XDICTIONARY
360
424
102
}
102
{ACAD_REACTORS
330
412
102
}
330
412
100
AcDbMaterial
  1
Global
 72
     0
 43
0.0208333333333333
 43
0.0
 43
0.0
 43
0.0
 43
0.0
 43
0.0208333333333333
 43
0.0
 43
0.0
 43
0.0
 43
0.0
 43
1.0
 43
0.0
 43
0.0
 43
0.0
 43
0.0
 43
1.0
 77
     0
 47
0.0208333333333333
 47
0.0
 47
0.0
 47
0.0
 47
0.0
 47
0.0208333333333333
 47
0.0
 47
0.0
 47
0.0
 47
0.0
 47
1.0
 47
0.0
 47
0.0
 47
0.0
 47
0.0
 47
1.0
171
     0
 49
0.0208333333333333
 49
0.0
 49
0.0
 49
0.0
 49
0.0
 49
0.0208333333333333
 49
0.0
 49
0.0
 49
0.0
 49
0.0
 49
1.0
 49
0.0
 49
0.0
 49
0.0
 49
0.0
 49
1.0
175
     0
142
0.0208333333333333
142
0.0
142
0.0
142
0.0
142
0.0
142
0.0208333333333333
142
0.0
142
0.0
142
0.0
142
0.0
142
1.0
142
0.0
142
0.0
142
0.0
142
0.0
142
1.0
179
     0
144
0.0208333333333333
144
0.0
144
0.0
144
0.0
144
0.0
144
0.0208333333333333
144
0.0
144
0.0
144
0.0
144
0.0
144
1.0
144
0.0
144
0.0
144
0.0
144
0.0
144
1.0
147
0.0208333333333333
147
0.0
147
0.0
147
0.0
147
0.0
147
0.0208333333333333
147
0.0
147
0.0
147
0.0
147
0.0
147
1.0
147
0.0
147
0.0
147
0.0
147
0.0
147
1.0
  0
MLEADERSTYLE
  5
456
102
{ACAD_REACTORS
330
455
102
}
330
455
100
AcDbMLeaderStyle
170
     2
171
     1
172
     0
 90
        2
 40
0.0
 41
0.0
173
     1
 91
-1056964608
340
11
 92
       -2
290
     1
 42
2.0
291
     1
 43
0.36
  3
Standard
 44
4.0
300

342
17
174
     1
178
     6
175
     1
176
     0
 93
-1056964608
 45
4.0
292
     0
297
     0
 46
4.0
 94
-1056964608
 47
1.0
 49
1.0
140
1.0
293
     1
141
0.0
294
     1
177
     0
142
1.0
295
     0
296
     0
143
0.125
1001
ACAD_MLEADERVER
1070
     2
  0
MLINESTYLE
  5
1C
102
{ACAD_REACTORS
330
1B
102
}
330
1B
100
AcDbMlineStyle
  2
STANDARD
 70
     0
  3

 62
     0
 51
90.0
 52
90.0
 71
     2
 49
0.5
 62
   256
  6
BYLAYER
 49
-0.5
 62
   256
  6
BYLAYER
  0
ACDBPLACEHOLDER
  5
1D
102
{ACAD_REACTORS
330
1F
102
}
330
1F
  0
SCALE
  5
440
102
{ACAD_REACTORS
330
43F
102
}
330
43F
100
AcDbScale
 70
     0
300
1:1
140
1.0
141
1.0
290
     1
  0
SCALE
  5
441
102
{ACAD_REACTORS
330
43F
102
}
330
43F
100
AcDbScale
 70
     0
300
1:2
140
1.0
141
2.0
290
     0
  0
SCALE
  5
442
102
{ACAD_REACTORS
330
43F
102
}
330
43F
100
AcDbScale
 70
     0
300
1:2.5
140
1.0
141
2.5
290
     0
  0
SCALE
  5
443
102
{ACAD_REACTORS
330
43F
102
}
330
43F
100
AcDbScale
 70
     0
300
1:5
140
1.0
141
5.0
290
     0
  0
SCALE
  5
444
102
{ACAD_REACTORS
330
43F
102
}
330
43F
100
AcDbScale
 70
     0
300
1:7.5
140
1.0
141
7.5
290
     0
  0
SCALE
  5
445
102
{ACAD_REACTORS
330
43F
102
}
330
43F
100
AcDbScale
 70
     0
300
1:10
140
1.0
141
10.0
290
     0
  0
SCALE
  5
446
102
{ACAD_REACTORS
330
43F
102
}
330
43F
100
AcDbScale
 70
     0
300
1:20
140
1.0
141
20.0
290
     0
  0
SCALE
  5
447
102
{ACAD_REACTORS
330
43F
102
}
330
43F
100
AcDbScale
 70
     0
300
1:25
140
1.0
141
25.0
290
     0
  0
SCALE
  5
448
102
{ACAD_REACTORS
330
43F
102
}
330
43F
100
AcDbScale
 70
     0
300
1:50
140
1.0
141
50.0
290
     0
  0
SCALE
  5
449
102
{ACAD_REACTORS
330
43F
102
}
330
43F
100
AcDbScale
 70
     0
300
1:75
140
1.0
141
75.0
290
     0
  0
SCALE
  5
44A
102
{ACAD_REACTORS
330
43F
102
}
330
43F
100
AcDbScale
 70
     0
300
1:100
140
1.0
141
100.0
290
     0
  0
SCALE
  5
44B
102
{ACAD_REACTORS
330
43F
102
}
330
43F
100
AcDbScale
 70
     0
300
1:150
140
1.0
141
150.0
290
     0
  0
SCALE
  5
44C
102
{ACAD_REACTORS
330
43F
102
}
330
43F
100
AcDbScale
 70
     0
300
1:200
140
1.0
141
200.0
290
     0
  0
SCALE
  5
44D
102
{ACAD_REACTORS
330
43F
102
}
330
43F
100
AcDbScale
 70
     0
300
1:250
140
1.0
141
250.0
290
     0
  0
SCALE
  5
44E
102
{ACAD_REACTORS
330
43F
102
}
330
43F
100
AcDbScale
 70
     0
300
1:500
140
1.0
141
500.0
290
     0
  0
SCALE
  5
44F
102
{ACAD_REACTORS
330
43F
102
}
330
43F
100
AcDbScale
 70
     0
300
1:750
140
1.0
141
750.0
290
     0
  0
SCALE
  5
450
102
{ACAD_REACTORS
330
43F
102
}
330
43F
100
AcDbScale
 70
     0
300
1:1000
140
1.0
141
1000.0
290
     0
  0
SCALE
  5
451
102
{ACAD_REACTORS
330
43F
102
}
330
43F
100
AcDbScale
 70
     0
300
1:1250
140
1.0
141
1250.0
290
     0
  0
SCALE
  5
452
102
{ACAD_REACTORS
330
43F
102
}
330
43F
100
AcDbScale
 70
     0
300
1:2000
140
1.0
141
2000.0
290
     0
  0
SCALE
  5
453
102
{ACAD_REACTORS
330
43F
102
}
330
43F
100
AcDbScale
 70
     0
300
1:2500
140
1.0
141
2500.0
290
     0
  0
SCALE
  5
454
102
{ACAD_REACTORS
330
43F
102
}
330
43F
100
AcDbScale
 70
     0
300
1:5000
140
1.0
141
5000.0
290
     0
  0
TABLESTYLE
  5
43E
102
{ACAD_XDICTIONARY
360
5BF
102
}
102
{ACAD_REACTORS
330
43D
102
}
330
43D
100
AcDbTableStyle
  3
Standard
 70
     0
 71
     0
 40
1.5
 41
1.5
280
     0
281
     0
  7
Standard
140
4.5
170
     2
 62
     0
 63
     7
283
     0
274
    -2
284
     1
 64
     0
275
    -2
285
     1
 65
     0
276
    -2
286
     1
 66
     0
277
    -2
287
     1
 67
     0
278
    -2
288
     1
 68
     0
279
    -2
289
     1
 69
     0
  7
Standard
140
6.0
170
     5
 62
     0
 63
     7
283
     0
274
    -2
284
     1
 64
     0
275
    -2
285
     1
 65
     0
276
    -2
286
     1
 66
     0
277
    -2
287
     1
 67
     0
278
    -2
288
     1
 68
     0
279
    -2
289
     1
 69
     0
  7
Standard
140
4.5
170
     5
 62
     0
 63
     7
283
     0
274
    -2
284
     1
 64
     0
275
    -2
285
     1
 65
     0
276
    -2
286
     1
 66
     0
277
    -2
287
     1
 67
     0
278
    -2
288
     1
 68
     0
279
    -2
289
     1
 69
     0
  0
VISUALSTYLE
  5
431
102
{ACAD_REACTORS
330
42B
102
}
330
42B
100
AcDbVisualStyle
  2
2dWireframe
 70
     4
 71
     0
 72
     2
 73
     0
 90
        0
 40
-0.6
 41
-30.0
 62
     5
 63
     7
 74
     1
 91
        4
 64
     7
 65
   257
 75
     1
175
     1
 42
1.0
 92
        0
 66
   257
 43
1.0
 76
     1
 77
     6
 78
     2
 67
     7
 79
     5
170
     0
171
     0
290
     0
174
     0
 93
        1
 44
0.0
173
     0
291
     0
 45
0.0
1001
ACAD
1000
AcDbSavedByObjectVersion
1070
     0
  0
VISUALSTYLE
  5
433
102
{ACAD_REACTORS
330
42B
102
}
330
42B
100
AcDbVisualStyle
  2
3D Hidden
 70
     6
 71
     1
 72
     2
 73
     2
 90
        0
 40
-0.6
 41
-30.0
 62
     5
 63
     7
 74
     2
 91
        2
 64
     7
 65
   257
 75
     2
175
     1
 42
40.0
 92
        0
 66
   257
 43
1.0
 76
     1
 77
     6
 78
     2
 67
     7
 79
     3
170
     0
171
     0
290
     0
174
     0
 93
        1
 44
0.0
173
     0
291
     0
 45
0.0
1001
ACAD
1000
AcDbSavedByObjectVersion
1070
     0
  0
VISUALSTYLE
  5
432
102
{ACAD_REACTORS
330
42B
102
}
330
42B
100
AcDbVisualStyle
  2
3dWireframe
 70
     5
 71
     0
 72
     2
 73
     0
 90
        0
 40
-0.6
 41
-30.0
 62
     5
 63
     7
 74
     1
 91
        4
 64
     7
 65
   257
 75
     1
175
     1
 42
1.0
 92
        0
 66
   257
 43
1.0
 76
     1
 77
     6
 78
     2
 67
     7
 79
     5
170
     0
171
     0
290
     0
174
     0
 93
        1
 44
0.0
173
     0
291
     0
 45
0.0
1001
ACAD
1000
AcDbSavedByObjectVersion
1070
     0
  0
VISUALSTYLE
  5
430
102
{ACAD_REACTORS
330
42B
102
}
330
42B
100
AcDbVisualStyle
  2
Basic
 70
     7
 71
     1
 72
     0
 73
     1
 90
        0
 40
-0.6
 41
-30.0
 62
     5
 63
     7
 74
     0
 91
        4
 64
     7
 65
   257
 75
     1
175
     1
 42
1.0
 92
        8
 66
     7
 43
1.0
 76
     1
 77
     6
 78
     2
 67
     7
 79
     5
170
     0
171
     0
290
     0
174
     0
 93
        1
 44
0.0
173
     0
291
     1
 45
0.0
1001
ACAD
1000
AcDbSavedByObjectVersion
1070
     0
  0
VISUALSTYLE
  5
437
102
{ACAD_REACTORS
330
42B
102
}
330
42B
100
AcDbVisualStyle
  2
Brighten
 70
    12
 71
     2
 72
     2
 73
     0
 90
        0
 40
-0.6
 41
-30.0
 62
     5
 63
     7
 74
     1
 91
        4
 64
     7
 65
   257
 75
     1
175
     1
 42
1.0
 92
        8
 66
     7
 43
1.0
 76
     1
 77
     6
 78
     2
 67
     7
 79
     5
170
     0
171
     0
290
     0
174
     0
 93
        1
 44
50.0
173
     0
291
     1
 45
0.0
1001
ACAD
1000
AcDbSavedByObjectVersion
1070
     0
  0
VISUALSTYLE
  5
43B
102
{ACAD_REACTORS
330
42B
102
}
330
42B
100
AcDbVisualStyle
  2
ColorChange
 70
    16
 71
     2
 72
     2
 73
     3
 90
        0
 40
-0.6
 41
-30.0
 62
     5
 63
     8
 74
     1
 91
        4
 64
     7
 65
   257
 75
     1
175
     1
 42
1.0
 92
        8
 66
     8
 43
1.0
 76
     1
 77
     6
 78
     2
 67
     7
 79
     5
170
     0
171
     0
290
     0
174
     0
 93
        1
 44
0.0
173
     0
291
     1
 45
0.0
1001
ACAD
1000
AcDbSavedByObjectVersion
1070
     0
  0
VISUALSTYLE
  5
434
102
{ACAD_REACTORS
330
42B
102
}
330
42B
100
AcDbVisualStyle
  2
Conceptual
 70
     9
 71
     3
 72
     2
 73
     0
 90
        0
 40
-0.6
 41
-30.0
 62
     5
 63
     7
 74
     2
 91
        2
 64
     7
 65
   257
 75
     1
175
     1
 42
40.0
 92
        8
 66
     7
 43
1.0
 76
     1
 77
     6
 78
     2
 67
     7
 79
     3
170
     0
171
     0
290
     0
174
     0
 93
        1
 44
0.0
173
     0
291
     0
 45
0.0
1001
ACAD
1000
AcDbSavedByObjectVersion
1070
     0
  0
VISUALSTYLE
  5
436
102
{ACAD_REACTORS
330
42B
102
}
330
42B
100
AcDbVisualStyle
  2
Dim
 70
    11
 71
     2
 72
     2
 73
     0
 90
        0
 40
-0.6
 41
-30.0
 62
     5
 63
     7
 74
     1
 91
        4
 64
     7
 65
   257
 75
     1
175
     1
 42
1.0
 92
        8
 66
     7
 43
1.0
 76
     1
 77
     6
 78
     2
 67
     7
 79
     5
170
     0
171
     0
290
     0
174
     0
 93
        1
 44
-50.0
173
     0
291
     1
 45
0.0
1001
ACAD
1000
AcDbSavedByObjectVersion
1070
     0
  0
VISUALSTYLE
  5
43A
102
{ACAD_REACTORS
330
42B
102
}
330
42B
100
AcDbVisualStyle
  2
Facepattern
 70
    15
 71
     2
 72
     2
 73
     0
 90
        0
 40
-0.6
 41
-30.0
 62
     5
 63
     7
 74
     1
 91
        4
 64
     7
 65
   257
 75
     1
175
     1
 42
1.0
 92
        8
 66
     7
 43
1.0
 76
     1
 77
     6
 78
     2
 67
     7
 79
     5
170
     0
171
     0
290
     0
174
     0
 93
        1
 44
0.0
173
     0
291
     1
 45
0.0
1001
ACAD
1000
AcDbSavedByObjectVersion
1070
     0
  0
VISUALSTYLE
  5
42C
102
{ACAD_REACTORS
330
42B
102
}
330
42B
100
AcDbVisualStyle
  2
Flat
 70
     0
 71
     2
 72
     1
 73
     1
 90
        2
 40
-0.6
 41
30.0
 62
     5
 63
     7
 74
     0
 91
        4
 64
     7
 65
   257
 75
     1
175
     1
 42
1.0
 92
        8
 66
     7
 43
1.0
 76
     1
 77
     6
 78
     2
 67
     7
 79
     5
170
     0
171
     0
290
     0
174
     0
 93
       13
 44
0.0
173
     0
291
     1
 45
0.0
1001
ACAD
1000
AcDbSavedByObjectVersion
1070
     0
  0
VISUALSTYLE
  5
42D
102
{ACAD_REACTORS
330
42B
102
}
330
42B
100
AcDbVisualStyle
  2
FlatWithEdges
 70
     1
 71
     2
 72
     1
 73
     1
 90
        2
 40
-0.6
 41
30.0
 62
     5
 63
     7
 74
     1
 91
        4
 64
     7
 65
   257
 75
     1
175
     1
 42
1.0
 92
        0
 66
   257
 43
1.0
 76
     1
 77
     6
 78
     2
 67
     7
 79
     5
170
     0
171
     0
290
     0
174
     0
 93
       13
 44
0.0
173
     0
291
     1
 45
0.0
1001
ACAD
1000
AcDbSavedByObjectVersion
1070
     0
  0
VISUALSTYLE
  5
42E
102
{ACAD_REACTORS
330
42B
102
}
330
42B
100
AcDbVisualStyle
  2
Gouraud
 70
     2
 71
     2
 72
     2
 73
     1
 90
        2
 40
-0.6
 41
30.0
 62
     5
 63
     7
 74
     0
 91
        4
 64
     7
 65
   257
 75
     1
175
     1
 42
1.0
 92
        0
 66
     7
 43
1.0
 76
     1
 77
     6
 78
     2
 67
     7
 79
     5
170
     0
171
     0
290
     0
174
     0
 93
       13
 44
0.0
173
     0
291
     1
 45
0.0
1001
ACAD
1000
AcDbSavedByObjectVersion
1070
     0
  0
VISUALSTYLE
  5
42F
102
{ACAD_REACTORS
330
42B
102
}
330
42B
100
AcDbVisualStyle
  2
GouraudWithEdges
 70
     3
 71
     2
 72
     2
 73
     1
 90
        2
 40
-0.6
 41
30.0
 62
     5
 63
     7
 74
     1
 91
        4
 64
     7
 65
   257
 75
     1
175
     1
 42
1.0
 92
        0
 66
   257
 43
1.0
 76
     1
 77
     6
 78
     2
 67
     7
 79
     5
170
     0
171
     0
290
     0
174
     0
 93
       13
 44
0.0
173
     0
291
     1
 45
0.0
1001
ACAD
1000
AcDbSavedByObjectVersion
1070
     0
  0
VISUALSTYLE
  5
439
102
{ACAD_REACTORS
330
42B
102
}
330
42B
100
AcDbVisualStyle
  2
Linepattern
 70
    14
 71
     2
 72
     2
 73
     0
 90
        0
 40
-0.6
 41
-30.0
 62
     5
 63
     7
 74
     1
 91
        4
 64
     7
 65
   257
 75
     7
175
     7
 42
1.0
 92
        8
 66
     7
 43
1.0
 76
     1
 77
     6
 78
     2
 67
     7
 79
     5
170
     0
171
     0
290
     0
174
     0
 93
        1
 44
0.0
173
     0
291
     1
 45
0.0
1001
ACAD
1000
AcDbSavedByObjectVersion
1070
     0
  0
VISUALSTYLE
  5
435
102
{ACAD_REACTORS
330
42B
102
}
330
42B
100
AcDbVisualStyle
  2
Realistic
 70
     8
 71
     2
 72
     2
 73
     0
 90
        0
 40
-0.6
 41
-30.0
 62
     5
 63
     7
 74
     1
 91
        0
 64
     7
 65
   257
 75
     1
175
     1
 42
1.0
 92
        8
 66
     8
 43
1.0
 76
     1
 77
     6
 78
     2
 67
     7
 79
     5
170
     0
171
     0
290
     0
174
     0
 93
       13
 44
0.0
173
     0
291
     0
 45
0.0
1001
ACAD
1000
AcDbSavedByObjectVersion
1070
     0
  0
VISUALSTYLE
  5
438
102
{ACAD_REACTORS
330
42B
102
}
330
42B
100
AcDbVisualStyle
  2
Thicken
 70
    13
 71
     2
 72
     2
 73
     0
 90
        0
 40
-0.6
 41
-30.0
 62
     5
 63
     7
 74
     1
 91
        4
 64
     7
 65
   257
 75
     1
175
     1
 42
1.0
 92
       12
 66
     7
 43
1.0
 76
     1
 77
     6
 78
     2
 67
     7
 79
     5
170
     0
171
     0
290
     0
174
     0
 93
        1
 44
0.0
173
     0
291
     1
 45
0.0
1001
ACAD
1000
AcDbSavedByObjectVersion
1070
     0
  0
DICTIONARYVAR
  5
5BB
102
{ACAD_REACTORS
330
5B8
102
}
330
5B8
100
DictionaryVariables
280
     0
  1
1:1
  0
DICTIONARYVAR
  5
5BA
102
{ACAD_REACTORS
330
5B8
102
}
330
5B8
100
DictionaryVariables
280
     0
  1
STANDARD
  0
DICTIONARYVAR
  5
5B9
102
{ACAD_REACTORS
330
5B8
102
}
330
5B8
100
DictionaryVariables
280
     0
  1
STANDARD
  0
DICTIONARYVAR
  5
5BE
102
{ACAD_REACTORS
330
5B8
102
}
330
5B8
100
DictionaryVariables
280
     0
  1
1
  0
DICTIONARYVAR
  5
5BD
102
{ACAD_REACTORS
330
5B8
102
}
330
5B8
100
DictionaryVariables
280
     0
  1
0
  0
DICTIONARYVAR
  5
5BC
102
{ACAD_REACTORS
330
5B8
102
}
330
5B8
100
DictionaryVariables
280
     0
  1
127
  0
XRECORD
  5
5D1
102
{ACAD_REACTORS
330
5D0
102
}
330
5D0
100
AcDbXrecord
280
     1
1070
     0
1070
     1
1070
     1
  0
XRECORD
  5
5D4
102
{ACAD_REACTORS
330
5D3
102
}
330
5D3
100
AcDbXrecord
280
     1
1070
     0
1070
     1
1070
     1
  0
DICTIONARY
  5
5C8
330
21
100
AcDbDictionary
280
     1
281
     1
  3
ACAD_XREC_ROUNDTRIP
360
5C9
  0
DICTIONARY
  5
5C6
330
20
100
AcDbDictionary
280
     1
281
     1
  3
ACAD_XREC_ROUNDTRIP
360
5C7
  0
DICTIONARY
  5
41C
330
41B
100
AcDbDictionary
280
     1
281
     1
  3
ACAD_XREC_ROUNDTRIP
360
5CC
  3
BUMPTILE
360
41E
  3
DIFFUSETILE
360
41D
  3
OPACITYTILE
360
421
  3
REFLECTIONTILE
360
420
  3
REFRACTIONTILE
360
422
  3
SPECULARTILE
360
41F
  0
DICTIONARY
  5
414
330
413
100
AcDbDictionary
280
     1
281
     1
  3
ACAD_XREC_ROUNDTRIP
360
5CB
  3
BUMPTILE
360
416
  3
DIFFUSETILE
360
415
  3
OPACITYTILE
360
419
  3
REFLECTIONTILE
360
418
  3
REFRACTIONTILE
360
41A
  3
SPECULARTILE
360
417
  0
DICTIONARY
  5
424
330
423
100
AcDbDictionary
280
     1
281
     1
  3
ACAD_XREC_ROUNDTRIP
360
5CD
  3
BUMPTILE
360
426
  3
DIFFUSETILE
360
425
  3
OPACITYTILE
360
429
  3
REFLECTIONTILE
360
428
  3
REFRACTIONTILE
360
42A
  3
SPECULARTILE
360
427
  0
DICTIONARY
  5
5BF
330
43E
100
AcDbDictionary
280
     1
281
     1
  3
ACAD_ROUNDTRIP_2008_TABLESTYLE_CELLSTYLEMAP
360
5C0
  3
ACAD_XREC_ROUNDTRIP
360
5CE
  0
XRECORD
  5
5C9
102
{ACAD_REACTORS
330
5C8
102
}
330
5C8
100
AcDbXrecord
280
     1
102
SHADEPLOT
 70
     0
102
SHADEPLOTRESLEVEL
 70
     2
102
SHADEPLOTCUSTOMDPI
 70
   300
  0
XRECORD
  5
5C7
102
{ACAD_REACTORS
330
5C6
102
}
330
5C6
100
AcDbXrecord
280
     1
102
SHADEPLOT
 70
     0
102
SHADEPLOTRESLEVEL
 70
     2
102
SHADEPLOTCUSTOMDPI
 70
   300
  0
XRECORD
  5
5CC
102
{ACAD_REACTORS
330
41C
102
}
330
41C
100
AcDbXrecord
280
     1
102
MATERIAL
148
0.0
149
0.0
149
0.0
 93
        0
 94
      127
282
     0
 72
     0
 77
     0
171
     0
175
     0
179
     0
273
     0
  0
XRECORD
  5
41E
102
{ACAD_REACTORS
330
41C
102
}
330
41C
100
AcDbXrecord
280
     1
270
     1
271
     1
  0
XRECORD
  5
41D
102
{ACAD_REACTORS
330
41C
102
}
330
41C
100
AcDbXrecord
280
     1
270
     1
271
     1
  0
XRECORD
  5
421
102
{ACAD_REACTORS
330
41C
102
}
330
41C
100
AcDbXrecord
280
     1
270
     1
271
     1
  0
XRECORD
  5
420
102
{ACAD_REACTORS
330
41C
102
}
330
41C
100
AcDbXrecord
280
     1
270
     1
271
     1
  0
XRECORD
  5
422
102
{ACAD_REACTORS
330
41C
102
}
330
41C
100
AcDbXrecord
280
     1
270
     1
271
     1
  0
XRECORD
  5
41F
102
{ACAD_REACTORS
330
41C
102
}
330
41C
100
AcDbXrecord
280
     1
270
     1
271
     1
  0
XRECORD
  5
5CB
102
{ACAD_REACTORS
330
414
102
}
330
414
100
AcDbXrecord
280
     1
102
MATERIAL
148
0.0
149
0.0
149
0.0
 93
        0
 94
      127
282
     0
 72
     0
 77
     0
171
     0
175
     0
179
     0
273
     0
  0
XRECORD
  5
416
102
{ACAD_REACTORS
330
414
102
}
330
414
100
AcDbXrecord
280
     1
270
     1
271
     1
  0
XRECORD
  5
415
102
{ACAD_REACTORS
330
414
102
}
330
414
100
AcDbXrecord
280
     1
270
     1
271
     1
  0
XRECORD
  5
419
102
{ACAD_REACTORS
330
414
102
}
330
414
100
AcDbXrecord
280
     1
270
     1
271
     1
  0
XRECORD
  5
418
102
{ACAD_REACTORS
330
414
102
}
330
414
100
AcDbXrecord
280
     1
270
     1
271
     1
  0
XRECORD
  5
41A
102
{ACAD_REACTORS
330
414
102
}
330
414
100
AcDbXrecord
280
     1
270
     1
271
     1
  0
XRECORD
  5
417
102
{ACAD_REACTORS
330
414
102
}
330
414
100
AcDbXrecord
280
     1
270
     1
271
     1
  0
XRECORD
  5
5CD
102
{ACAD_REACTORS
330
424
102
}
330
424
100
AcDbXrecord
280
     1
102
MATERIAL
148
0.0
149
0.0
149
0.0
 93
        0
 94
      127
282
     0
 72
     0
 77
     0
171
     0
175
     0
179
     0
273
     0
  0
XRECORD
  5
426
102
{ACAD_REACTORS
330
424
102
}
330
424
100
AcDbXrecord
280
     1
270
     1
271
     1
  0
XRECORD
  5
425
102
{ACAD_REACTORS
330
424
102
}
330
424
100
AcDbXrecord
280
     1
270
     1
271
     1
  0
XRECORD
  5
429
102
{ACAD_REACTORS
330
424
102
}
330
424
100
AcDbXrecord
280
     1
270
     1
271
     1
  0
XRECORD
  5
428
102
{ACAD_REACTORS
330
424
102
}
330
424
100
AcDbXrecord
280
     1
270
     1
271
     1
  0
XRECORD
  5
42A
102
{ACAD_REACTORS
330
424
102
}
330
424
100
AcDbXrecord
280
     1
270
     1
271
     1
  0
XRECORD
  5
427
102
{ACAD_REACTORS
330
424
102
}
330
424
100
AcDbXrecord
280
     1
270
     1
271
     1
  0
CELLSTYLEMAP
  5
5C0
102
{ACAD_REACTORS
330
5BF
102
}
330
5BF
100
AcDbCellStyleMap
 90
        3
300
CELLSTYLE
  1
TABLEFORMAT_BEGIN
 90
        5
170
     1
 91
        0
 92
    32768
 62
   257
 93
        1
300
CONTENTFORMAT
  1
CONTENTFORMAT_BEGIN
 90
        0
 91
        0
 92
      512
 93
        0
300

 40
0.0
140
1.0
 94
        5
 62
     0
340
17
144
6.0
309
CONTENTFORMAT_END
171
     1
301
MARGIN
  1
CELLMARGIN_BEGIN
 40
1.5
 40
1.5
 40
1.5
 40
1.5
 40
4.5
 40
4.5
309
CELLMARGIN_END
 94
        6
 95
        1
302
GRIDFORMAT
  1
GRIDFORMAT_BEGIN
 90
        0
 91
        1
 62
     0
 92
       -2
340
0
 93
        0
 40
1.125
309
GRIDFORMAT_END
 95
        2
302
GRIDFORMAT
  1
GRIDFORMAT_BEGIN
 90
        0
 91
        1
 62
     0
 92
       -2
340
0
 93
        0
 40
1.125
309
GRIDFORMAT_END
 95
        4
302
GRIDFORMAT
  1
GRIDFORMAT_BEGIN
 90
        0
 91
        1
 62
     0
 92
       -2
340
0
 93
        0
 40
1.125
309
GRIDFORMAT_END
 95
        8
302
GRIDFORMAT
  1
GRIDFORMAT_BEGIN
 90
        0
 91
        1
 62
     0
 92
       -2
340
0
 93
        0
 40
1.125
309
GRIDFORMAT_END
 95
       16
302
GRIDFORMAT
  1
GRIDFORMAT_BEGIN
 90
        0
 91
        1
 62
     0
 92
       -2
340
0
 93
        0
 40
1.125
309
GRIDFORMAT_END
 95
       32
302
GRIDFORMAT
  1
GRIDFORMAT_BEGIN
 90
        0
 91
        1
 62
     0
 92
       -2
340
0
 93
        0
 40
1.125
309
GRIDFORMAT_END
309
TABLEFORMAT_END
  1
CELLSTYLE_BEGIN
 90
        1
 91
        1
300
_TITLE
309
CELLSTYLE_END
300
CELLSTYLE
  1
TABLEFORMAT_BEGIN
 90
        5
170
     1
 91
        0
 92
        0
 62
   257
 93
        1
300
CONTENTFORMAT
  1
CONTENTFORMAT_BEGIN
 90
        0
 91
        0
 92
      512
 93
        0
300

 40
0.0
140
1.0
 94
        5
 62
     0
340
17
144
4.5
309
CONTENTFORMAT_END
171
     1
301
MARGIN
  1
CELLMARGIN_BEGIN
 40
1.5
 40
1.5
 40
1.5
 40
1.5
 40
4.5
 40
4.5
309
CELLMARGIN_END
 94
        6
 95
        1
302
GRIDFORMAT
  1
GRIDFORMAT_BEGIN
 90
        0
 91
        1
 62
     0
 92
       -2
340
0
 93
        0
 40
1.125
309
GRIDFORMAT_END
 95
        2
302
GRIDFORMAT
  1
GRIDFORMAT_BEGIN
 90
        0
 91
        1
 62
     0
 92
       -2
340
0
 93
        0
 40
1.125
309
GRIDFORMAT_END
 95
        4
302
GRIDFORMAT
  1
GRIDFORMAT_BEGIN
 90
        0
 91
        1
 62
     0
 92
       -2
340
0
 93
        0
 40
1.125
309
GRIDFORMAT_END
 95
        8
302
GRIDFORMAT
  1
GRIDFORMAT_BEGIN
 90
        0
 91
        1
 62
     0
 92
       -2
340
0
 93
        0
 40
1.125
309
GRIDFORMAT_END
 95
       16
302
GRIDFORMAT
  1
GRIDFORMAT_BEGIN
 90
        0
 91
        1
 62
     0
 92
       -2
340
0
 93
        0
 40
1.125
309
GRIDFORMAT_END
 95
       32
302
GRIDFORMAT
  1
GRIDFORMAT_BEGIN
 90
        0
 91
        1
 62
     0
 92
       -2
340
0
 93
        0
 40
1.125
309
GRIDFORMAT_END
309
TABLEFORMAT_END
  1
CELLSTYLE_BEGIN
 90
        2
 91
        1
300
_HEADER
309
CELLSTYLE_END
300
CELLSTYLE
  1
TABLEFORMAT_BEGIN
 90
        5
170
     1
 91
        0
 92
        0
 62
   257
 93
        1
300
CONTENTFORMAT
  1
CONTENTFORMAT_BEGIN
 90
        0
 91
        0
 92
      512
 93
        0
300

 40
0.0
140
1.0
 94
        2
 62
     0
340
17
144
4.5
309
CONTENTFORMAT_END
171
     1
301
MARGIN
  1
CELLMARGIN_BEGIN
 40
1.5
 40
1.5
 40
1.5
 40
1.5
 40
4.5
 40
4.5
309
CELLMARGIN_END
 94
        6
 95
        1
302
GRIDFORMAT
  1
GRIDFORMAT_BEGIN
 90
        0
 91
        1
 62
     0
 92
       -2
340
0
 93
        0
 40
1.125
309
GRIDFORMAT_END
 95
        2
302
GRIDFORMAT
  1
GRIDFORMAT_BEGIN
 90
        0
 91
        1
 62
     0
 92
       -2
340
0
 93
        0
 40
1.125
309
GRIDFORMAT_END
 95
        4
302
GRIDFORMAT
  1
GRIDFORMAT_BEGIN
 90
        0
 91
        1
 62
     0
 92
       -2
340
0
 93
        0
 40
1.125
309
GRIDFORMAT_END
 95
        8
302
GRIDFORMAT
  1
GRIDFORMAT_BEGIN
 90
        0
 91
        1
 62
     0
 92
       -2
340
0
 93
        0
 40
1.125
309
GRIDFORMAT_END
 95
       16
302
GRIDFORMAT
  1
GRIDFORMAT_BEGIN
 90
        0
 91
        1
 62
     0
 92
       -2
340
0
 93
        0
 40
1.125
309
GRIDFORMAT_END
 95
       32
302
GRIDFORMAT
  1
GRIDFORMAT_BEGIN
 90
        0
 91
        1
 62
     0
 92
       -2
340
0
 93
        0
 40
1.125
309
GRIDFORMAT_END
309
TABLEFORMAT_END
  1
CELLSTYLE_BEGIN
 90
        3
 91
        2
300
_DATA
309
CELLSTYLE_END
  0
XRECORD
  5
5CE
102
{ACAD_REACTORS
330
5BF
102
}
330
5BF
100
AcDbXrecord
280
     1
102
ACAD_ROUNDTRIP_PRE2007_TABLESTYLE
 90
      512
 91
        0
  1

 92
      512
 93
        0
  2

 94
      512
 95
        0
  3

  0
ENDSEC
  0
EOF
